<?xml version="1.0" standalone="no"?>
<!DOCTYPE svg PUBLIC "-//W3C//DTD SVG 1.1//EN" "http://www.w3.org/Graphics/SVG/1.1/DTD/svg11.dtd" >
<svg xmlns="http://www.w3.org/2000/svg">
<metadata>
Generated by SVGconv.
Copyright   : Copyright  2010 ParaType Inc., ParaType Ltd. All rights reserved.
Designer    : A.Korolkova, I.Chaeva
Foundry     : ParaType Ltd
Foundry URL : http://www.paratype.com
</metadata>
<defs>
<font id="PTMono-Regular" horiz-adv-x="598" >
<font-face units-per-em="1000" ascent="885" descent="235" />
<missing-glyph horiz-adv-x="600" />
<glyph unicode="&#13;" horiz-adv-x="600" />
<glyph unicode="&#32;" horiz-adv-x="600" />
<glyph unicode="&#33;" horiz-adv-x="600" d="M259 700h83v-347l-17 -176h-49l-17 176zM242 46q0 27 15.5 42.5q15.5 15.5 41.5 15.5q27 0 43 -15.5q16 -15.5 16 -42.5q0 -26 -16 -42q-16 -16 -43 -16q-26 0 -41.5 16t-15.5 42z" />
<glyph unicode="&#34;" horiz-adv-x="600" d="M359 700h88l-31 -303h-57zM152 700h88l-31 -303l-57 0z" />
<glyph unicode="&#35;" horiz-adv-x="600" d="M342 225h-145l-39 -167h-69l39 167h-98l14 64h99l31 131h-94l14 64h95l38 158h69l-38 -158h145l38 158h69l-38 -158h97l-16 -64h-96l-31 -131h93l-16 -64h-92l-39 -167h-69zM212 289h145l31 131l-145 0z" />
<glyph unicode="&#36;" horiz-adv-x="600" d="M263 -12q-55 1 -97.5 9.5q-42.5 8.5 -68.5 22.5l27 73q20 -12 54.5 -21.5q34.5 -9.5 84.5 -11.5l0 270q-30 15 -59.5 32q-29.5 17 -52.5 40.5q-23 23.5 -37 55.5q-14 32 -14 76q0 72 40.5 118q40.5 46 122.5 57l0 91h68v-88q51 -2 83.5 -9.5q32.5 -7.5 58.5 -19.5l-24 -70q-20 10 -48 17.5q-28 7.5 -70 9.5l0 -247q31 -16 62 -34.5q31 -18.5 55.5 -42.5q24.5 -24 39.5 -56q15 -32 15 -75q0 -78 -43.5 -128.5q-43.5 -50.5 -128.5 -64.5l0 -92h-68zM420 178q0 24 -8.5 43q-8.5 19 -22.5 34q-14 15 -33 27q-19 12 -41 23l0 -243q46 8 75.5 36q29.5 28 29.5 80zt0 0zM183 539q0 -43 27.5 -70q27.5 -27 68.5 -49l0 219q-53 -6 -74.5 -35t-21.5 -65z" />
<glyph unicode="&#37;" horiz-adv-x="600" d="M28 542q0 47 11.5 79.5q11.5 32.5 29.5 52.5q18 20 41 29q23 9 46 9q23 0 46 -8q23 -8 41 -27.5q18 -19.5 29.5 -52q11.5 -32.5 11.5 -82.5q0 -49 -11.5 -81.5q-11.5 -32.5 -29.5 -52q-18 -19.5 -41 -27.5q-23 -8 -46 -8q-23 0 -46 8q-23 8 -41 27.5q-18 19.5 -29.5 52q-11.5 32.5 -11.5 81.5zt0 0zM98 542q0 -59 18.5 -82.5q18.5 -23.5 39.5 -23.5q11 0 21.5 4.5q10.5 4.5 18.5 16.5q8 12 13 32.5q5 20.5 5 52.5q0 31 -5 51.5q-5 20.5 -13 33q-8 12.5 -18.5 17.5q-10.5 5 -21.5 5q-23 0 -40.5 -23.5q-17.5 -23.5 -17.5 -83.5zt0 0zM315 169q0 47 11.5 79.5q11.5 32.5 29.5 52.5q18 20 41 29q23 9 46 9q23 0 46 -8q23 -8 41 -27.5q18 -19.5 29.5 -52q11.5 -32.5 11.5 -82.5q0 -49 -11.5 -81.5q-11.5 -32.5 -29.5 -52q-18 -19.5 -41 -27.5q-23 -8 -46 -8q-23 0 -46 8q-23 8 -41 27.5q-18 19.5 -29.5 52q-11.5 32.5 -11.5 81.5zt0 0zM385 169q0 -59 18.5 -82.5q18.5 -23.5 39.5 -23.5q11 0 21.5 4q10.5 4 18.5 15.5q8 11.5 13 32.5q5 21 5 54q0 31 -5 51.5q-5 20.5 -13 33q-8 12.5 -18.5 17.5q-10.5 5 -21.5 5q-11 0 -21.5 -5q-10.5 -5 -18.5 -17q-8 -12 -13 -32.5q-5 -20.5 -5 -52.5zt0 0zM442 718l57 -29l-348 -703l-57 26z" />
<glyph unicode="&#38;" horiz-adv-x="600" d="M30 207q0 66 37 126q37 60 103 101q-24 36 -41.5 72q-17.5 36 -17.5 78q0 24 8 47q8 23 25.5 41q17.5 18 45 29q27.5 11 66.5 11q41 0 69 -10.5q28 -10.5 45 -27.5q17 -17 24.5 -38q7.5 -21 7.5 -43q0 -42 -32.5 -86.5q-32.5 -44.5 -102.5 -85.5q16 -29 37.5 -59.5q21.5 -30.5 45.5 -60.5q24 -30 49 -59.5q25 -29.5 50 -54.5q11 16 19.5 39q8.5 23 14 48q5.5 25 8 50q2.5 25 2.5 46l71 0q-3 -63 -20 -125.5q-17 -62.5 -50 -105.5q14 -17 32 -33.5q18 -16.5 43 -32.5l0 -85q-53 26 -121 93q-18 -18 -36.5 -34.5q-18.5 -16.5 -41.5 -29.5q-23 -13 -52.5 -21q-29.5 -8 -68.5 -8q-41 0 -80 13.5q-39 13.5 -70 40.5q-31 27 -50 68q-19 41 -19 97zt0 0zM401 131q-29 29 -57 63q-28 34 -53.5 68q-25.5 34 -47 65.5q-21.5 31.5 -36.5 55.5q-54 -41 -75.5 -83q-21.5 -42 -21.5 -90q0 -39 14.5 -67.5q14.5 -28.5 36.5 -47.5q22 -19 48.5 -28q26.5 -9 51.5 -9q50 0 83.5 22.5q33.5 22.5 56.5 50.5zt0 0zM189 584q0 -30 12.5 -59.5q12.5 -29.5 32.5 -58.5q53 34 73.5 62q20.5 28 20.5 49q0 32 -15.5 52q-15.5 20 -53.5 20q-36 0 -53 -18t-17 -47z" />
<glyph unicode="&#39;" horiz-adv-x="600" d="M261 700h88l-31 -303l-57 0z" />
<glyph unicode="&#40;" horiz-adv-x="600" d="M432 -212q-67 17 -125.5 50.5q-58.5 33.5 -102 87.5q-43.5 54 -69 132q-25.5 78 -25.5 185q0 106 26 185.5q26 79.5 70 135q44 55.5 102.5 89q58.5 33.5 123.5 47.5l25 -63q-59 -17 -108 -44.5q-49 -27.5 -84.5 -73q-35.5 -45.5 -55 -113q-19.5 -67.5 -19.5 -163.5q0 -97 23.5 -165.5q23.5 -68.5 62 -114q38.5 -45.5 86 -71q47.5 -25.5 95.5 -35.5z" />
<glyph unicode="&#41;" horiz-adv-x="600" d="M143 -143q48 10 95.5 35.5q47.5 25.5 86 71q38.5 45.5 62 114q23.5 68.5 23.5 165.5q0 96 -19.5 163.5q-19.5 67.5 -55 113q-35.5 45.5 -84.5 73q-49 27.5 -108 44.5l25 63q65 -14 123.5 -47.5q58.5 -33.5 102.5 -89q44 -55.5 70 -135q26 -79.5 26 -185.5q0 -107 -25.5 -185q-25.5 -78 -69 -132q-43.5 -54 -102 -87.5q-58.5 -33.5 -125.5 -50.5z" />
<glyph unicode="&#42;" horiz-adv-x="600" d="M213 714l89 -175l86 176l69 -37l-121 -169l203 15v-81l-197 16l116 -161l-67 -39l-93 179l-88 -179l-72 39l121 161l-198 -16v81l198 -17l-115 168z" />
<glyph unicode="&#43;" horiz-adv-x="600" d="M48 374h216v221h72v-221h216v-72h-216v-221h-72v221l-216 0z" />
<glyph unicode="&#44;" horiz-adv-x="600" d="M229 55q0 30 19.5 48.5q19.5 18.5 50.5 18.5q38 0 59 -26.5q21 -26.5 21 -74.5q0 -39 -13 -68.5q-13 -29.5 -32.5 -50q-19.5 -20.5 -42 -33q-22.5 -12.5 -41.5 -18.5l-25 39q36 14 62 40q26 26 26 63q-14 -3 -22 -3q-29 0 -45.5 16.5t-16.5 48.5z" />
<glyph unicode="&#45;" horiz-adv-x="600" d="M129 325h342v-74l-342 0z" />
<glyph unicode="&#46;" horiz-adv-x="600" d="M233 55q0 32 18 49.5q18 17.5 48 17.5q32 0 50 -17.5q18 -17.5 18 -49.5q0 -29 -18 -48q-18 -19 -50 -19q-30 0 -48 19t-18 48z" />
<glyph unicode="&#47;" horiz-adv-x="600" d="M451 712l63 -28l-365 -824l-63 28z" />
<glyph unicode="&#48;" horiz-adv-x="600" d="M55 350q0 85 15 152.5q15 67.5 45 114q30 46.5 76 71q46 24.5 109 24.5q67 0 113.5 -24q46.5 -24 75.5 -70q29 -46 42 -113.5q13 -67.5 13 -154.5q0 -85 -15 -152.5q-15 -67.5 -45 -114q-30 -46.5 -76 -71q-46 -24.5 -109 -24.5q-66 0 -112.5 26.5q-46.5 26.5 -76 74.5q-29.5 48 -42.5 114.5q-13 66.5 -13 146.5zt0 0zM462 350q0 53 -6 101l-297 -271q17 -57 51 -91q34 -34 89 -34q88 0 125.5 73q37.5 73 37.5 222zt0 0zM138 350q0 -25 1.5 -48q1.5 -23 3.5 -45l298 270q-17 54 -50.5 86q-33.5 32 -90.5 32q-89 0 -125.5 -73.5t-36.5 -221.5z" />
<glyph unicode="&#49;" horiz-adv-x="600" d="M127 72h157v526l-160 -112l-39 57l220 157h56v-628h154v-72l-388 0z" />
<glyph unicode="&#50;" horiz-adv-x="600" d="M500 523q0 -92 -87 -205q-87 -113 -243 -246l352 0v-72h-444v72q19 18 52 47q33 29 71 64.5q38 35.5 77.5 76.5q39.5 41 71.5 84q32 43 52 86q20 43 20 83q0 60 -31.5 94.5q-31.5 34.5 -94.5 34.5q-54 0 -91 -12q-37 -12 -67 -35l-34 55q45 32 95.5 47q50.5 15 110.5 15q94 0 142 -51t48 -138z" />
<glyph unicode="&#51;" horiz-adv-x="600" d="M248 57q40 0 73.5 10.5q33.5 10.5 58.5 29.5q25 19 39 46q14 27 14 60q0 69 -48.5 98.5q-48.5 29.5 -130.5 29.5h-64v48l197 249h-299v72h395v-72l-197 -231h16q46 0 84 -13q38 -13 66 -37q28 -24 43.5 -58q15.5 -34 15.5 -77q0 -54 -21 -96q-21 -42 -57 -70.5q-36 -28.5 -84.5 -43q-48.5 -14.5 -103.5 -14.5q-51 0 -88.5 7.5q-37.5 7.5 -68.5 18.5l20 70q26 -12 61 -19.5t79 -7.5z" />
<glyph unicode="&#52;" horiz-adv-x="600" d="M580 218h-135v-218h-78v218h-323v58l335 424h66v-416h135zM367 575l-231 -291l231 0z" />
<glyph unicode="&#53;" horiz-adv-x="600" d="M256 58q38 0 70 9.5q32 9.5 54.5 29q22.5 19.5 35 48.5q12.5 29 12.5 68q0 72 -51.5 109.5q-51.5 37.5 -140.5 37.5l-94 -5v345h343v-72h-268v-203l50 2q111 0 175 -54q64 -54 64 -154q0 -56 -19.5 -99q-19.5 -43 -53.5 -72.5q-34 -29.5 -80.5 -44.5q-46.5 -15 -101.5 -15q-30 0 -57 4.5q-27 4.5 -49 11q-22 6.5 -38.5 14q-16.5 7.5 -23.5 13.5l32 65q17 -10 52 -24t89 -14z" />
<glyph unicode="&#54;" horiz-adv-x="600" d="M539 211q0 -43 -15.5 -83q-15.5 -40 -45.5 -71q-30 -31 -74 -50q-44 -19 -102 -19q-54 0 -98 17q-44 17 -76 48.5q-32 31.5 -49.5 77.5q-17.5 46 -17.5 103q0 94 27.5 178q27.5 84 77 148q49.5 64 118 104q68.5 40 150.5 48l14 -64q-63 -8 -115.5 -37q-52.5 -29 -91.5 -72q-39 -43 -63.5 -95q-24.5 -52 -31.5 -106q8 13 23.5 27q15.5 14 37 24.5q21.5 10.5 48 17.5q26.5 7 57.5 7q53 0 95 -14.5q42 -14.5 71.5 -41q29.5 -26.5 45 -64q15.5 -37.5 15.5 -83.5zt0 0zM457 203q0 70 -39 107q-39 37 -120 37q-29 0 -54 -7q-25 -7 -45 -18.5q-20 -11.5 -35 -26.5q-15 -15 -23 -30q-2 -14 -2 -22q0 -8 0 -19q0 -30 10 -60.5q10 -30.5 30.5 -54.5q20.5 -24 51.5 -39q31 -15 73 -15q34 0 62 12q28 12 48.5 32q20.5 20 31.5 47t11 57z" />
<glyph unicode="&#55;" horiz-adv-x="600" d="M124 0l306 628h-361v72h442v-65l-305 -635z" />
<glyph unicode="&#56;" horiz-adv-x="600" d="M75 170q0 121 147 195q-28 15 -52 31q-24 16 -41.5 36q-17.5 20 -27.5 46q-10 26 -10 60q0 37 15 69q15 32 43 55q28 23 68 36.5q40 13.5 89 13.5q46 0 83.5 -12q37.5 -12 64 -33.5q26.5 -21.5 40.5 -50.5q14 -29 14 -62q0 -57 -28.5 -104.5q-28.5 -47.5 -91.5 -86.5q29 -15 54 -32q25 -17 43.5 -38q18.5 -21 29 -47.5q10.5 -26.5 10.5 -60.5q0 -42 -15 -78.5q-15 -36.5 -44.5 -62.5q-29.5 -26 -72.5 -41q-43 -15 -100 -15q-53 0 -94 15q-41 15 -68.5 40q-27.5 25 -41.5 58q-14 33 -14 69zt0 0zM446 180q0 29 -13.5 51.5q-13.5 22.5 -36 40.5q-22.5 18 -51.5 33q-29 15 -60 30q-72 -35 -102.5 -77q-30.5 -42 -30.5 -79q0 -25 9.5 -47.5q9.5 -22.5 28 -39.5q18.5 -17 46 -27q27.5 -10 63.5 -10q29 0 55.5 8q26.5 8 47 23.5q20.5 15.5 32.5 39q12 23.5 12 54.5zt0 0zM169 541q0 -28 13 -50q13 -22 34.5 -39.5q21.5 -17.5 49.5 -32q28 -14.5 59 -28.5q53 35 79.5 70q26.5 35 26.5 77q0 25 -10.5 44.5q-10.5 19.5 -28 33.5q-17.5 14 -40.5 21.5q-23 7.5 -48 7.5q-32 0 -57 -9q-25 -9 -42 -24q-17 -15 -26.5 -33.5t-9.5 -37.5z" />
<glyph unicode="&#57;" horiz-adv-x="600" d="M61 489q0 46 15 86.5q15 40.5 45.5 71q30.5 30.5 75.5 48q45 17.5 105 17.5q56 0 100 -18q44 -18 74.5 -50.5q30.5 -32.5 46.5 -79q16 -46.5 16 -103.5q0 -112 -28 -197q-28 -85 -78 -144q-50 -59 -118.5 -92q-68.5 -33 -148.5 -40l-15 63q66 7 118 32q52 25 90 64q38 39 62 90q24 51 33 109q-16 -17 -32.5 -28.5q-16.5 -11.5 -36.5 -18.5q-20 -7 -44 -10q-24 -3 -55 -3q-46 0 -87 14q-41 14 -71.5 40.5q-30.5 26.5 -48.5 64q-18 37.5 -18 84.5zt0 0zM143 497q0 -72 43.5 -108q43.5 -36 115.5 -36q57 0 98.5 17.5q41.5 17.5 58.5 43.5q2 14 2 22.5q0 8.5 0 19.5q0 35 -9.5 69q-9.5 34 -29.5 61q-20 27 -51.5 43.5q-31.5 16.5 -75.5 16.5q-72 0 -112 -39t-40 -110z" />
<glyph unicode="&#58;" horiz-adv-x="600" d="M233 448q0 32 18 49.5q18 17.5 48 17.5q32 0 50 -17.5q18 -17.5 18 -49.5q0 -29 -18 -48q-18 -19 -50 -19q-30 0 -48 19q-18 19 -18 48zt0 0zM233 55q0 32 18 49.5q18 17.5 48 17.5q32 0 50 -17.5q18 -17.5 18 -49.5q0 -29 -18 -48q-18 -19 -50 -19q-30 0 -48 19t-18 48z" />
<glyph unicode="&#59;" horiz-adv-x="600" d="M229 55q0 30 19.5 48.5q19.5 18.5 50.5 18.5q38 0 59 -26.5q21 -26.5 21 -74.5q0 -39 -13 -68.5q-13 -29.5 -32.5 -50q-19.5 -20.5 -42 -33q-22.5 -12.5 -41.5 -18.5l-25 39q36 14 62 40q26 26 26 63q-14 -3 -22 -3q-29 0 -45.5 16.5q-16.5 16.5 -16.5 48.5zt0 0zM238 448q0 32 18 49.5q18 17.5 48 17.5q32 0 50 -17.5q18 -17.5 18 -49.5q0 -29 -18 -48q-18 -19 -50 -19q-30 0 -48 19t-18 48z" />
<glyph unicode="&#60;" horiz-adv-x="600" d="M45 305v29l471 287l38 -62l-397 -235l398 -231l-38 -60z" />
<glyph unicode="&#61;" horiz-adv-x="600" d="M68 457h464v-72h-464zM68 291h464v-72l-464 0z" />
<glyph unicode="&#62;" horiz-adv-x="600" d="M83 33l-38 60l398 231l-397 235l38 62l471 -287l0 -29z" />
<glyph unicode="&#63;" horiz-adv-x="600" d="M232 177q-1 5 -1 11q0 6 0 11q0 42 15.5 72q15.5 30 38.5 53.5q23 23.5 49.5 42.5q26.5 19 49.5 40.5q23 21.5 38.5 47.5q15.5 26 15.5 62q0 19 -9 41q-9 22 -27.5 41q-18.5 19 -48 31q-29.5 12 -70.5 12q-33 0 -59.5 -8q-26.5 -8 -48 -20q-21.5 -12 -39 -26.5q-17.5 -14.5 -31.5 -27.5l-51 46q42 53 108.5 79.5q66.5 26.5 152.5 26.5q52 0 91 -17q39 -17 64.5 -43.5q25.5 -26.5 38 -59q12.5 -32.5 12.5 -63.5q0 -48 -16.5 -80.5q-16.5 -32.5 -41.5 -58q-25 -25.5 -53.5 -46q-28.5 -20.5 -53.5 -44q-25 -23.5 -41.5 -52.5q-16.5 -29 -16.5 -71zM212 46q0 27 15.5 42.5q15.5 15.5 41.5 15.5q27 0 43 -15.5q16 -15.5 16 -42.5q0 -26 -16 -42q-16 -16 -43 -16q-26 0 -41.5 16t-15.5 42z" />
<glyph unicode="&#64;" horiz-adv-x="600" d="M527 327q0 -38 -2 -81q-2 -43 -3 -86q0 -50 6 -95l67 0v-65h-133l-9 75h-5q-6 -9 -15 -23q-9 -14 -24.5 -27.5q-15.5 -13.5 -40.5 -23.5q-25 -10 -63 -10q-32 0 -59.5 10q-27.5 10 -47.5 28.5q-20 18.5 -31.5 44.5q-11.5 26 -11.5 59q0 51 22 85q22 34 61 52q39 18 92.5 21q53.5 3 116.5 -8q3 50 -1 86.5q-4 36.5 -18 60q-14 23.5 -39.5 35q-25.5 11.5 -65.5 11.5q-42 0 -83.5 -21q-41.5 -21 -73.5 -61.5q-32 -40.5 -52 -99q-20 -58.5 -20 -132.5q0 -79 21.5 -137q21.5 -58 57.5 -96q36 -38 83.5 -56.5q47.5 -18.5 100.5 -18.5q22 0 47.5 5.5q25.5 5.5 50 15.5q24.5 10 46 24.5q21.5 14.5 37.5 32.5l41 -53q-42 -45 -101.5 -68.5q-59.5 -23.5 -128.5 -23.5q-58 0 -116 19.5q-58 19.5 -105 63q-47 43.5 -76.5 114q-29.5 70.5 -29.5 172.5q0 99 28 171.5q28 72.5 73 120.5q45 48 102 71.5q57 23.5 115 23.5q52 0 88 -13q36 -13 58 -39.5q22 -26.5 31.5 -67q9.5 -40.5 9.5 -96.5zt0 0zM325 58q28 0 49 9q21 9 35 23q14 14 23 30.5q9 16.5 15 31.5l0 70q-47 9 -85.5 9q-38.5 0 -66.5 -9.5q-28 -9.5 -43 -29.5q-15 -20 -15 -52q0 -33 21.5 -57.5t66.5 -24.5z" />
<glyph unicode="&#65;" horiz-adv-x="600" d="M431 194h-269l-64 -194h-82l234 700h98l236 -700h-87zM188 266h220l-103 329l-12 0z" />
<glyph unicode="&#66;" horiz-adv-x="600" d="M522 540q0 -25 -8 -51q-8 -26 -24 -48.5q-16 -22.5 -41 -39.5q-25 -17 -59 -26l0 -4q30 -5 57.5 -17q27.5 -12 48.5 -33q21 -21 34 -51q13 -30 13 -71q0 -54 -22.5 -93.5q-22.5 -39.5 -59 -64.5q-36.5 -25 -83.5 -37q-47 -12 -96 -12q-17 0 -40 0q-23 0 -48 1.5q-25 1.5 -50 4q-25 2.5 -44 7.5l0 689q37 6 86 10q49 4 107 4q39 0 79.5 -6.5q40.5 -6.5 73.5 -25q33 -18.5 54.5 -51.5q21.5 -33 21.5 -85zt0 0zM290 64q32 0 62 8q30 8 53 24q23 16 36.5 40q13.5 24 13.5 57q0 41 -16.5 66q-16.5 25 -43 39q-26.5 14 -59.5 19q-33 5 -66 5h-87v-251q7 -2 20 -3q13 -1 28 -2q15 -1 31 -1.5q16 -0.5 28 -0.5zt0 0zM235 392q17 0 41 1q24 1 40 3q24 8 45 19.5q21 11.5 37.5 27.5q16.5 16 26 36q9.5 20 9.5 44q0 33 -12.5 55q-12.5 22 -33.5 35q-21 13 -48 18q-27 5 -55 5q-33 0 -60.5 -1.5q-27.5 -1.5 -41.5 -4.5l0 -238z" />
<glyph unicode="&#67;" horiz-adv-x="600" d="M458 624q-17 7 -37.5 10.5q-20.5 3.5 -49.5 3.5q-41 0 -80.5 -15q-39.5 -15 -70 -49q-30.5 -34 -49 -89q-18.5 -55 -18.5 -135q0 -72 16.5 -126q16.5 -54 46 -90q29.5 -36 71 -54q41.5 -18 92.5 -18q26 0 48.5 4.5q22.5 4.5 41.5 12.5l0 100h74v-135l1 -2q-30 -23 -76 -38.5q-46 -15.5 -112 -15.5q-63 0 -116.5 21.5q-53.5 21.5 -92.5 65.5q-39 44 -60.5 112.5q-21.5 68.5 -21.5 162.5q0 98 24 166.5q24 68.5 65 112q41 43.5 95.5 63.5q54.5 20 116.5 20q34 0 59 -2.5q25 -2.5 44 -7q19 -4.5 33.5 -11.5q14.5 -7 28.5 -16l1 0v-158l-74 0z" />
<glyph unicode="&#68;" horiz-adv-x="600" d="M80 700q38 5 79.5 6.5q41.5 1.5 70.5 1.5q91 0 152.5 -26q61.5 -26 99 -72.5q37.5 -46.5 54 -111.5q16.5 -65 16.5 -143q0 -71 -15 -136.5q-15 -65.5 -52 -116q-37 -50.5 -99.5 -81q-62.5 -30.5 -156.5 -30.5q-13 0 -34 0.5q-21 0.5 -43 2q-22 1.5 -42 2.5q-20 1 -30 3zM234 634q-14 0 -35.5 -1q-21.5 -1 -35.5 -4l0 -560q5 -1 14.5 -1.5q9.5 -0.5 19.5 -1q10 -0.5 19.5 -1q9.5 -0.5 15.5 -0.5q73 0 118.5 24q45.5 24 70.5 64.5q25 40.5 34 93q9 52.5 9 108.5q0 49 -8 98.5q-8 49.5 -32.5 89.5q-24.5 40 -70 65.5t-119.5 25.5z" />
<glyph unicode="&#69;" horiz-adv-x="600" d="M107 700h411v-74h-328v-229h303v-74h-303v-249h333v-74l-416 0z" />
<glyph unicode="&#70;" horiz-adv-x="600" d="M117 700h401v-74h-318v-239h298v-74h-298v-313l-83 0z" />
<glyph unicode="&#71;" horiz-adv-x="600" d="M437 631q-34 7 -83 7q-42 0 -80.5 -14.5q-38.5 -14.5 -68 -48.5q-29.5 -34 -47 -89q-17.5 -55 -17.5 -136q0 -148 54.5 -218q54.5 -70 157.5 -70q64 0 109 25l0 195h-144v67h215v-308q-16 -12 -38.5 -22q-22.5 -10 -48 -17q-25.5 -7 -53 -10.5q-27.5 -3.5 -53.5 -3.5q-67 0 -120 21.5q-53 21.5 -90 66q-37 44.5 -57 113q-20 68.5 -20 161.5q0 97 25 166q25 69 66 112.5q41 43.5 94 63.5q53 20 109 20q60 0 99 -6.5q39 -6.5 66 -17.5l-1 -4v-167l-74 0z" />
<glyph unicode="&#72;" horiz-adv-x="600" d="M457 321h-314v-321h-83v700h83v-305h314v305h83v-700l-83 0z" />
<glyph unicode="&#73;" horiz-adv-x="600" d="M60 700h480v-74h-199v-552h199v-74h-480v74h198v552l-198 0z" />
<glyph unicode="&#74;" horiz-adv-x="600" d="M97 700h396v-452q0 -126 -60 -192q-60 -66 -173 -66q-29 0 -57 5q-28 5 -52 13.5q-24 8.5 -41.5 18.5q-17.5 10 -25.5 19l36 66q11 -7 24.5 -15q13.5 -8 30 -15.5q16.5 -7.5 37 -12.5q20.5 -5 46.5 -5q75 0 113.5 47q38.5 47 38.5 152v363l-313 0z" />
<glyph unicode="&#75;" horiz-adv-x="600" d="M245 324h-77v-324h-83v700h83v-312h75l225 312h96l-247 -333l278 -367l-105 0z" />
<glyph unicode="&#76;" horiz-adv-x="600" d="M90 700h83v-626h283v174h74v-248l-440 0z" />
<glyph unicode="&#77;" horiz-adv-x="600" d="M457 465l10 95h-5l-48 -86l-102 -171h-25l-107 172l-46 85h-5l12 -94v-466h-81v700h77l166 -266h2l160 266h75v-700l-83 0z" />
<glyph unicode="&#78;" horiz-adv-x="600" d="M196 438l-54 101h-4l10 -101v-438h-78v700h54l282 -436l52 -96h5l-11 96v436h78v-700l-54 0z" />
<glyph unicode="&#79;" horiz-adv-x="600" d="M48 350q0 174 61.5 268q61.5 94 189.5 94q70 0 118.5 -26q48.5 -26 78.5 -73.5q30 -47.5 43 -114q13 -66.5 13 -148.5q0 -174 -61.5 -268q-61.5 -94 -191.5 -94q-69 0 -117 26q-48 26 -78 73.5q-30 47.5 -43 114q-13 66.5 -13 148.5zt0 0zM136 350q0 -58 7.5 -110q7.5 -52 26.5 -91.5q19 -39.5 50 -63q31 -23.5 79 -23.5q86 0 125.5 70q39.5 70 39.5 218q0 57 -7.5 109.5q-7.5 52.5 -26.5 92q-19 39.5 -51 63q-32 23.5 -80 23.5q-85 0 -124 -70.5t-39 -217.5z" />
<glyph unicode="&#80;" horiz-adv-x="600" d="M100 693q38 9 82 12q44 3 87 3q46 0 93.5 -9q47.5 -9 86.5 -33q39 -24 63.5 -66q24.5 -42 24.5 -107q0 -64 -23 -108q-23 -44 -61 -71.5q-38 -27.5 -87 -39.5q-49 -12 -101 -12q-5 0 -16.5 0q-11.5 0 -24 0.5q-12.5 0.5 -24.5 1.5q-12 1 -17 2l0 -266h-83zM271 636q-26 0 -50 -1q-24 -1 -38 -5l0 -290q5 -2 16 -2.5q11 -0.5 23 -1q12 -0.5 23 -0.5q11 0 16 0q34 0 67.5 6.5q33.5 6.5 60.5 23.5q27 17 43.5 48q16.5 31 16.5 79q0 41 -15.5 68.5q-15.5 27.5 -41 44q-25.5 16.5 -57.5 23.5t-64 7z" />
<glyph unicode="&#81;" horiz-adv-x="600" d="M48 350q0 174 61.5 268q61.5 94 189.5 94q70 0 118.5 -26q48.5 -26 78.5 -73.5q30 -47.5 43 -114q13 -66.5 13 -148.5q0 -161 -51 -252.5q-51 -91.5 -160 -106.5q9 -35 33.5 -52.5q24.5 -17.5 62.5 -17.5q43 0 77 22l22 -61q-14 -16 -43.5 -25.5q-29.5 -9.5 -61.5 -9.5q-27 0 -55.5 7.5q-28.5 7.5 -53.5 24.5q-25 17 -43.5 44.5q-18.5 27.5 -24.5 68.5q-57 8 -96 36.5q-39 28.5 -63.5 75q-24.5 46.5 -35.5 109q-11 62.5 -11 137.5zt0 0zM136 350q0 -58 7.5 -110q7.5 -52 26.5 -91.5q19 -39.5 50 -63q31 -23.5 79 -23.5q86 0 125.5 70q39.5 70 39.5 218q0 57 -7.5 109.5q-7.5 52.5 -26.5 92q-19 39.5 -51 63q-32 23.5 -80 23.5q-85 0 -124 -70.5t-39 -217.5z" />
<glyph unicode="&#82;" horiz-adv-x="600" d="M100 693q38 7 87.5 11q49.5 4 90.5 4q46 0 87.5 -10q41.5 -10 73 -33q31.5 -23 50.5 -60q19 -37 19 -90q0 -41 -13.5 -72.5q-13.5 -31.5 -33 -54q-19.5 -22.5 -40.5 -36.5q-21 -14 -36 -20l185 -332h-97l-165 308h-125v-308h-83zM280 636q-13 0 -27 0q-14 0 -27 -1q-13 -1 -24.5 -2q-11.5 -1 -18.5 -3l0 -258h78q69 0 114 34q45 34 45 106q0 54 -37 89t-103 35z" />
<glyph unicode="&#83;" horiz-adv-x="600" d="M150 99q30 -16 67.5 -26.5q37.5 -10.5 75.5 -10.5q33 0 62 6.5q29 6.5 50.5 21q21.5 14.5 34 36.5q12.5 22 12.5 52q0 41 -27.5 67q-27.5 26 -68.5 46q-41 20 -89 39q-48 19 -89 45q-41 26 -68.5 63.5q-27.5 37.5 -27.5 95.5q0 41 16.5 74q16.5 33 46.5 56q30 23 72.5 35.5q42.5 12.5 94.5 12.5q60 0 109 -8.5q49 -8.5 78 -22.5l2 1v-2h1l-1 -3v-160h-74v107q-25 6 -55 10q-30 4 -64 4q-33 0 -59.5 -8q-26.5 -8 -45 -21.5q-18.5 -13.5 -28.5 -31.5q-10 -18 -10 -38q0 -39 27.5 -65q27.5 -26 68.5 -46.5q41 -20.5 89 -40.5q48 -20 89 -46.5q41 -26.5 68.5 -63.5q27.5 -37 27.5 -92q0 -45 -16.5 -81q-16.5 -36 -47 -62q-30.5 -26 -75 -40q-44.5 -14 -100.5 -14q-38 0 -72 6q-34 6 -62.5 15q-28.5 9 -51 19q-22.5 10 -35.5 17l1 3v162l74 0z" />
<glyph unicode="&#84;" horiz-adv-x="600" d="M40 700h520v-183h-74v109h-145v-552h110v-74h-303v74h110v552h-144v-109l-74 0z" />
<glyph unicode="&#85;" horiz-adv-x="600" d="M460 700h80v-467q0 -63 -16.5 -109q-16.5 -46 -46.5 -75.5q-30 -29.5 -73 -43.5q-43 -14 -95 -14q-124 0 -186.5 56q-62.5 56 -62.5 170v483h83v-444q0 -53 10.5 -89.5q10.5 -36.5 31 -59q20.5 -22.5 52 -32.5q31.5 -10 73.5 -10q81 0 115.5 44.5q34.5 44.5 34.5 146.5z" />
<glyph unicode="&#86;" horiz-adv-x="600" d="M302 103h11l190 597h83l-235 -700h-97l-240 700l91 0z" />
<glyph unicode="&#87;" horiz-adv-x="600" d="M173 201l5 -65h7l14 71l74 273h66l69 -271l18 -74h5l6 68l74 497h74l-108 -700h-83l-81 284l-10 68h-3l-11 -69l-81 -283h-84l-109 700l79 0z" />
<glyph unicode="&#88;" horiz-adv-x="600" d="M251 356l-211 344h100l140 -237l25 -47l24 47l149 237h92l-219 -337l229 -363h-97l-157 251l-27 50l-26 -50l-160 -251l-93 0z" />
<glyph unicode="&#89;" horiz-adv-x="600" d="M259 268l-250 432h97l200 -346h1l195 346h89l-249 -431v-269l-83 0z" />
<glyph unicode="&#90;" horiz-adv-x="600" d="M55 75l395 551h-395v74h490v-75l-397 -551h397v-74l-490 0z" />
<glyph unicode="&#91;" horiz-adv-x="600" d="M149 700h341v-70h-263v-790h263v-70l-341 0z" />
<glyph unicode="&#92;" horiz-adv-x="600" d="M518 -111l-66 -29l-370 824l67 28z" />
<glyph unicode="&#93;" horiz-adv-x="600" d="M451 -230h-342v70h264v790h-264v70l342 0z" />
<glyph unicode="&#94;" horiz-adv-x="600" d="M294 711h29l244 -410h-82l-180 308l-187 -308l-83 0z" />
<glyph unicode="&#95;" horiz-adv-x="600" d="M56 -135h488v-70l-488 0z" />
<glyph unicode="&#96;" horiz-adv-x="600" d="M370 571h-55l-119 149l109 0z" />
<glyph unicode="&#97;" horiz-adv-x="600" d="M108 461q43 25 97 36q54 11 106 11q51 0 83.5 -16q32.5 -16 51 -41.5q18.5 -25.5 25 -58q6.5 -32.5 6.5 -65.5q0 -38 -2 -81q-2 -43 -3 -86q0 -50 6 -95l67 0v-65h-133l-9 75h-5q-6 -9 -18 -23q-12 -14 -31.5 -27.5q-19.5 -13.5 -47.5 -23.5q-28 -10 -66 -10q-74 0 -117 38q-43 38 -43 104q0 51 22.5 85q22.5 34 64.5 52q42 18 101.5 21q59.5 3 133.5 -8q5 46 1.5 76.5q-3.5 30.5 -16 48.5q-12.5 18 -35 25.5q-22.5 7.5 -55.5 7.5q-45 0 -86 -12.5q-41 -12.5 -73 -25.5zM255 58q28 0 52 9q24 9 42 23q18 14 30 30.5q12 16.5 18 31.5l0 70q-52 9 -96 9q-44 0 -76 -9.5q-32 -9.5 -50 -29.5q-18 -20 -18 -52q0 -33 22.5 -57.5t75.5 -24.5z" />
<glyph unicode="&#98;" horiz-adv-x="600" d="M2 700h160v-257h5q26 33 67 51q41 18 89 18q220 0 220 -254q0 -129 -71 -197.5q-71 -68.5 -202 -68.5q-62 0 -112 12q-50 12 -73 28l0 601h-83zM313 445q-60 0 -97 -34q-37 -34 -54 -96l0 -230q23 -12 55 -19q32 -7 67 -7q40 0 72.5 11.5q32.5 11.5 55.5 36q23 24.5 35.5 62.5q12.5 38 12.5 90q0 38 -8 72q-8 34 -25.5 59.5q-17.5 25.5 -45.5 40t-68 14.5z" />
<glyph unicode="&#99;" horiz-adv-x="600" d="M439 423q-23 8 -49.5 13.5q-26.5 5.5 -52.5 5.5q-98 0 -146 -46q-48 -46 -48 -146q0 -44 14 -78.5q14 -34.5 40 -58.5q26 -24 62.5 -37q36.5 -13 80.5 -13q47 0 91.5 16q44.5 16 74.5 42l35 -58q-14 -12 -35 -25q-21 -13 -48.5 -24.5q-27.5 -11.5 -61 -18.5q-33.5 -7 -72.5 -7q-65 0 -114.5 18.5q-49.5 18.5 -82.5 53q-33 34.5 -50 83q-17 48.5 -17 107.5q0 63 17.5 112q17.5 49 50.5 82q33 33 80 50.5q47 17.5 105 17.5q74 0 120.5 -13q46.5 -13 78.5 -29l-1 -3v-139l-72 0z" />
<glyph unicode="&#100;" horiz-adv-x="600" d="M349 700h162v-529q0 -9 1 -22.5q1 -13.5 2.5 -28.5q1.5 -15 3.5 -29.5q2 -14.5 4 -25.5l67 0v-65h-133l-10 77h-4q-22 -38 -65.5 -63.5q-43.5 -25.5 -100.5 -25.5q-113 0 -166.5 63.5q-53.5 63.5 -53.5 197.5q0 63 18 111.5q18 48.5 51.5 81q33.5 32.5 80.5 49.5q47 17 105 17q21 0 37.5 -1q16.5 -1 30.5 -3q14 -2 26.5 -5.5q12.5 -3.5 27.5 -7.5l0 142h-84zM289 55q61 0 96 31.5q35 31.5 48 94.5l0 232q-22 15 -49.5 22q-27.5 7 -72.5 7q-80 0 -126 -46.5q-46 -46.5 -46 -146.5q0 -41 7.5 -76.5q7.5 -35.5 25 -61.5q17.5 -26 46.5 -41t71 -15z" />
<glyph unicode="&#101;" horiz-adv-x="600" d="M529 63q-18 -16 -42.5 -30q-24.5 -14 -53.5 -24q-29 -10 -60.5 -15.5q-31.5 -5.5 -63.5 -5.5q-60 0 -106 18.5q-46 18.5 -77 53q-31 34.5 -47 82.5q-16 48 -16 108q0 63 17.5 112q17.5 49 50.5 82q33 33 80 50.5q47 17.5 105 17.5q42 0 83 -11q41 -11 72.5 -41.5q31.5 -30.5 48.5 -84q17 -53.5 12 -138.5l-387 0q0 -90 48.5 -134.5q48.5 -44.5 129.5 -44.5q27 0 53.5 6.5q26.5 6.5 50.5 15.5q24 9 42.5 20q18.5 11 28.5 20zM318 446q-33 0 -62.5 -7q-29.5 -7 -52 -23.5q-22.5 -16.5 -37 -43q-14.5 -26.5 -18.5 -65.5l311 0q-5 66 -42.5 102.5t-98.5 36.5z" />
<glyph unicode="&#102;" horiz-adv-x="600" d="M88 0v67h119v366h-119v67h119v28q0 94 49 136q49 42 140 42q33 0 59 -4q26 -4 56 -16l-18 -65q-26 11 -50 14.5q-24 3.5 -44 3.5q-66 0 -90 -32.5q-24 -32.5 -24 -106.5l207 0v-67h-207v-366h207l0 -67z" />
<glyph unicode="&#103;" horiz-adv-x="600" d="M524 -25q0 -47 -18 -82.5q-18 -35.5 -49.5 -58.5q-31.5 -23 -73.5 -34.5q-42 -11.5 -91 -11.5q-59 0 -103 12q-44 12 -76 31l38 71q9 -8 23.5 -15.5q14.5 -7.5 33.5 -14q19 -6.5 40.5 -10.5q21.5 -4 42.5 -4q44 0 73.5 8q29.5 8 47.5 25q18 17 26 44q8 27 8 66v56h-4q-23 -33 -59 -51q-36 -18 -93 -18q-114 0 -167.5 63.5q-53.5 63.5 -53.5 197.5q0 128 68 193.5q68 65.5 202 65.5q62 0 105.5 -8.5q43.5 -8.5 79.5 -21.5zM301 55q61 0 96 31.5q35 31.5 49 96.5l0 237q-44 21 -123 21q-80 0 -126 -47q-46 -47 -46 -144q0 -43 8 -78.5q8 -35.5 25.5 -61.5q17.5 -26 46 -40.5t70.5 -14.5z" />
<glyph unicode="&#104;" horiz-adv-x="600" d="M4 700h156v-262h5q31 35 72 54.5q41 19.5 102 19.5q48 0 83.5 -10q35.5 -10 58 -35q22.5 -25 33.5 -68.5q11 -43.5 11 -110.5v-288h-78v273q0 43 -5 75q-5 32 -19.5 53.5q-14.5 21.5 -39.5 32.5q-25 11 -64 11q-27 0 -53 -9.5q-26 -9.5 -47.5 -26q-21.5 -16.5 -37 -40q-15.5 -23.5 -21.5 -51.5l0 -318h-77v633l-79 0z" />
<glyph unicode="&#105;" horiz-adv-x="600" d="M105 0v67h174v366h-174v67h254v-433h170v-67zM252 642q0 27 18 46.5q18 19.5 46 19.5q29 0 48.5 -19.5q19.5 -19.5 19.5 -46.5q0 -26 -19.5 -44q-19.5 -18 -48.5 -18q-28 0 -46 18t-18 44z" />
<glyph unicode="&#106;" horiz-adv-x="600" d="M336 433h-242v67h322v-512q0 -101 -51.5 -150.5q-51.5 -49.5 -142.5 -49.5q-27 0 -52.5 7q-25.5 7 -47.5 16.5q-22 9.5 -38.5 19.5q-16.5 10 -24.5 16l33 65q27 -20 61.5 -35q34.5 -15 71.5 -15q60 0 85.5 37.5q25.5 37.5 25.5 103.5zM294 642q0 27 18 46.5q18 19.5 46 19.5q29 0 48.5 -19.5q19.5 -19.5 19.5 -46.5q0 -26 -19.5 -44q-19.5 -18 -48.5 -18q-28 0 -46 18t-18 44z" />
<glyph unicode="&#107;" horiz-adv-x="600" d="M24 700h162v-414h55l197 214h94l-221 -237l182 -196h65v-67h-103l-214 226h-55v-226h-77v633l-85 0z" />
<glyph unicode="&#108;" horiz-adv-x="600" d="M119 700h166v-532q0 -61 20.5 -86q20.5 -25 60.5 -25q28 0 53.5 10q25.5 10 56.5 34l36 -55q-16 -14 -35 -25q-19 -11 -39 -18.5q-20 -7.5 -40 -11.5q-20 -4 -37 -4q-37 0 -66 9.5q-29 9.5 -48.5 30.5q-19.5 21 -29.5 55.5q-10 34.5 -10 85.5v465l-88 0z" />
<glyph unicode="&#109;" horiz-adv-x="600" d="M262 0v333q0 21 -1.5 40.5q-1.5 19.5 -7 35q-5.5 15.5 -16 24.5q-10.5 9 -27.5 9q-34 0 -57.5 -28q-23.5 -28 -35.5 -70l0 -344h-76v500h52l15 -61h4q10 15 19.5 28.5q9.5 13.5 22 23.5q12.5 10 29.5 15.5q17 5.5 43 5.5q15 0 31 -4.5q16 -4.5 29.5 -14q13.5 -9.5 23.5 -25.5q10 -16 13 -39q23 39 51.5 61q28.5 22 78.5 22q33 0 53.5 -11q20.5 -11 32 -31.5q11.5 -20.5 16 -49q4.5 -28.5 4.5 -63.5v-357h-76v340q0 21 -2 39.5q-2 18.5 -7.5 32.5q-5.5 14 -15 22q-9.5 8 -25.5 8q-35 0 -59 -28q-24 -28 -36 -80l0 -334z" />
<glyph unicode="&#110;" horiz-adv-x="600" d="M93 325q0 9 -0.5 23.5q-0.5 14.5 -1.5 30q-1 15.5 -2.5 30.5q-1.5 15 -3.5 26l-67 0v65h134l9 -81h5q10 17 26.5 33.5q16.5 16.5 38.5 30q22 13.5 49 21.5q27 8 57 8q46 0 81.5 -10q35.5 -10 59 -35.5q23.5 -25.5 35.5 -69q12 -43.5 12 -110.5v-287h-78v272q0 83 -27 125q-27 42 -98 42q-26 0 -50.5 -10.5q-24.5 -10.5 -44.5 -27.5q-20 -17 -35 -39.5q-15 -22.5 -22 -47.5l0 -314l-77 0z" />
<glyph unicode="&#111;" horiz-adv-x="600" d="M57 250q0 121 63 191.5q63 70.5 180 70.5q63 0 108.5 -20.5q45.5 -20.5 75.5 -55.5q30 -35 44.5 -83q14.5 -48 14.5 -103q0 -60 -16 -108.5q-16 -48.5 -47 -82.5q-31 -34 -76.5 -52.5q-45.5 -18.5 -103.5 -18.5q-62 0 -108 20.5q-46 20.5 -76 55.5q-30 35 -44.5 83q-14.5 48 -14.5 103zt0 0zM140 250q0 -35 8.5 -70q8.5 -35 27.5 -63q19 -28 49.5 -45q30.5 -17 74.5 -17q80 0 120.5 49.5q40.5 49.5 40.5 145.5q0 36 -8.5 70.5q-8.5 34.5 -28 62.5q-19.5 28 -50 45q-30.5 17 -74.5 17q-80 0 -120 -49t-40 -146z" />
<glyph unicode="&#112;" horiz-adv-x="600" d="M96 325q0 9 -0.5 23.5q-0.5 14.5 -1.5 30q-1 15.5 -2.5 30.5q-1.5 15 -3.5 26l-67 0v65h133l10 -70h5q27 35 68.5 58.5q41.5 23.5 101.5 23.5q107 0 161 -59q54 -59 54 -193q0 -63 -18.5 -113.5q-18.5 -50.5 -52.5 -85.5q-34 -35 -82 -54q-48 -19 -106 -19q-21 0 -37.5 1.5q-16.5 1.5 -30 4q-13.5 2.5 -26.5 6.5q-13 4 -28 10l0 -210h-77zM326 439q-30 0 -56.5 -11q-26.5 -11 -47 -29q-20.5 -18 -33.5 -40q-13 -22 -16 -44l0 -228q22 -15 49.5 -23.5q27.5 -8.5 72.5 -8.5q80 0 128 52.5q48 52.5 48 153.5q0 85 -33.5 131.5t-111.5 46.5z" />
<glyph unicode="&#113;" horiz-adv-x="600" d="M515 -200h-78v256h-4q-23 -33 -59 -50.5q-36 -17.5 -93 -17.5q-114 0 -167.5 63.5q-53.5 63.5 -53.5 197.5q0 128 68 193.5q68 65.5 202 65.5q59 0 110 -10q51 -10 75 -21zM293 55q119 0 144 125l0 241q-22 11 -52.5 15.5q-30.5 4.5 -69.5 4.5q-80 0 -126 -46q-46 -46 -46 -145q0 -43 7.5 -78.5q7.5 -35.5 25.5 -61.5q18 -26 46.5 -40.5t70.5 -14.5z" />
<glyph unicode="&#114;" horiz-adv-x="600" d="M66 0v67h135v366h-135v67h187l16 -65h5q34 31 76 53q42 22 100 22q34 0 54.5 -13q20.5 -13 32 -38q11.5 -25 15.5 -60.5q4 -35.5 4 -80.5l-70 -1q0 64 -12.5 94q-12.5 30 -45.5 30q-31 0 -56 -9q-25 -9 -43.5 -22q-18.5 -13 -31.5 -26q-13 -13 -19 -22l0 -295h192l0 -67z" />
<glyph unicode="&#115;" horiz-adv-x="600" d="M438 135q0 32 -25 49.5q-25 17.5 -62 28q-37 10.5 -80.5 19.5q-43.5 9 -80.5 24q-37 15 -62 40.5q-25 25.5 -25 71.5q0 38 16.5 65q16.5 27 43.5 44.5q27 17.5 63 26q36 8.5 75 8.5q70 0 120.5 -17.5q50.5 -17.5 80.5 -36.5l-32 -63q-33 18 -71.5 34.5q-38.5 16.5 -96.5 16.5q-22 0 -43.5 -4.5q-21.5 -4.5 -39 -13.5q-17.5 -9 -28 -23.5q-10.5 -14.5 -10.5 -35.5q0 -26 25 -40q25 -14 62 -23.5q37 -9.5 80.5 -18q43.5 -8.5 80.5 -24.5q37 -16 62 -43q25 -27 25 -73q0 -69 -54.5 -114q-54.5 -45 -163.5 -45q-33 0 -65 6q-32 6 -60 16q-28 10 -51 22.5q-23 12.5 -38 25.5l40 65q12 -12 32 -24.5q20 -12.5 44 -22.5q24 -10 51.5 -16q27.5 -6 55.5 -6q27 0 50.5 4.5q23.5 4.5 41.5 14q18 9.5 28.5 25t10.5 37.5z" />
<glyph unicode="&#116;" horiz-adv-x="600" d="M31 500h119v99l78 22v-121h267v-67h-267v-236q0 -73 35.5 -108q35.5 -35 101.5 -35q45 0 78.5 17q33.5 17 60.5 37l26 -59q-35 -28 -83.5 -45q-48.5 -17 -99.5 -17q-40 0 -75.5 11.5q-35.5 11.5 -62.5 35.5q-27 24 -43 61.5q-16 37.5 -16 89.5v248l-119 0z" />
<glyph unicode="&#117;" horiz-adv-x="600" d="M363 500h142v-341q0 -49 6 -94l67 0v-65h-133l-3 85h-4q-26 -43 -69 -70q-43 -27 -104 -27q-46 0 -78.5 10.5q-32.5 10.5 -53.5 36.5q-21 26 -31 69.5q-10 43.5 -10 108.5v220h-67v67h145v-271q0 -41 3.5 -73.5q3.5 -32.5 14.5 -55q11 -22.5 32.5 -34q21.5 -11.5 57.5 -11.5q52 0 90.5 34q38.5 34 58.5 85l0 259l-64 0z" />
<glyph unicode="&#118;" horiz-adv-x="600" d="M302 97h11l157 403h87l-211 -500h-88l-215 500l92 0z" />
<glyph unicode="&#119;" horiz-adv-x="600" d="M339 390l100 -278h7l71 388h73l-98 -500h-89l-96 276h-3l-100 -276h-89l-105 500h77l81 -390h6l97 280z" />
<glyph unicode="&#120;" horiz-adv-x="600" d="M253 256l-193 244h100l144 -188l148 188h90l-193 -240l205 -260h-96l-159 205l-162 -205l-91 0z" />
<glyph unicode="&#121;" horiz-adv-x="600" d="M311 77h38l124 423h81l-139 -449q-11 -35 -22.5 -79.5q-11.5 -44.5 -32.5 -83.5q-21 -39 -57 -66q-36 -27 -94 -27q-13 0 -27.5 3q-14.5 3 -28.5 7.5q-14 4.5 -26 10.5q-12 6 -18 12l28 72q6 -5 16.5 -10q10.5 -5 23 -8.5q12.5 -3.5 24.5 -6q12 -2.5 20 -2.5q75 0 102 127l-67 0l-210 500l90 0z" />
<glyph unicode="&#122;" horiz-adv-x="600" d="M84 67l339 366h-339v67h432v-67l-342 -366h342v-67l-432 0z" />
<glyph unicode="&#123;" horiz-adv-x="600" d="M220 32q0 43 -14.5 74.5q-14.5 31.5 -36 52.5q-21.5 21 -46 31q-24.5 10 -43.5 10l0 70q19 0 43.5 8.5q24.5 8.5 46 28q21.5 19.5 36 50.5q14.5 31 14.5 77v102q0 36 11.5 66q11.5 30 32 52q20.5 22 49 34.5q28.5 12.5 62.5 12.5h145v-70h-110q-63 0 -87.5 -30q-24.5 -30 -24.5 -89v-97q0 -41 -15 -73q-15 -32 -36 -53.5q-21 -21.5 -43 -34q-22 -12.5 -36 -14.5l0 -6q13 -2 35 -15.5q22 -13.5 43 -37q21 -23.5 36.5 -55.5q15.5 -32 15.5 -71v-96q0 -61 26 -90q26 -29 87 -29h109v-70h-145q-70 0 -112.5 41.5q-42.5 41.5 -42.5 122.5z" />
<glyph unicode="&#124;" horiz-adv-x="600" d="M266 700h68v-830l-68 0z" />
<glyph unicode="&#125;" horiz-adv-x="600" d="M380 -66q0 -81 -42.5 -122.5q-42.5 -41.5 -112.5 -41.5h-145v70h109q61 0 87 29q26 29 26 90v96q0 39 15 71q15 32 36 55.5q21 23.5 43 37q22 13.5 36 15.5l0 6q-14 2 -36 14.5q-22 12.5 -43 34q-21 21.5 -36 53.5q-15 32 -15 73v97q0 59 -24.5 89q-24.5 30 -87.5 30h-110v70h145q34 0 62.5 -12.5q28.5 -12.5 49 -34.5q20.5 -22 32 -52q11.5 -30 11.5 -66v-102q0 -46 14.5 -77q14.5 -31 36 -50.5q21.5 -19.5 46 -28q24.5 -8.5 43.5 -8.5l0 -70q-19 0 -43.5 -10q-24.5 -10 -46 -31q-21.5 -21 -36 -52.5q-14.5 -31.5 -14.5 -74.5z" />
<glyph unicode="&#126;" horiz-adv-x="600" d="M78 361q43 33 78 46q35 13 64 13q28 0 52 -8.5q24 -8.5 46 -19q22 -10.5 43 -19q21 -8.5 44 -8.5q19 0 39 8q20 8 43 28l34 -61q-38 -26 -68.5 -36.5q-30.5 -10.5 -55.5 -10.5q-27 0 -49.5 8.5q-22.5 8.5 -43 19q-20.5 10.5 -41 19q-20.5 8.5 -44.5 8.5q-23 0 -49 -10.5q-26 -10.5 -58 -36.5z" />
<glyph unicode="&#160;" horiz-adv-x="600" />
<glyph unicode="&#161;" horiz-adv-x="600" d="M341 -200h-83v347l17 176h49l17 -176zM242 453q0 27 15.5 42.5q15.5 15.5 41.5 15.5q27 0 43 -15.5q16 -15.5 16 -42.5q0 -26 -16 -42q-16 -16 -43 -16q-26 0 -41.5 16t-15.5 42z" />
<glyph unicode="&#162;" horiz-adv-x="600" d="M517 29q-12 -9 -30 -16q-18 -7 -38 -12q-20 -5 -41.5 -7.5q-21.5 -2.5 -40.5 -2.5l0 -91h-71v90q-100 10 -156.5 79.5q-56.5 69.5 -56.5 180.5q0 57 17 102.5q17 45.5 46 78.5q29 33 67.5 52.5q38.5 19.5 82.5 25.5l0 91h71v-89q44 0 81.5 -11.5q37.5 -11.5 59.5 -22.5l-23 -68q-10 5 -24.5 10.5q-14.5 5.5 -31.5 10.5q-17 5 -35 8q-18 3 -34 3l0 -383q16 0 35 2.5q19 2.5 38 7q19 4.5 34.5 10.5q15.5 6 23.5 12zM166 250q0 -33 8.5 -65q8.5 -32 26 -58q17.5 -26 43.5 -43.5q26 -17.5 62 -21.5l0 377q-62 -8 -101 -56t-39 -133z" />
<glyph unicode="&#163;" horiz-adv-x="600" d="M77 383h66q-12 27 -20 57.5q-8 30.5 -8 72.5q0 98 56 148.5q56 50.5 153 50.5q61 0 106 -9q45 -9 74 -23l-26 -71q-23 11 -61.5 20q-38.5 9 -93.5 9q-60 0 -92.5 -32.5q-32.5 -32.5 -32.5 -87.5q0 -42 10 -73.5q10 -31.5 24 -61.5l161 0v-70h-131q8 -23 13 -48q5 -25 5 -55q0 -15 -2 -31q-2 -16 -8 -33.5q-6 -17.5 -18 -35.5q-12 -18 -32 -36l303 0v-74h-446v72q32 0 54.5 11.5q22.5 11.5 37 30q14.5 18.5 21.5 42q7 23.5 7 47.5q0 33 -6.5 59.5q-6.5 26.5 -16.5 50.5l-97 0z" />
<glyph unicode="&#164;" horiz-adv-x="600" d="M97 596l107 -106q39 27 95 27q53 0 95 -28l108 107l49 -49l-106 -108q26 -41 26 -94q0 -53 -26 -94l106 -108l-49 -48l-106 105q-41 -26 -97 -26q-57 0 -97 27l-105 -106l-49 48l105 107q-25 41 -25 95q0 26 7 50q7 24 19 45l-106 107zM197 345q0 -45 28.5 -75q28.5 -30 73.5 -30q45 0 74 30q29 30 29 75q0 45 -29 75.5q-29 30.5 -74 30.5q-45 0 -73.5 -30.5t-28.5 -75.5z" />
<glyph unicode="&#165;" horiz-adv-x="600" d="M137 328h94l-203 372h97l179 -340h5l173 340h89l-203 -372h96v-60h-122v-71h122v-60h-122v-137h-83v137h-122v60h122v71l-122 0z" />
<glyph unicode="&#166;" horiz-adv-x="600" d="M266 206h68v-336h-68zM334 364h-68v336l68 0z" />
<glyph unicode="&#167;" horiz-adv-x="600" d="M108 353q0 15 4.5 33q4.5 18 15 36q10.5 18 27.5 35q17 17 43 30q-20 14 -36.5 36q-16.5 22 -16.5 63q0 56 41.5 91q41.5 35 115.5 35q54 0 91.5 -9q37.5 -9 64.5 -22l-19 -67q-24 11 -57 19.5q-33 8.5 -69 8.5q-45 0 -66.5 -16q-21.5 -16 -21.5 -43q0 -26 19.5 -40.5q19.5 -14.5 49.5 -25.5q30 -11 64 -22q34 -11 64 -28.5q30 -17.5 49.5 -46q19.5 -28.5 19.5 -73.5q0 -31 -18 -67.5q-18 -36.5 -72 -66.5q27 -16 40 -37q13 -21 13 -62q0 -31 -12 -54.5q-12 -23.5 -33.5 -39.5q-21.5 -16 -50.5 -24q-29 -8 -62 -8q-56 0 -92 9.5q-36 9.5 -64 23.5l20 65q23 -11 55.5 -19.5q32.5 -8.5 70.5 -8.5q42 0 65 13.5q23 13.5 23 45.5q0 26 -19.5 41q-19.5 15 -49.5 26q-30 11 -64 22q-34 11 -64 28.5q-30 17.5 -49.5 45.5q-19.5 28 -19.5 73zt0 0zM411 345q0 25 -13 41q-13 16 -34.5 27.5q-21.5 11.5 -48.5 20q-27 8.5 -54 18.5q-29 -13 -51 -37q-22 -24 -22 -60q0 -25 13 -41q13 -16 33.5 -27.5q20.5 -11.5 47 -19.5q26.5 -8 53.5 -18q14 6 27.5 16q13.5 10 24.5 22.5q11 12.5 17.5 27t6.5 30.5z" />
<glyph unicode="&#168;" horiz-adv-x="600" d="M131 645q0 26 15.5 42.5q15.5 16.5 41.5 16.5q25 0 41 -16.5q16 -16.5 16 -42.5q0 -24 -16 -40.5q-16 -16.5 -41 -16.5q-26 0 -41.5 16.5q-15.5 16.5 -15.5 40.5zt0 0zM354 645q0 26 15.5 42.5q15.5 16.5 40.5 16.5q26 0 42.5 -16.5q16.5 -16.5 16.5 -42.5q0 -24 -16.5 -40.5q-16.5 -16.5 -42.5 -16.5q-25 0 -40.5 16.5t-15.5 40.5z" />
<glyph unicode="&#169;" horiz-adv-x="600" d="M43 295q0 60 20.5 107.5q20.5 47.5 55.5 80.5q35 33 81.5 50.5q46.5 17.5 99.5 17.5q52 0 99 -17.5q47 -17.5 81.5 -50.5q34.5 -33 55 -80.5q20.5 -47.5 20.5 -107.5q0 -60 -20.5 -107.5q-20.5 -47.5 -55 -80.5q-34.5 -33 -81.5 -50.5q-47 -17.5 -99 -17.5q-59 0 -106 17.5q-47 17.5 -81 50.5q-34 33 -52 80.5q-18 47.5 -18 107.5zt0 0zM96 295q0 -50 15.5 -89q15.5 -39 43 -65.5q27.5 -26.5 65 -40q37.5 -13.5 80.5 -13.5q43 0 80 13.5q37 13.5 64.5 40q27.5 26.5 43 65.5q15.5 39 15.5 89q0 50 -15.5 88.5q-15.5 38.5 -43 65q-27.5 26.5 -64.5 40.5q-37 14 -80 14q-43 0 -80.5 -14q-37.5 -14 -65 -40.5q-27.5 -26.5 -43 -65q-15.5 -38.5 -15.5 -88.5zt0 0zM386 177q-34 -20 -86 -20q-59 0 -90 37q-31 37 -31 101q0 66 33 102q33 36 88 36q26 0 42.5 -5q16.5 -5 38.5 -15l-19 -51q-33 15 -55 15q-63 0 -63 -82q0 -42 18.5 -62q18.5 -20 50.5 -20q18 0 32 3.5q14 3.5 26 10.5z" />
<glyph unicode="&#170;" horiz-adv-x="600" d="M175 677q25 13 66 22q41 9 91 9q62 0 85 -26q23 -26 23 -75q0 -38 -1.5 -73q-1.5 -35 -1.5 -67q0 -24 1.5 -46q1.5 -22 6.5 -41l-55 0l-13 46h-4q-13 -17 -37 -33.5q-24 -16.5 -67 -16.5q-52 0 -83 25.5q-31 25.5 -31 69.5q0 31 15 52q15 21 40.5 34q25.5 13 60 19q34.5 6 74.5 6q7 0 13.5 -0.5q6.5 -0.5 13.5 -0.5q1 6 1 11.5q0 5.5 0 10.5q0 27 -12 38q-12 11 -46 11q-40 0 -73 -7.5q-33 -7.5 -52 -17.5zM280 432q21 0 36.5 5q15.5 5 26.5 13.5q11 8.5 18 18q7 9.5 11 18.5l0 42q-11 1 -21 1q-10 0 -21 0q-21 0 -40 -2q-19 -2 -33.5 -8q-14.5 -6 -23 -16.5q-8.5 -10.5 -8.5 -27.5q0 -20 14.5 -32t40.5 -12z" />
<glyph unicode="&#171;" horiz-adv-x="600" d="M50 264l195 254l58 -48l-156 -202l163 -199l-57 -49zM290 264l195 254l58 -48l-156 -202l163 -199l-57 -49z" />
<glyph unicode="&#172;" horiz-adv-x="600" d="M88 392h424v-192h-72v120l-352 0z" />
<glyph unicode="&#173;" horiz-adv-x="600" d="M129 325h342v-74l-342 0z" />
<glyph unicode="&#174;" horiz-adv-x="600" d="M35 451q0 64 21 113.5q21 49.5 57.5 83q36.5 33.5 84.5 51q48 17.5 102 17.5q55 0 103.5 -17.5q48.5 -17.5 84.5 -51q36 -33.5 56.5 -83q20.5 -49.5 20.5 -113.5q0 -64 -21 -113.5q-21 -49.5 -57.5 -83q-36.5 -33.5 -84.5 -51q-48 -17.5 -102 -17.5q-56 0 -104 17.5q-48 17.5 -84 51q-36 33.5 -56.5 83q-20.5 49.5 -20.5 113.5zt0 0zM98 451q0 -52 16 -90.5q16 -38.5 43.5 -64q27.5 -25.5 64.5 -38.5q37 -13 78 -13q43 0 80 12.5q37 12.5 64 38q27 25.5 42.5 64q15.5 38.5 15.5 91.5q0 52 -16 90.5q-16 38.5 -43.5 64q-27.5 25.5 -64 38.5q-36.5 13 -78.5 13q-44 0 -81 -13q-37 -13 -64 -38.5q-27 -25.5 -42 -64q-15 -38.5 -15 -90.5zt0 0zM197 581q16 5 45 7.5q29 2.5 55 2.5q42 0 72 -17.5q30 -17.5 30 -60.5q0 -16 -5.5 -27.5q-5.5 -11.5 -13.5 -20q-8 -8.5 -17.5 -13.5q-9.5 -5 -18.5 -7l86 -123h-61l-78 104h-42v-104h-52zM286 546q-11 0 -21 -0.5q-10 -0.5 -16 -3.5l0 -74h34q61 0 61 43q0 35 -58 35z" />
<glyph unicode="&#175;" horiz-adv-x="600" d="M152 643h296v-62l-296 0z" />
<glyph unicode="&#176;" horiz-adv-x="600" d="M159 571q0 31 11 57q11 26 30 44.5q19 18.5 45 29q26 10.5 55 10.5q29 0 55 -9.5q26 -9.5 45 -28q19 -18.5 30 -44.5q11 -26 11 -59q0 -33 -11 -59q-11 -26 -30 -44.5q-19 -18.5 -45 -28q-26 -9.5 -55 -9.5q-29 0 -55 9.5q-26 9.5 -45 28q-19 18.5 -30 44.5q-11 26 -11 59zt0 0zM222 571q0 -38 23.5 -59.5q23.5 -21.5 54.5 -21.5q31 0 54.5 21.5q23.5 21.5 23.5 59.5q0 38 -23.5 59.5q-23.5 21.5 -54.5 21.5q-31 0 -54.5 -21.5t-23.5 -59.5z" />
<glyph unicode="&#177;" horiz-adv-x="600" d="M88 493h176v181h72v-181h176v-72h-176v-120h-72v120h-176zM88 250h424v-72l-424 0z" />
<glyph unicode="&#178;" horiz-adv-x="600" d="M445 675q0 -37 -20.5 -70.5q-20.5 -33.5 -53.5 -63q-33 -29.5 -73 -54.5q-40 -25 -79 -44l246 0v-63h-351v53q16 13 41 29q25 16 54 34q29 18 58.5 38.5q29.5 20.5 53.5 42q24 21.5 39 44q15 22.5 15 45.5q0 21 -8.5 35.5q-8.5 14.5 -21.5 24q-13 9.5 -28.5 13.5q-15.5 4 -30.5 4q-23 0 -42.5 -5.5q-19.5 -5.5 -36 -13.5q-16.5 -8 -29.5 -17.5q-13 -9.5 -21 -16.5l-32 49q9 9 25 20.5q16 11.5 38 22q22 10.5 50 18q28 7.5 60 7.5q31 0 58 -8.5q27 -8.5 46.5 -25q19.5 -16.5 31 -41t11.5 -57.5z" />
<glyph unicode="&#179;" horiz-adv-x="600" d="M262 433q48 0 76 19q28 19 28 56q0 32 -23.5 52q-23.5 20 -74.5 20h-65v38l130 122h-228v60h316v-53l-129 -115v-2q67 -1 105.5 -34.5q38.5 -33.5 38.5 -87.5q0 -61 -47 -98q-47 -37 -136 -37q-24 0 -51 5.5q-27 5.5 -52 15.5q-25 10 -46 24q-21 14 -33 31l36 52q7 -8 21 -19.5q14 -11.5 33.5 -22.5q19.5 -11 44.5 -18.5t56 -7.5z" />
<glyph unicode="&#180;" horiz-adv-x="600" d="M261 720h109l-119 -149l-55 0z" />
<glyph unicode="&#181;" horiz-adv-x="600" d="M432 74h-4q-20 -35 -61.5 -60.5q-41.5 -25.5 -101.5 -25.5q-31 0 -57 8q-26 8 -44 30l-5 0l5 -93v-133h-80v700h80v-283q0 -79 24.5 -119q24.5 -40 85.5 -40q55 0 93 32.5q38 32.5 53 85.5l0 324h80v-337q0 -39 2.5 -60.5q2.5 -21.5 4.5 -37.5l64 0v-65l-128 0z" />
<glyph unicode="&#182;" horiz-adv-x="600" d="M418 700h68v-830h-68zM262 310q-32 0 -59 16.5q-27 16.5 -46.5 44q-19.5 27.5 -31 63q-11.5 35.5 -11.5 72.5q0 37 11.5 72q11.5 35 33.5 62q22 27 54 43.5q32 16.5 72 16.5h45v-830l-68 0z" />
<glyph unicode="&#183;" horiz-adv-x="600" d="M233 305q0 32 18 49.5q18 17.5 48 17.5q32 0 50 -17.5q18 -17.5 18 -49.5q0 -29 -18 -48q-18 -19 -50 -19q-30 0 -48 19t-18 48z" />
<glyph unicode="&#184;" horiz-adv-x="600" d="M328 0l-24 -43q42 -8 60.5 -26q18.5 -18 18.5 -49q0 -39 -32 -64.5q-32 -25.5 -90 -25.5q-11 0 -22 1q-11 1 -23 3l9 39q6 -1 11 -1q5 0 10 0q22 0 34.5 4q12.5 4 19 9.5q6.5 5.5 8 12.5q1.5 7 1.5 13q0 28 -86 37l48 90z" />
<glyph unicode="&#185;" horiz-adv-x="600" d="M134 441h146v275l-125 -70l-27 55l166 99h56v-359h135v-61l-351 0z" />
<glyph unicode="&#186;" horiz-adv-x="600" d="M145 542q0 45 12 77q12 32 32.5 53q20.5 21 49 30.5q28.5 9.5 61.5 9.5q33 0 61.5 -9q28.5 -9 49 -29q20.5 -20 32.5 -52.5q12 -32.5 12 -79.5q0 -47 -12 -79.5q-12 -32.5 -32.5 -52.5q-20.5 -20 -49 -29q-28.5 -9 -61.5 -9q-33 0 -61.5 9q-28.5 9 -49 29q-20.5 20 -32.5 52.5q-12 32.5 -12 79.5zt0 0zM219 542q0 -60 21.5 -86q21.5 -26 59.5 -26q19 0 34 5.5q15 5.5 25.5 18q10.5 12.5 16 34q5.5 21.5 5.5 54.5q0 33 -5.5 54.5q-5.5 21.5 -16 34q-10.5 12.5 -25.5 18q-15 5.5 -34 5.5q-38 0 -59.5 -23.5t-21.5 -88.5z" />
<glyph unicode="&#187;" horiz-adv-x="600" d="M347 20l-57 49l163 199l-156 202l58 48l195 -254zM107 20l-57 49l163 199l-156 202l58 48l195 -254z" />
<glyph unicode="&#188;" horiz-adv-x="600" d="M432 713l47 -20l-308 -705l-48 22zM549 97h-51v-97h-58v97h-135v41l144 288h49v-276h51zM440 307l-72 -157h72zM135 617l-68 -59l-32 37l118 105h40v-420l-58 0z" />
<glyph unicode="&#189;" horiz-adv-x="600" d="M420 713l47 -20l-308 -705l-48 22zM548 318q0 -67 -33 -130.5q-33 -63.5 -84 -131.5l129 0v-56h-198v48q19 22 41 52q22 30 41 64.5q19 34.5 32 71.5q13 37 13 73q0 29 -11.5 45.5q-11.5 16.5 -29.5 16.5q-18 0 -35 -5.5q-17 -5.5 -28 -14.5l-18 48q17 14 41.5 21q24.5 7 42.5 7q97 0 97 -109zt0 0zM135 617l-68 -59l-32 37l118 105h40v-420l-58 0z" />
<glyph unicode="&#190;" horiz-adv-x="600" d="M440 713l47 -20l-308 -705l-48 22zM115 329q31 0 45.5 21q14.5 21 14.5 58q0 32 -14 52q-14 20 -47 20h-35v33l75 131h-107v56h175v-42l-77 -131v-3q45 1 67 -30.5q22 -31.5 22 -85.5q0 -61 -32 -98q-32 -37 -81 -37q-23 0 -42.5 5q-19.5 5 -34.5 13l13 53q24 -15 58 -15zt0 0zM549 97h-51v-97h-58v97h-135v41l144 288h49v-276h51zM440 307l-72 -157l72 0z" />
<glyph unicode="&#191;" horiz-adv-x="600" d="M273 454q0 27 15.5 42.5q15.5 15.5 41.5 15.5q27 0 43 -15.5q16 -15.5 16 -42.5q0 -26 -16 -42q-16 -16 -43 -16q-26 0 -41.5 16q-15.5 16 -15.5 42zt0 0zM368 323q1 -5 1 -11q0 -6 0 -11q0 -42 -15.5 -72q-15.5 -30 -38.5 -53.5q-23 -23.5 -49.5 -42.5q-26.5 -19 -49.5 -40.5q-23 -21.5 -38.5 -47.5q-15.5 -26 -15.5 -62q0 -20 8.5 -41.5q8.5 -21.5 27.5 -40.5q19 -19 48.5 -31q29.5 -12 70.5 -12q33 0 59.5 7.5q26.5 7.5 48 19.5q21.5 12 39 26.5q17.5 14.5 31.5 28.5l51 -46q-42 -53 -98 -79.5q-56 -26.5 -144 -26.5q-60 0 -102.5 17q-42.5 17 -69.5 43.5q-27 26.5 -40 59q-13 32.5 -13 63.5q0 47 16.5 80q16.5 33 41.5 58.5q25 25.5 53.5 46q28.5 20.5 53.5 44q25 23.5 41.5 52.5q16.5 29 16.5 71z" />
<glyph unicode="&#192;" horiz-adv-x="600" d="M431 194h-269l-64 -194h-82l234 700h98l236 -700h-87zM188 266h220l-103 329h-12zM374 752h-74l-158 97v21l114 0z" />
<glyph unicode="&#193;" horiz-adv-x="600" d="M431 194h-269l-64 -194h-82l234 700h98l236 -700h-87zM188 266h220l-103 329h-12zM338 870h114v-21l-163 -97l-69 0z" />
<glyph unicode="&#194;" horiz-adv-x="600" d="M431 194h-269l-64 -194h-82l234 700h98l236 -700h-87zM188 266h220l-103 329h-12zM272 871h60l145 -123h-99l-77 65l-83 -65l-101 0z" />
<glyph unicode="&#195;" horiz-adv-x="600" d="M431 194h-269l-64 -194h-82l234 700h98l236 -700h-87zM188 266h220l-103 329h-12zM130 789q31 32 63.5 41.5q32.5 9.5 56.5 9.5q19 0 37 -5q18 -5 34.5 -11.5q16.5 -6.5 32.5 -11.5q16 -5 31 -5q26 0 50 21l29 -49q-27 -25 -53 -31.5q-26 -6.5 -47 -6.5q-19 0 -36 5q-17 5 -33.5 11.5q-16.5 6.5 -32.5 11.5q-16 5 -32 5q-16 0 -31.5 -6.5q-15.5 -6.5 -32.5 -23.5z" />
<glyph unicode="&#196;" horiz-adv-x="600" d="M431 194h-269l-64 -194h-82l234 700h98l236 -700h-87zM188 266h220l-103 329h-12zM126 800q0 23 17.5 37.5q17.5 14.5 45.5 14.5q26 0 43.5 -14.5q17.5 -14.5 17.5 -37.5q0 -23 -17.5 -37q-17.5 -14 -43.5 -14q-28 0 -45.5 14q-17.5 14 -17.5 37zt0 0zM351 800q0 23 17 37.5q17 14.5 43 14.5q29 0 46 -14.5q17 -14.5 17 -37.5q0 -23 -17 -37q-17 -14 -46 -14q-26 0 -43 14t-17 37z" />
<glyph unicode="&#197;" horiz-adv-x="600" d="M195 768q0 37 25 61q25 24 80 24q50 0 78 -21.5q28 -21.5 28 -63.5q0 -32 -20 -53.5q-20 -21.5 -59 -27.5l257 -687h-87l-72 194h-258l-70 -194h-82l256 687q-38 6 -57 27.5q-19 21.5 -19 53.5zt0 0zM194 266h206l-103 288h-1zM256 768q0 -17 10.5 -28.5q10.5 -11.5 33.5 -11.5q22 0 33.5 11q11.5 11 11.5 29q0 19 -11 30.5q-11 11.5 -34 11.5q-22 0 -33 -11.5t-11 -30.5z" />
<glyph unicode="&#198;" horiz-adv-x="600" d="M304 552l-21 -66l-82 -223h105v289zM306 191h-130l-73 -191h-83l274 700h272v-75h-180v-228h163v-75h-163v-247h183v-75l-263 0z" />
<glyph unicode="&#199;" horiz-adv-x="600" d="M458 624q-17 7 -37.5 10.5q-20.5 3.5 -49.5 3.5q-41 0 -80.5 -15q-39.5 -15 -70 -49q-30.5 -34 -49 -89q-18.5 -55 -18.5 -135q0 -72 16.5 -126q16.5 -54 46 -90q29.5 -36 71 -54q41.5 -18 92.5 -18q26 0 48.5 4.5q22.5 4.5 41.5 12.5l0 100h74v-135l1 -2q-30 -23 -76 -39q-33 -10 -76 -14l-18 -32q42 -8 60.5 -26q18.5 -18 18.5 -49q0 -39 -32 -64.5q-32 -25.5 -90 -25.5q-11 0 -22 1q-11 1 -23 3l9 39q6 -1 11 -1h10q22 0 34.5 4q12.5 4 19 9.5q6.5 5.5 8 12.5q1.5 7 1.5 13q0 28 -86 37l41 79q-50 3 -95 20q-53 22 -92 66q-39 44 -60.5 112.5q-21.5 68.5 -21.5 162.5q0 98 24 166.5q24 68.5 65 112q41 43.5 95.5 63.5q54.5 20 116.5 20q34 0 59 -2.5q25 -2.5 44 -7q19 -4.5 33.5 -11.5q14.5 -7 28.5 -16l1 0v-158l-74 0z" />
<glyph unicode="&#200;" horiz-adv-x="600" d="M107 700h411v-74h-328v-229h303v-74h-303v-249h333v-74h-416zM388 752h-74l-158 97v21l114 0z" />
<glyph unicode="&#201;" horiz-adv-x="600" d="M107 700h411v-74h-328v-229h303v-74h-303v-249h333v-74h-416zM352 870h114v-21l-163 -97l-69 0z" />
<glyph unicode="&#202;" horiz-adv-x="600" d="M107 700h411v-74h-328v-229h303v-74h-303v-249h333v-74h-416zM284 871h60l145 -123h-99l-77 65l-83 -65l-101 0z" />
<glyph unicode="&#203;" horiz-adv-x="600" d="M107 700h411v-74h-328v-229h303v-74h-303v-249h333v-74h-416zM137 800q0 23 17.5 37.5q17.5 14.5 45.5 14.5q26 0 43.5 -14.5q17.5 -14.5 17.5 -37.5q0 -23 -17.5 -37q-17.5 -14 -43.5 -14q-28 0 -45.5 14q-17.5 14 -17.5 37zt0 0zM362 800q0 23 17 37.5q17 14.5 43 14.5q29 0 46 -14.5q17 -14.5 17 -37.5q0 -23 -17 -37q-17 -14 -46 -14q-26 0 -43 14t-17 37z" />
<glyph unicode="&#204;" horiz-adv-x="600" d="M60 700h480v-74h-199v-552h199v-74h-480v74h198v552h-198zM386 752h-74l-158 97v21l114 0z" />
<glyph unicode="&#205;" horiz-adv-x="600" d="M60 700h480v-74h-199v-552h199v-74h-480v74h198v552h-198zM334 870h114v-21l-163 -97l-69 0z" />
<glyph unicode="&#206;" horiz-adv-x="600" d="M60 700h480v-74h-199v-552h199v-74h-480v74h198v552h-198zM271 871h60l145 -123h-99l-77 65l-83 -65l-101 0z" />
<glyph unicode="&#207;" horiz-adv-x="600" d="M60 700h480v-74h-199v-552h199v-74h-480v74h198v552h-198zM126 800q0 23 17.5 37.5q17.5 14.5 45.5 14.5q26 0 43.5 -14.5q17.5 -14.5 17.5 -37.5q0 -23 -17.5 -37q-17.5 -14 -43.5 -14q-28 0 -45.5 14q-17.5 14 -17.5 37zt0 0zM351 800q0 23 17 37.5q17 14.5 43 14.5q29 0 46 -14.5q17 -14.5 17 -37.5q0 -23 -17 -37q-17 -14 -46 -14q-26 0 -43 14t-17 37z" />
<glyph unicode="&#208;" horiz-adv-x="600" d="M9 392h90v308q38 5 86.5 6.5q48.5 1.5 90.5 1.5q84 0 142.5 -26q58.5 -26 95 -72.5q36.5 -46.5 52.5 -111.5q16 -65 16 -143q0 -71 -15 -136.5q-15 -65.5 -51.5 -116q-36.5 -50.5 -97.5 -81q-61 -30.5 -152 -30.5q-16 0 -40 0.5q-24 0.5 -49 2q-25 1.5 -46.5 2.5q-21.5 1 -31.5 3l0 333h-90zM278 634q-26 0 -54 -1q-28 -1 -42 -4l0 -237h137v-60h-137v-263q5 -1 17 -1.5q12 -0.5 25.5 -1q13.5 -0.5 26 -1q12.5 -0.5 17.5 -0.5q70 0 114.5 24q44.5 24 69 64.5q24.5 40.5 33.5 93q9 52.5 9 108.5q0 49 -8 98.5q-8 49.5 -31.5 89.5q-23.5 40 -65.5 65.5t-111 25.5z" />
<glyph unicode="&#209;" horiz-adv-x="600" d="M196 438l-54 101h-4l10 -101v-438h-78v700h54l282 -436l52 -96h5l-11 96v436h78v-700h-54zM130 789q31 32 63.5 41.5q32.5 9.5 56.5 9.5q19 0 37 -5q18 -5 34.5 -11.5q16.5 -6.5 32.5 -11.5q16 -5 31 -5q26 0 50 21l29 -49q-27 -25 -53 -31.5q-26 -6.5 -47 -6.5q-19 0 -36 5q-17 5 -33.5 11.5q-16.5 6.5 -32.5 11.5q-16 5 -32 5q-16 0 -31.5 -6.5q-15.5 -6.5 -32.5 -23.5z" />
<glyph unicode="&#210;" horiz-adv-x="600" d="M48 350q0 174 61.5 268q61.5 94 189.5 94q70 0 118.5 -26q48.5 -26 78.5 -73.5q30 -47.5 43 -114q13 -66.5 13 -148.5q0 -174 -61.5 -268q-61.5 -94 -191.5 -94q-69 0 -117 26q-48 26 -78 73.5q-30 47.5 -43 114q-13 66.5 -13 148.5zt0 0zM136 350q0 -58 7.5 -110q7.5 -52 26.5 -91.5q19 -39.5 50 -63q31 -23.5 79 -23.5q86 0 125.5 70q39.5 70 39.5 218q0 57 -7.5 109.5q-7.5 52.5 -26.5 92q-19 39.5 -51 63q-32 23.5 -80 23.5q-85 0 -124 -70.5q-39 -70.5 -39 -217.5zt0 0zM368 752h-74l-158 97v21l114 0z" />
<glyph unicode="&#211;" horiz-adv-x="600" d="M48 350q0 174 61.5 268q61.5 94 189.5 94q70 0 118.5 -26q48.5 -26 78.5 -73.5q30 -47.5 43 -114q13 -66.5 13 -148.5q0 -174 -61.5 -268q-61.5 -94 -191.5 -94q-69 0 -117 26q-48 26 -78 73.5q-30 47.5 -43 114q-13 66.5 -13 148.5zt0 0zM136 350q0 -58 7.5 -110q7.5 -52 26.5 -91.5q19 -39.5 50 -63q31 -23.5 79 -23.5q86 0 125.5 70q39.5 70 39.5 218q0 57 -7.5 109.5q-7.5 52.5 -26.5 92q-19 39.5 -51 63q-32 23.5 -80 23.5q-85 0 -124 -70.5q-39 -70.5 -39 -217.5zt0 0zM373 870h114v-21l-163 -97l-69 0z" />
<glyph unicode="&#212;" horiz-adv-x="600" d="M48 350q0 174 61.5 268q61.5 94 189.5 94q70 0 118.5 -26q48.5 -26 78.5 -73.5q30 -47.5 43 -114q13 -66.5 13 -148.5q0 -174 -61.5 -268q-61.5 -94 -191.5 -94q-69 0 -117 26q-48 26 -78 73.5q-30 47.5 -43 114q-13 66.5 -13 148.5zt0 0zM136 350q0 -58 7.5 -110q7.5 -52 26.5 -91.5q19 -39.5 50 -63q31 -23.5 79 -23.5q86 0 125.5 70q39.5 70 39.5 218q0 57 -7.5 109.5q-7.5 52.5 -26.5 92q-19 39.5 -51 63q-32 23.5 -80 23.5q-85 0 -124 -70.5q-39 -70.5 -39 -217.5zt0 0zM270 871h60l145 -123h-99l-77 65l-83 -65l-101 0z" />
<glyph unicode="&#213;" horiz-adv-x="600" d="M48 350q0 174 61.5 268q61.5 94 189.5 94q70 0 118.5 -26q48.5 -26 78.5 -73.5q30 -47.5 43 -114q13 -66.5 13 -148.5q0 -174 -61.5 -268q-61.5 -94 -191.5 -94q-69 0 -117 26q-48 26 -78 73.5q-30 47.5 -43 114q-13 66.5 -13 148.5zt0 0zM136 350q0 -58 7.5 -110q7.5 -52 26.5 -91.5q19 -39.5 50 -63q31 -23.5 79 -23.5q86 0 125.5 70q39.5 70 39.5 218q0 57 -7.5 109.5q-7.5 52.5 -26.5 92q-19 39.5 -51 63q-32 23.5 -80 23.5q-85 0 -124 -70.5q-39 -70.5 -39 -217.5zt0 0zM128 789q31 32 63.5 41.5q32.5 9.5 56.5 9.5q19 0 37 -5q18 -5 34.5 -11.5q16.5 -6.5 32.5 -11.5q16 -5 31 -5q26 0 50 21l29 -49q-27 -25 -53 -31.5q-26 -6.5 -47 -6.5q-19 0 -36 5q-17 5 -33.5 11.5q-16.5 6.5 -32.5 11.5q-16 5 -32 5q-16 0 -31.5 -6.5q-15.5 -6.5 -32.5 -23.5z" />
<glyph unicode="&#214;" horiz-adv-x="600" d="M48 350q0 174 61.5 268q61.5 94 189.5 94q70 0 118.5 -26q48.5 -26 78.5 -73.5q30 -47.5 43 -114q13 -66.5 13 -148.5q0 -174 -61.5 -268q-61.5 -94 -191.5 -94q-69 0 -117 26q-48 26 -78 73.5q-30 47.5 -43 114q-13 66.5 -13 148.5zt0 0zM136 350q0 -58 7.5 -110q7.5 -52 26.5 -91.5q19 -39.5 50 -63q31 -23.5 79 -23.5q86 0 125.5 70q39.5 70 39.5 218q0 57 -7.5 109.5q-7.5 52.5 -26.5 92q-19 39.5 -51 63q-32 23.5 -80 23.5q-85 0 -124 -70.5q-39 -70.5 -39 -217.5zt0 0zM123 800q0 23 17.5 37.5q17.5 14.5 45.5 14.5q26 0 43.5 -14.5q17.5 -14.5 17.5 -37.5q0 -23 -17.5 -37q-17.5 -14 -43.5 -14q-28 0 -45.5 14q-17.5 14 -17.5 37zt0 0zM348 800q0 23 17 37.5q17 14.5 43 14.5q29 0 46 -14.5q17 -14.5 17 -37.5q0 -23 -17 -37q-17 -14 -46 -14q-26 0 -43 14t-17 37z" />
<glyph unicode="&#215;" horiz-adv-x="600" d="M174 517l126 -127l127 127l51 -53l-126 -126l126 -127l-51 -52l-127 128l-127 -128l-52 51l128 129l-126 125z" />
<glyph unicode="&#216;" horiz-adv-x="600" d="M80 91q-34 48 -50 113q-16 65 -16 146q0 175 74 268.5q74 93.5 211 93.5q57 0 101 -15q44 -15 78 -44l42 60l52 -35l-51 -72q33 -48 49 -112.5q16 -64.5 16 -143.5q0 -175 -74.5 -268.5q-74.5 -93.5 -212.5 -93.5q-107 0 -175 56h-39l-52 -20zM102 350q0 -51 8.5 -96q8.5 -45 26.5 -83l290 411q-23 26 -54.5 41q-31.5 15 -73.5 15q-92 0 -144.5 -70.5q-52.5 -70.5 -52.5 -217.5zt0 0zM498 350q0 48 -8.5 93q-8.5 45 -25.5 82l-290 -411q23 -25 54 -38.5q31 -13.5 71 -13.5q93 0 146 70.5t53 217.5z" />
<glyph unicode="&#217;" horiz-adv-x="600" d="M460 700h80v-467q0 -63 -16.5 -109q-16.5 -46 -46.5 -75.5q-30 -29.5 -73 -43.5q-43 -14 -95 -14q-124 0 -186.5 56q-62.5 56 -62.5 170v483h83v-444q0 -53 10.5 -89.5q10.5 -36.5 31 -59q20.5 -22.5 52 -32.5q31.5 -10 73.5 -10q81 0 115.5 44.5q34.5 44.5 34.5 146.5zM381 752h-74l-158 97v21l114 0z" />
<glyph unicode="&#218;" horiz-adv-x="600" d="M460 700h80v-467q0 -63 -16.5 -109q-16.5 -46 -46.5 -75.5q-30 -29.5 -73 -43.5q-43 -14 -95 -14q-124 0 -186.5 56q-62.5 56 -62.5 170v483h83v-444q0 -53 10.5 -89.5q10.5 -36.5 31 -59q20.5 -22.5 52 -32.5q31.5 -10 73.5 -10q81 0 115.5 44.5q34.5 44.5 34.5 146.5zM364 870h114v-21l-163 -97l-69 0z" />
<glyph unicode="&#219;" horiz-adv-x="600" d="M460 700h80v-467q0 -63 -16.5 -109q-16.5 -46 -46.5 -75.5q-30 -29.5 -73 -43.5q-43 -14 -95 -14q-124 0 -186.5 56q-62.5 56 -62.5 170v483h83v-444q0 -53 10.5 -89.5q10.5 -36.5 31 -59q20.5 -22.5 52 -32.5q31.5 -10 73.5 -10q81 0 115.5 44.5q34.5 44.5 34.5 146.5zM275 871h60l145 -123h-99l-77 65l-83 -65l-101 0z" />
<glyph unicode="&#220;" horiz-adv-x="600" d="M460 700h80v-467q0 -63 -16.5 -109q-16.5 -46 -46.5 -75.5q-30 -29.5 -73 -43.5q-43 -14 -95 -14q-124 0 -186.5 56q-62.5 56 -62.5 170v483h83v-444q0 -53 10.5 -89.5q10.5 -36.5 31 -59q20.5 -22.5 52 -32.5q31.5 -10 73.5 -10q81 0 115.5 44.5q34.5 44.5 34.5 146.5zM127 800q0 23 17.5 37.5q17.5 14.5 45.5 14.5q26 0 43.5 -14.5q17.5 -14.5 17.5 -37.5q0 -23 -17.5 -37q-17.5 -14 -43.5 -14q-28 0 -45.5 14q-17.5 14 -17.5 37zt0 0zM352 800q0 23 17 37.5q17 14.5 43 14.5q29 0 46 -14.5q17 -14.5 17 -37.5q0 -23 -17 -37q-17 -14 -46 -14q-26 0 -43 14t-17 37z" />
<glyph unicode="&#221;" horiz-adv-x="600" d="M259 268l-250 432h97l200 -346h1l195 346h89l-249 -431v-269h-83zM355 870h114v-21l-163 -97l-69 0z" />
<glyph unicode="&#222;" horiz-adv-x="600" d="M91 700h83v-75q10 1 24 1.5q14 0.5 29 1q15 0.5 28.5 0.5q13.5 0 24.5 0q46 0 93.5 -9q47.5 -9 86.5 -33q39 -24 63.5 -66q24.5 -42 24.5 -107q0 -64 -23 -108q-23 -44 -61 -71.5q-38 -27.5 -87 -40q-49 -12.5 -101 -12.5q-5 0 -19.5 0q-14.5 0 -31 0.5q-16.5 0.5 -31.5 1.5q-15 1 -20 2l0 -185h-83zM282 556q-13 0 -28.5 0q-15.5 0 -31 -1q-15.5 -1 -28.5 -2q-13 -1 -20 -3l0 -290q5 -2 19 -2.5q14 -0.5 30 -1.5q16 -1 30 -1q14 0 19 0q34 0 67.5 6.5q33.5 6.5 60.5 24q27 17.5 43.5 48.5q16.5 31 16.5 79q0 41 -15.5 68.5q-15.5 27.5 -41 44q-25.5 16.5 -57.5 23.5t-64 7z" />
<glyph unicode="&#223;" horiz-adv-x="600" d="M399 559q0 17 -9.5 31.5q-9.5 14.5 -24.5 24.5q-15 10 -33 15.5q-18 5.5 -35 5.5q-28 0 -47.5 -7q-19.5 -7 -31.5 -23q-12 -16 -17.5 -42.5q-5.5 -26.5 -5.5 -65.5v-498h-80v430h-78v70h78v23q0 97 47.5 140q47.5 43 131.5 43q41 0 75 -10.5q34 -10.5 58.5 -30q24.5 -19.5 38 -46q13.5 -26.5 13.5 -59.5q0 -38 -19 -61q-19 -23 -41.5 -41q-22.5 -18 -41.5 -35q-19 -17 -19 -42q0 -22 15 -35q15 -13 38 -23q23 -10 49 -20.5q26 -10.5 49 -27.5q23 -17 38 -44.5q15 -27.5 15 -71.5q0 -32 -12 -62.5q-12 -30.5 -34.5 -54.5q-22.5 -24 -56.5 -39q-34 -15 -77 -15q-23 0 -40.5 1.5q-17.5 1.5 -32 5q-14.5 3.5 -27.5 8.5q-13 5 -26 13l23 65q12 -6 21 -11q9 -5 19.5 -8q10.5 -3 23.5 -4.5q13 -1.5 32 -1.5q21 0 40.5 7.5q19.5 7.5 34.5 20.5q15 13 23.5 31.5q8.5 18.5 8.5 40.5q0 30 -15 47.5q-15 17.5 -38 29.5q-23 12 -49 21.5q-26 9.5 -49 24q-23 14.5 -38 37q-15 22.5 -15 60.5q0 39 19 62.5q19 23.5 41.5 42q22.5 18.5 41.5 35.5t19 43z" />
<glyph unicode="&#224;" horiz-adv-x="600" d="M108 461q43 25 97 36q54 11 106 11q51 0 83.5 -16q32.5 -16 51 -41.5q18.5 -25.5 25 -58q6.5 -32.5 6.5 -65.5q0 -38 -2 -81q-2 -43 -3 -86q0 -50 6 -95l67 0v-65h-133l-9 75h-5q-6 -9 -18 -23q-12 -14 -31.5 -27.5q-19.5 -13.5 -47.5 -23.5q-28 -10 -66 -10q-74 0 -117 38q-43 38 -43 104q0 51 22.5 85q22.5 34 64.5 52q42 18 101.5 21q59.5 3 133.5 -8q5 46 1.5 76.5q-3.5 30.5 -16 48.5q-12.5 18 -35 25.5q-22.5 7.5 -55.5 7.5q-45 0 -86 -12.5q-41 -12.5 -73 -25.5zM255 58q28 0 52 9q24 9 42 23q18 14 30 30.5q12 16.5 18 31.5l0 70q-52 9 -96 9q-44 0 -76 -9.5q-32 -9.5 -50 -29.5q-18 -20 -18 -52q0 -33 22.5 -57.5q22.5 -24.5 75.5 -24.5zt0 0zM360 571h-55l-119 149l109 0z" />
<glyph unicode="&#225;" horiz-adv-x="600" d="M108 461q43 25 97 36q54 11 106 11q51 0 83.5 -16q32.5 -16 51 -41.5q18.5 -25.5 25 -58q6.5 -32.5 6.5 -65.5q0 -38 -2 -81q-2 -43 -3 -86q0 -50 6 -95l67 0v-65h-133l-9 75h-5q-6 -9 -18 -23q-12 -14 -31.5 -27.5q-19.5 -13.5 -47.5 -23.5q-28 -10 -66 -10q-74 0 -117 38q-43 38 -43 104q0 51 22.5 85q22.5 34 64.5 52q42 18 101.5 21q59.5 3 133.5 -8q5 46 1.5 76.5q-3.5 30.5 -16 48.5q-12.5 18 -35 25.5q-22.5 7.5 -55.5 7.5q-45 0 -86 -12.5q-41 -12.5 -73 -25.5zM255 58q28 0 52 9q24 9 42 23q18 14 30 30.5q12 16.5 18 31.5l0 70q-52 9 -96 9q-44 0 -76 -9.5q-32 -9.5 -50 -29.5q-18 -20 -18 -52q0 -33 22.5 -57.5q22.5 -24.5 75.5 -24.5zt0 0zM299 720h109l-119 -149l-55 0z" />
<glyph unicode="&#226;" horiz-adv-x="600" d="M108 461q43 25 97 36q54 11 106 11q51 0 83.5 -16q32.5 -16 51 -41.5q18.5 -25.5 25 -58q6.5 -32.5 6.5 -65.5q0 -38 -2 -81q-2 -43 -3 -86q0 -50 6 -95l67 0v-65h-133l-9 75h-5q-6 -9 -18 -23q-12 -14 -31.5 -27.5q-19.5 -13.5 -47.5 -23.5q-28 -10 -66 -10q-74 0 -117 38q-43 38 -43 104q0 51 22.5 85q22.5 34 64.5 52q42 18 101.5 21q59.5 3 133.5 -8q5 46 1.5 76.5q-3.5 30.5 -16 48.5q-12.5 18 -35 25.5q-22.5 7.5 -55.5 7.5q-45 0 -86 -12.5q-41 -12.5 -73 -25.5zM255 58q28 0 52 9q24 9 42 23q18 14 30 30.5q12 16.5 18 31.5l0 70q-52 9 -96 9q-44 0 -76 -9.5q-32 -9.5 -50 -29.5q-18 -20 -18 -52q0 -33 22.5 -57.5q22.5 -24.5 75.5 -24.5zt0 0zM281 732h37l135 -182h-78l-81 109l-86 -109l-70 0z" />
<glyph unicode="&#227;" horiz-adv-x="600" d="M108 461q43 25 97 36q54 11 106 11q51 0 83.5 -16q32.5 -16 51 -41.5q18.5 -25.5 25 -58q6.5 -32.5 6.5 -65.5q0 -38 -2 -81q-2 -43 -3 -86q0 -50 6 -95l67 0v-65h-133l-9 75h-5q-6 -9 -18 -23q-12 -14 -31.5 -27.5q-19.5 -13.5 -47.5 -23.5q-28 -10 -66 -10q-74 0 -117 38q-43 38 -43 104q0 51 22.5 85q22.5 34 64.5 52q42 18 101.5 21q59.5 3 133.5 -8q5 46 1.5 76.5q-3.5 30.5 -16 48.5q-12.5 18 -35 25.5q-22.5 7.5 -55.5 7.5q-45 0 -86 -12.5q-41 -12.5 -73 -25.5zM255 58q28 0 52 9q24 9 42 23q18 14 30 30.5q12 16.5 18 31.5l0 70q-52 9 -96 9q-44 0 -76 -9.5q-32 -9.5 -50 -29.5q-18 -20 -18 -52q0 -33 22.5 -57.5q22.5 -24.5 75.5 -24.5zt0 0zM140 654q29 33 60 46.5q31 13.5 51 13.5q17 0 31.5 -6.5q14.5 -6.5 28 -14q13.5 -7.5 26 -13.5q12.5 -6 26.5 -6q22 0 46 24l35 -44q-26 -29 -48.5 -39.5q-22.5 -10.5 -49.5 -9.5q-16 0 -30 6.5q-14 6.5 -27.5 14q-13.5 7.5 -27 13.5q-13.5 6 -27.5 6q-13 0 -26.5 -7q-13.5 -7 -30.5 -24z" />
<glyph unicode="&#228;" horiz-adv-x="600" d="M108 461q43 25 97 36q54 11 106 11q51 0 83.5 -16q32.5 -16 51 -41.5q18.5 -25.5 25 -58q6.5 -32.5 6.5 -65.5q0 -38 -2 -81q-2 -43 -3 -86q0 -50 6 -95l67 0v-65h-133l-9 75h-5q-6 -9 -18 -23q-12 -14 -31.5 -27.5q-19.5 -13.5 -47.5 -23.5q-28 -10 -66 -10q-74 0 -117 38q-43 38 -43 104q0 51 22.5 85q22.5 34 64.5 52q42 18 101.5 21q59.5 3 133.5 -8q5 46 1.5 76.5q-3.5 30.5 -16 48.5q-12.5 18 -35 25.5q-22.5 7.5 -55.5 7.5q-45 0 -86 -12.5q-41 -12.5 -73 -25.5zM255 58q28 0 52 9q24 9 42 23q18 14 30 30.5q12 16.5 18 31.5l0 70q-52 9 -96 9q-44 0 -76 -9.5q-32 -9.5 -50 -29.5q-18 -20 -18 -52q0 -33 22.5 -57.5q22.5 -24.5 75.5 -24.5zt0 0zM126 645q0 26 15.5 42.5q15.5 16.5 41.5 16.5q25 0 41 -16.5q16 -16.5 16 -42.5q0 -24 -16 -40.5q-16 -16.5 -41 -16.5q-26 0 -41.5 16.5q-15.5 16.5 -15.5 40.5zt0 0zM349 645q0 26 15.5 42.5q15.5 16.5 40.5 16.5q26 0 42.5 -16.5q16.5 -16.5 16.5 -42.5q0 -24 -16.5 -40.5q-16.5 -16.5 -42.5 -16.5q-25 0 -40.5 16.5t-15.5 40.5z" />
<glyph unicode="&#229;" horiz-adv-x="600" d="M108 461q43 25 97 36q54 11 106 11q51 0 83.5 -16q32.5 -16 51 -41.5q18.5 -25.5 25 -58q6.5 -32.5 6.5 -65.5q0 -38 -2 -81q-2 -43 -3 -86q0 -50 6 -95l67 0v-65h-133l-9 75h-5q-6 -9 -18 -23q-12 -14 -31.5 -27.5q-19.5 -13.5 -47.5 -23.5q-28 -10 -66 -10q-74 0 -117 38q-43 38 -43 104q0 51 22.5 85q22.5 34 64.5 52q42 18 101.5 21q59.5 3 133.5 -8q5 46 1.5 76.5q-3.5 30.5 -16 48.5q-12.5 18 -35 25.5q-22.5 7.5 -55.5 7.5q-45 0 -86 -12.5q-41 -12.5 -73 -25.5zM255 58q28 0 52 9q24 9 42 23q18 14 30 30.5q12 16.5 18 31.5l0 70q-52 9 -96 9q-44 0 -76 -9.5q-32 -9.5 -50 -29.5q-18 -20 -18 -52q0 -33 22.5 -57.5q22.5 -24.5 75.5 -24.5zt0 0zM197 643q0 42 26.5 66.5q26.5 24.5 70.5 24.5q42 0 70 -22q28 -22 28 -69q0 -39 -28 -64.5q-28 -25.5 -70 -25.5q-42 0 -69.5 23.5q-27.5 23.5 -27.5 66.5zt0 0zM251 643q0 -20 13 -31q13 -11 30 -11q19 0 31.5 10q12.5 10 12.5 32q0 22 -13.5 32.5q-13.5 10.5 -30.5 10.5q-17 0 -30 -10t-13 -33z" />
<glyph unicode="&#230;" horiz-adv-x="600" d="M175 59q32 0 55.5 17.5q23.5 17.5 30.5 43.5l0 105q-3 0 -11 0.5q-8 0.5 -16.5 1q-8.5 0.5 -16.5 0.5q-8 0 -11 0q-20 0 -39 -2.5q-19 -2.5 -33 -11q-14 -8.5 -22.5 -25q-8.5 -16.5 -8.5 -43.5q0 -35 17 -60.5q17 -25.5 55 -25.5zt0 0zM283 65q-17 -35 -49 -54q-32 -19 -83 -19q-54 0 -88 40q-34 40 -34 106q0 43 12 72.5q12 29.5 34 47.5q22 18 51.5 25.5q29.5 7.5 65.5 7.5q4 0 13.5 0q9.5 0 20 -0.5q10.5 -0.5 20 -1q9.5 -0.5 14.5 -0.5q1 14 1.5 27q0.5 13 0.5 24q0 29 -8 48.5q-8 19.5 -20.5 31q-12.5 11.5 -29 16.5q-16.5 5 -34.5 5q-23 0 -50 -9.5q-27 -9.5 -46 -24.5l-19 58q25 22 59.5 32.5q34.5 10.5 71.5 10.5q17 0 35.5 -4q18.5 -4 35.5 -12q17 -8 30 -19.5q13 -11.5 18 -27.5q9 18 23.5 30.5q14.5 12.5 31.5 21q17 8.5 35 12q18 3.5 33 3.5q23 0 48.5 -7.5q25.5 -7.5 46.5 -28.5q21 -21 34.5 -57q13.5 -36 13.5 -93q0 -20 -1 -47q-1 -27 -4 -50l-241 0q1 -96 33 -135q32 -39 85 -39q12 0 25 2.5q13 2.5 25.5 6q12.5 3.5 22.5 8.5q10 5 15 10l24 -56q-20 -17 -55.5 -27.5q-35.5 -10.5 -73.5 -10.5q-20 0 -41.5 5q-21.5 5 -40.5 14.5q-19 9.5 -34 24q-15 14.5 -23 33.5zM428 445q-18 0 -35.5 -9q-17.5 -9 -31.5 -28q-14 -19 -23.5 -47q-9.5 -28 -10.5 -67l175 0v18q0 67 -22.5 100t-51.5 33z" />
<glyph unicode="&#231;" horiz-adv-x="600" d="M439 423q-23 8 -49.5 13.5q-26.5 5.5 -52.5 5.5q-98 0 -146 -46q-48 -46 -48 -146q0 -44 14 -78.5q14 -34.5 40 -58.5q26 -24 62.5 -37q36.5 -13 80.5 -13q47 0 91.5 16q44.5 16 74.5 42l35 -58q-26 -23 -76 -46.5q-50 -23.5 -119 -27.5l-17 -32q42 -8 60.5 -26q18.5 -18 18.5 -49q0 -39 -32 -64.5q-32 -25.5 -90 -25.5q-11 0 -22 1q-11 1 -23 3l9 39q6 -1 11 -1q5 0 10 0q22 0 34.5 4q12.5 4 19 9.5q6.5 5.5 8 12.5q1.5 7 1.5 13q0 28 -86 37l42 80q-114 9 -172 79q-58 70 -58 181q0 63 17.5 112q17.5 49 50.5 82q33 33 80 50.5q47 17.5 105 17.5q74 0 120.5 -13q46.5 -13 78.5 -29l-1 -3v-139l-72 0z" />
<glyph unicode="&#232;" horiz-adv-x="600" d="M529 63q-18 -16 -42.5 -30q-24.5 -14 -53.5 -24q-29 -10 -60.5 -15.5q-31.5 -5.5 -63.5 -5.5q-60 0 -106 18.5q-46 18.5 -77 53q-31 34.5 -47 82.5q-16 48 -16 108q0 63 17.5 112q17.5 49 50.5 82q33 33 80 50.5q47 17.5 105 17.5q42 0 83 -11q41 -11 72.5 -41.5q31.5 -30.5 48.5 -84q17 -53.5 12 -138.5l-387 0q0 -90 48.5 -134.5q48.5 -44.5 129.5 -44.5q27 0 53.5 6.5q26.5 6.5 50.5 15.5q24 9 42.5 20q18.5 11 28.5 20zM318 446q-33 0 -62.5 -7q-29.5 -7 -52 -23.5q-22.5 -16.5 -37 -43q-14.5 -26.5 -18.5 -65.5l311 0q-5 66 -42.5 102.5q-37.5 36.5 -98.5 36.5zt0 0zM366 571h-55l-119 149l109 0z" />
<glyph unicode="&#233;" horiz-adv-x="600" d="M529 63q-18 -16 -42.5 -30q-24.5 -14 -53.5 -24q-29 -10 -60.5 -15.5q-31.5 -5.5 -63.5 -5.5q-60 0 -106 18.5q-46 18.5 -77 53q-31 34.5 -47 82.5q-16 48 -16 108q0 63 17.5 112q17.5 49 50.5 82q33 33 80 50.5q47 17.5 105 17.5q42 0 83 -11q41 -11 72.5 -41.5q31.5 -30.5 48.5 -84q17 -53.5 12 -138.5l-387 0q0 -90 48.5 -134.5q48.5 -44.5 129.5 -44.5q27 0 53.5 6.5q26.5 6.5 50.5 15.5q24 9 42.5 20q18.5 11 28.5 20zM318 446q-33 0 -62.5 -7q-29.5 -7 -52 -23.5q-22.5 -16.5 -37 -43q-14.5 -26.5 -18.5 -65.5l311 0q-5 66 -42.5 102.5q-37.5 36.5 -98.5 36.5zt0 0zM313 720h109l-119 -149l-55 0z" />
<glyph unicode="&#234;" horiz-adv-x="600" d="M529 63q-18 -16 -42.5 -30q-24.5 -14 -53.5 -24q-29 -10 -60.5 -15.5q-31.5 -5.5 -63.5 -5.5q-60 0 -106 18.5q-46 18.5 -77 53q-31 34.5 -47 82.5q-16 48 -16 108q0 63 17.5 112q17.5 49 50.5 82q33 33 80 50.5q47 17.5 105 17.5q42 0 83 -11q41 -11 72.5 -41.5q31.5 -30.5 48.5 -84q17 -53.5 12 -138.5l-387 0q0 -90 48.5 -134.5q48.5 -44.5 129.5 -44.5q27 0 53.5 6.5q26.5 6.5 50.5 15.5q24 9 42.5 20q18.5 11 28.5 20zM318 446q-33 0 -62.5 -7q-29.5 -7 -52 -23.5q-22.5 -16.5 -37 -43q-14.5 -26.5 -18.5 -65.5l311 0q-5 66 -42.5 102.5q-37.5 36.5 -98.5 36.5zt0 0zM288 732h37l135 -182h-78l-81 109l-86 -109l-70 0z" />
<glyph unicode="&#235;" horiz-adv-x="600" d="M529 63q-18 -16 -42.5 -30q-24.5 -14 -53.5 -24q-29 -10 -60.5 -15.5q-31.5 -5.5 -63.5 -5.5q-60 0 -106 18.5q-46 18.5 -77 53q-31 34.5 -47 82.5q-16 48 -16 108q0 63 17.5 112q17.5 49 50.5 82q33 33 80 50.5q47 17.5 105 17.5q42 0 83 -11q41 -11 72.5 -41.5q31.5 -30.5 48.5 -84q17 -53.5 12 -138.5l-387 0q0 -90 48.5 -134.5q48.5 -44.5 129.5 -44.5q27 0 53.5 6.5q26.5 6.5 50.5 15.5q24 9 42.5 20q18.5 11 28.5 20zM318 446q-33 0 -62.5 -7q-29.5 -7 -52 -23.5q-22.5 -16.5 -37 -43q-14.5 -26.5 -18.5 -65.5l311 0q-5 66 -42.5 102.5q-37.5 36.5 -98.5 36.5zt0 0zM141 645q0 26 15.5 42.5q15.5 16.5 41.5 16.5q25 0 41 -16.5q16 -16.5 16 -42.5q0 -24 -16 -40.5q-16 -16.5 -41 -16.5q-26 0 -41.5 16.5q-15.5 16.5 -15.5 40.5zt0 0zM364 645q0 26 15.5 42.5q15.5 16.5 40.5 16.5q26 0 42.5 -16.5q16.5 -16.5 16.5 -42.5q0 -24 -16.5 -40.5q-16.5 -16.5 -42.5 -16.5q-25 0 -40.5 16.5t-15.5 40.5z" />
<glyph unicode="&#236;" horiz-adv-x="600" d="M146 0v67h174v366h-174v67h254v-433h170v-67zM368 571h-55l-119 149l109 0z" />
<glyph unicode="&#237;" horiz-adv-x="600" d="M105 0v67h174v366h-174v67h254v-433h170v-67zM296 720h109l-119 -149l-55 0z" />
<glyph unicode="&#238;" horiz-adv-x="600" d="M105 0v67h174v366h-174v67h254v-433h170v-67zM273 732h37l135 -182h-78l-81 109l-86 -109l-70 0z" />
<glyph unicode="&#239;" horiz-adv-x="600" d="M107 0v67h174v366h-174v67h254v-433h170v-67zM131 645q0 26 15.5 42.5q15.5 16.5 41.5 16.5q25 0 41 -16.5q16 -16.5 16 -42.5q0 -24 -16 -40.5q-16 -16.5 -41 -16.5q-26 0 -41.5 16.5q-15.5 16.5 -15.5 40.5zt0 0zM354 645q0 26 15.5 42.5q15.5 16.5 40.5 16.5q26 0 42.5 -16.5q16.5 -16.5 16.5 -42.5q0 -24 -16.5 -40.5q-16.5 -16.5 -42.5 -16.5q-25 0 -40.5 16.5t-15.5 40.5z" />
<glyph unicode="&#240;" horiz-adv-x="600" d="M239 596l57 31q-38 23 -76 32l35 54q18 -7 46 -19q28 -12 58 -33l68 37l26 -45l-50 -27q24 -23 50.5 -53.5q26.5 -30.5 49 -71q22.5 -40.5 37.5 -91.5q15 -51 15 -115q0 -81 -21 -139q-21 -58 -56.5 -95.5q-35.5 -37.5 -81.5 -55q-46 -17.5 -95 -17.5q-65 0 -111.5 21q-46.5 21 -76.5 57q-30 36 -44 83.5q-14 47.5 -14 101.5q0 52 15.5 99q15.5 47 46 82.5q30.5 35.5 76.5 56.5q46 21 106 21q45 0 83 -13q38 -13 64 -33q-17 35 -46 69q-29 34 -58 60l-76 -41zM138 250q0 -49 13 -85q13 -36 35.5 -60q22.5 -24 53 -35.5q30.5 -11.5 65.5 -11.5q32 0 62.5 13q30.5 13 54.5 41q24 28 38.5 72q14.5 44 14.5 106q0 10 -0.5 22.5q-0.5 12.5 -1 25q-0.5 12.5 -2 24q-1.5 11.5 -3.5 19.5q-14 15 -34 26q-20 11 -41.5 18.5q-21.5 7.5 -44 11q-22.5 3.5 -41.5 3.5q-44 0 -75.5 -15q-31.5 -15 -52.5 -40.5q-21 -25.5 -31 -60t-10 -74.5z" />
<glyph unicode="&#241;" horiz-adv-x="600" d="M93 325q0 9 -0.5 23.5q-0.5 14.5 -1.5 30q-1 15.5 -2.5 30.5q-1.5 15 -3.5 26l-67 0v65h134l9 -81h5q10 17 26.5 33.5q16.5 16.5 38.5 30q22 13.5 49 21.5q27 8 57 8q46 0 81.5 -10q35.5 -10 59 -35.5q23.5 -25.5 35.5 -69q12 -43.5 12 -110.5v-287h-78v272q0 83 -27 125q-27 42 -98 42q-26 0 -50.5 -10.5q-24.5 -10.5 -44.5 -27.5q-20 -17 -35 -39.5q-15 -22.5 -22 -47.5l0 -314h-77zM146 654q29 33 60 46.5q31 13.5 51 13.5q17 0 31.5 -6.5q14.5 -6.5 28 -14q13.5 -7.5 26 -13.5q12.5 -6 26.5 -6q22 0 46 24l35 -44q-26 -29 -48.5 -39.5q-22.5 -10.5 -49.5 -9.5q-16 0 -30 6.5q-14 6.5 -27.5 14q-13.5 7.5 -27 13.5q-13.5 6 -27.5 6q-13 0 -26.5 -7q-13.5 -7 -30.5 -24z" />
<glyph unicode="&#242;" horiz-adv-x="600" d="M57 250q0 121 63 191.5q63 70.5 180 70.5q63 0 108.5 -20.5q45.5 -20.5 75.5 -55.5q30 -35 44.5 -83q14.5 -48 14.5 -103q0 -60 -16 -108.5q-16 -48.5 -47 -82.5q-31 -34 -76.5 -52.5q-45.5 -18.5 -103.5 -18.5q-62 0 -108 20.5q-46 20.5 -76 55.5q-30 35 -44.5 83q-14.5 48 -14.5 103zt0 0zM140 250q0 -35 8.5 -70q8.5 -35 27.5 -63q19 -28 49.5 -45q30.5 -17 74.5 -17q80 0 120.5 49.5q40.5 49.5 40.5 145.5q0 36 -8.5 70.5q-8.5 34.5 -28 62.5q-19.5 28 -50 45q-30.5 17 -74.5 17q-80 0 -120 -49q-40 -49 -40 -146zt0 0zM339 571h-55l-119 149l109 0z" />
<glyph unicode="&#243;" horiz-adv-x="600" d="M57 250q0 121 63 191.5q63 70.5 180 70.5q63 0 108.5 -20.5q45.5 -20.5 75.5 -55.5q30 -35 44.5 -83q14.5 -48 14.5 -103q0 -60 -16 -108.5q-16 -48.5 -47 -82.5q-31 -34 -76.5 -52.5q-45.5 -18.5 -103.5 -18.5q-62 0 -108 20.5q-46 20.5 -76 55.5q-30 35 -44.5 83q-14.5 48 -14.5 103zt0 0zM140 250q0 -35 8.5 -70q8.5 -35 27.5 -63q19 -28 49.5 -45q30.5 -17 74.5 -17q80 0 120.5 49.5q40.5 49.5 40.5 145.5q0 36 -8.5 70.5q-8.5 34.5 -28 62.5q-19.5 28 -50 45q-30.5 17 -74.5 17q-80 0 -120 -49q-40 -49 -40 -146zt0 0zM324 720h109l-119 -149l-55 0z" />
<glyph unicode="&#244;" horiz-adv-x="600" d="M57 250q0 121 63 191.5q63 70.5 180 70.5q63 0 108.5 -20.5q45.5 -20.5 75.5 -55.5q30 -35 44.5 -83q14.5 -48 14.5 -103q0 -60 -16 -108.5q-16 -48.5 -47 -82.5q-31 -34 -76.5 -52.5q-45.5 -18.5 -103.5 -18.5q-62 0 -108 20.5q-46 20.5 -76 55.5q-30 35 -44.5 83q-14.5 48 -14.5 103zt0 0zM140 250q0 -35 8.5 -70q8.5 -35 27.5 -63q19 -28 49.5 -45q30.5 -17 74.5 -17q80 0 120.5 49.5q40.5 49.5 40.5 145.5q0 36 -8.5 70.5q-8.5 34.5 -28 62.5q-19.5 28 -50 45q-30.5 17 -74.5 17q-80 0 -120 -49q-40 -49 -40 -146zt0 0zM287 732h37l135 -182h-78l-81 109l-86 -109l-70 0z" />
<glyph unicode="&#245;" horiz-adv-x="600" d="M57 250q0 121 63 191.5q63 70.5 180 70.5q63 0 108.5 -20.5q45.5 -20.5 75.5 -55.5q30 -35 44.5 -83q14.5 -48 14.5 -103q0 -60 -16 -108.5q-16 -48.5 -47 -82.5q-31 -34 -76.5 -52.5q-45.5 -18.5 -103.5 -18.5q-62 0 -108 20.5q-46 20.5 -76 55.5q-30 35 -44.5 83q-14.5 48 -14.5 103zt0 0zM140 250q0 -35 8.5 -70q8.5 -35 27.5 -63q19 -28 49.5 -45q30.5 -17 74.5 -17q80 0 120.5 49.5q40.5 49.5 40.5 145.5q0 36 -8.5 70.5q-8.5 34.5 -28 62.5q-19.5 28 -50 45q-30.5 17 -74.5 17q-80 0 -120 -49q-40 -49 -40 -146zt0 0zM147 654q29 33 60 46.5q31 13.5 51 13.5q17 0 31.5 -6.5q14.5 -6.5 28 -14q13.5 -7.5 26 -13.5q12.5 -6 26.5 -6q22 0 46 24l35 -44q-26 -29 -48.5 -39.5q-22.5 -10.5 -49.5 -9.5q-16 0 -30 6.5q-14 6.5 -27.5 14q-13.5 7.5 -27 13.5q-13.5 6 -27.5 6q-13 0 -26.5 -7q-13.5 -7 -30.5 -24z" />
<glyph unicode="&#246;" horiz-adv-x="600" d="M57 250q0 121 63 191.5q63 70.5 180 70.5q63 0 108.5 -20.5q45.5 -20.5 75.5 -55.5q30 -35 44.5 -83q14.5 -48 14.5 -103q0 -60 -16 -108.5q-16 -48.5 -47 -82.5q-31 -34 -76.5 -52.5q-45.5 -18.5 -103.5 -18.5q-62 0 -108 20.5q-46 20.5 -76 55.5q-30 35 -44.5 83q-14.5 48 -14.5 103zt0 0zM140 250q0 -35 8.5 -70q8.5 -35 27.5 -63q19 -28 49.5 -45q30.5 -17 74.5 -17q80 0 120.5 49.5q40.5 49.5 40.5 145.5q0 36 -8.5 70.5q-8.5 34.5 -28 62.5q-19.5 28 -50 45q-30.5 17 -74.5 17q-80 0 -120 -49q-40 -49 -40 -146zt0 0zM129 645q0 26 15.5 42.5q15.5 16.5 41.5 16.5q25 0 41 -16.5q16 -16.5 16 -42.5q0 -24 -16 -40.5q-16 -16.5 -41 -16.5q-26 0 -41.5 16.5q-15.5 16.5 -15.5 40.5zt0 0zM352 645q0 26 15.5 42.5q15.5 16.5 40.5 16.5q26 0 42.5 -16.5q16.5 -16.5 16.5 -42.5q0 -24 -16.5 -40.5q-16.5 -16.5 -42.5 -16.5q-25 0 -40.5 16.5t-15.5 40.5z" />
<glyph unicode="&#247;" horiz-adv-x="600" d="M68 374h464v-72h-464zM234 534q0 32 18 49.5q18 17.5 48 17.5q32 0 50 -17.5q18 -17.5 18 -49.5q0 -29 -18 -48q-18 -19 -50 -19q-30 0 -48 19q-18 19 -18 48zt0 0zM234 159q0 32 18 49.5q18 17.5 48 17.5q32 0 50 -17.5q18 -17.5 18 -49.5q0 -29 -18 -48q-18 -19 -50 -19q-30 0 -48 19t-18 48z" />
<glyph unicode="&#248;" horiz-adv-x="600" d="M57 250q0 121 63 191.5q63 70.5 180 70.5q63 0 108 -21q8 -3 15 -7l23 31l54 -37l-24 -33l8 -9q30 -35 44.5 -83q14.5 -48 14.5 -103q0 -60 -16 -108.5q-16 -48.5 -47 -82.5q-31 -34 -76.5 -52.5q-45.5 -18.5 -103.5 -18.5q-62 0 -108 20q-11 5 -22 11l-24 -34l-52 37l26 37q-2 2 -4 5q-30 35 -44.5 83q-14.5 48 -14.5 103zt0 0zM225 72q31 -17 75 -17q80 0 120.5 49.5q40.5 49.5 40.5 145.5q0 36 -9 70q-7 32 -24 58l-215 -299zM140 250q0 -35 8 -70q7 -29 21 -53l212 297q-3 2 -7 4q-30 17 -74 17q-80 0 -120 -49t-40 -146z" />
<glyph unicode="&#249;" horiz-adv-x="600" d="M363 500h142v-341q0 -49 6 -94l67 0v-65h-133l-3 85h-4q-26 -43 -69 -70q-43 -27 -104 -27q-46 0 -78.5 10.5q-32.5 10.5 -53.5 36.5q-21 26 -31 69.5q-10 43.5 -10 108.5v220h-67v67h145v-271q0 -41 3.5 -73.5q3.5 -32.5 14.5 -55q11 -22.5 32.5 -34q21.5 -11.5 57.5 -11.5q52 0 90.5 34q38.5 34 58.5 85l0 259h-64zM321 571h-55l-119 149l109 0z" />
<glyph unicode="&#250;" horiz-adv-x="600" d="M363 500h142v-341q0 -49 6 -94l67 0v-65h-133l-3 85h-4q-26 -43 -69 -70q-43 -27 -104 -27q-46 0 -78.5 10.5q-32.5 10.5 -53.5 36.5q-21 26 -31 69.5q-10 43.5 -10 108.5v220h-67v67h145v-271q0 -41 3.5 -73.5q3.5 -32.5 14.5 -55q11 -22.5 32.5 -34q21.5 -11.5 57.5 -11.5q52 0 90.5 34q38.5 34 58.5 85l0 259h-64zM284 720h109l-119 -149l-55 0z" />
<glyph unicode="&#251;" horiz-adv-x="600" d="M363 500h142v-341q0 -49 6 -94l67 0v-65h-133l-3 85h-4q-26 -43 -69 -70q-43 -27 -104 -27q-46 0 -78.5 10.5q-32.5 10.5 -53.5 36.5q-21 26 -31 69.5q-10 43.5 -10 108.5v220h-67v67h145v-271q0 -41 3.5 -73.5q3.5 -32.5 14.5 -55q11 -22.5 32.5 -34q21.5 -11.5 57.5 -11.5q52 0 90.5 34q38.5 34 58.5 85l0 259h-64zM280 732h37l135 -182h-78l-81 109l-86 -109l-70 0z" />
<glyph unicode="&#252;" horiz-adv-x="600" d="M363 500h142v-341q0 -49 6 -94l67 0v-65h-133l-3 85h-4q-26 -43 -69 -70q-43 -27 -104 -27q-46 0 -78.5 10.5q-32.5 10.5 -53.5 36.5q-21 26 -31 69.5q-10 43.5 -10 108.5v220h-67v67h145v-271q0 -41 3.5 -73.5q3.5 -32.5 14.5 -55q11 -22.5 32.5 -34q21.5 -11.5 57.5 -11.5q52 0 90.5 34q38.5 34 58.5 85l0 259h-64zM124 645q0 26 15.5 42.5q15.5 16.5 41.5 16.5q25 0 41 -16.5q16 -16.5 16 -42.5q0 -24 -16 -40.5q-16 -16.5 -41 -16.5q-26 0 -41.5 16.5q-15.5 16.5 -15.5 40.5zt0 0zM347 645q0 26 15.5 42.5q15.5 16.5 40.5 16.5q26 0 42.5 -16.5q16.5 -16.5 16.5 -42.5q0 -24 -16.5 -40.5q-16.5 -16.5 -42.5 -16.5q-25 0 -40.5 16.5t-15.5 40.5z" />
<glyph unicode="&#253;" horiz-adv-x="600" d="M311 77h38l124 423h81l-139 -449q-11 -35 -22.5 -79.5q-11.5 -44.5 -32.5 -83.5q-21 -39 -57 -66q-36 -27 -94 -27q-13 0 -27.5 3q-14.5 3 -28.5 7.5q-14 4.5 -26 10.5q-12 6 -18 12l28 72q6 -5 16.5 -10q10.5 -5 23 -8.5q12.5 -3.5 24.5 -6q12 -2.5 20 -2.5q75 0 102 127l-67 0l-210 500h90zM338 720h109l-119 -149l-55 0z" />
<glyph unicode="&#254;" horiz-adv-x="600" d="M96 635h-75v65h152v-270q23 32 64.5 57q41.5 25 101.5 25q107 0 161 -59q54 -59 54 -193q0 -63 -18.5 -113.5q-18.5 -50.5 -52.5 -85.5q-34 -35 -82 -54q-48 -19 -106 -19q-21 0 -37.5 1.5q-16.5 1.5 -30 4q-13.5 2.5 -26.5 6.5q-13 4 -28 10l0 -210h-77zM326 439q-30 0 -56.5 -11q-26.5 -11 -47 -29q-20.5 -18 -33.5 -40q-13 -22 -16 -44l0 -228q22 -15 49.5 -23.5q27.5 -8.5 72.5 -8.5q80 0 128 52.5q48 52.5 48 153.5q0 85 -33.5 131.5t-111.5 46.5z" />
<glyph unicode="&#255;" horiz-adv-x="600" d="M311 77h38l124 423h81l-139 -449q-11 -35 -22.5 -79.5q-11.5 -44.5 -32.5 -83.5q-21 -39 -57 -66q-36 -27 -94 -27q-13 0 -27.5 3q-14.5 3 -28.5 7.5q-14 4.5 -26 10.5q-12 6 -18 12l28 72q6 -5 16.5 -10q10.5 -5 23 -8.5q12.5 -3.5 24.5 -6q12 -2.5 20 -2.5q75 0 102 127l-67 0l-210 500h90zM140 645q0 26 15.5 42.5q15.5 16.5 41.5 16.5q25 0 41 -16.5q16 -16.5 16 -42.5q0 -24 -16 -40.5q-16 -16.5 -41 -16.5q-26 0 -41.5 16.5q-15.5 16.5 -15.5 40.5zt0 0zM363 645q0 26 15.5 42.5q15.5 16.5 40.5 16.5q26 0 42.5 -16.5q16.5 -16.5 16.5 -42.5q0 -24 -16.5 -40.5q-16.5 -16.5 -42.5 -16.5q-25 0 -40.5 16.5t-15.5 40.5z" />
<glyph unicode="&#256;" horiz-adv-x="600" d="M431 194h-269l-64 -194h-82l234 700h98l236 -700h-87zM188 266h220l-103 329h-12zM140 843h316v-62l-316 0z" />
<glyph unicode="&#257;" horiz-adv-x="600" d="M108 461q43 25 97 36q54 11 106 11q51 0 83.5 -16q32.5 -16 51 -41.5q18.5 -25.5 25 -58q6.5 -32.5 6.5 -65.5q0 -38 -2 -81q-2 -43 -3 -86q0 -50 6 -95l67 0v-65h-133l-9 75h-5q-6 -9 -18 -23q-12 -14 -31.5 -27.5q-19.5 -13.5 -47.5 -23.5q-28 -10 -66 -10q-74 0 -117 38q-43 38 -43 104q0 51 22.5 85q22.5 34 64.5 52q42 18 101.5 21q59.5 3 133.5 -8q5 46 1.5 76.5q-3.5 30.5 -16 48.5q-12.5 18 -35 25.5q-22.5 7.5 -55.5 7.5q-45 0 -86 -12.5q-41 -12.5 -73 -25.5zM255 58q28 0 52 9q24 9 42 23q18 14 30 30.5q12 16.5 18 31.5l0 70q-52 9 -96 9q-44 0 -76 -9.5q-32 -9.5 -50 -29.5q-18 -20 -18 -52q0 -33 22.5 -57.5q22.5 -24.5 75.5 -24.5zt0 0zM166 643h296v-62l-296 0z" />
<glyph unicode="&#258;" horiz-adv-x="600" d="M431 194h-269l-64 -194h-82l234 700h98l236 -700h-87zM188 266h220l-103 329h-12zM171 871q17 -34 52 -52.5q35 -18.5 82 -18.5q48 0 81 21q33 21 47 50l47 -26q-22 -57 -70.5 -86q-48.5 -29 -105.5 -29q-27 0 -54 6q-27 6 -52 19q-25 13 -45 34q-20 21 -33 51z" />
<glyph unicode="&#259;" horiz-adv-x="600" d="M108 461q43 25 97 36q54 11 106 11q51 0 83.5 -16q32.5 -16 51 -41.5q18.5 -25.5 25 -58q6.5 -32.5 6.5 -65.5q0 -38 -2 -81q-2 -43 -3 -86q0 -50 6 -95l67 0v-65h-133l-9 75h-5q-6 -9 -18 -23q-12 -14 -31.5 -27.5q-19.5 -13.5 -47.5 -23.5q-28 -10 -66 -10q-74 0 -117 38q-43 38 -43 104q0 51 22.5 85q22.5 34 64.5 52q42 18 101.5 21q59.5 3 133.5 -8q5 46 1.5 76.5q-3.5 30.5 -16 48.5q-12.5 18 -35 25.5q-22.5 7.5 -55.5 7.5q-45 0 -86 -12.5q-41 -12.5 -73 -25.5zM255 58q28 0 52 9q24 9 42 23q18 14 30 30.5q12 16.5 18 31.5l0 70q-52 9 -96 9q-44 0 -76 -9.5q-32 -9.5 -50 -29.5q-18 -20 -18 -52q0 -33 22.5 -57.5q22.5 -24.5 75.5 -24.5zt0 0zM206 720q18 -36 48 -56.5q30 -20.5 64 -20.5q34 0 61.5 20q27.5 20 44.5 57l42 -18q-3 -24 -15.5 -47.5q-12.5 -23.5 -32 -41.5q-19.5 -18 -45.5 -29q-26 -11 -56 -11q-28 0 -53 8.5q-25 8.5 -45.5 25q-20.5 16.5 -35.5 39q-15 22.5 -22 51.5z" />
<glyph unicode="&#260;" horiz-adv-x="600" d="M431 194h-269l-64 -194h-82l234 700h98l236 -700h-29q-21 -13 -35 -30q-20 -25 -20 -57q0 -20 13 -35.5q13 -15.5 38 -15.5q19 0 40 10l11 -43q-15 -12 -40 -18q-25 -6 -46 -6q-45 0 -72 24q-27 24 -27 65q0 41 27 70q21 22 52 37zM188 266h220l-103 329l-12 0z" />
<glyph unicode="&#261;" horiz-adv-x="600" d="M108 461q43 25 97 36q54 11 106 11q51 0 83.5 -16q32.5 -16 51 -41.5q18.5 -25.5 25 -58q6.5 -32.5 6.5 -65.5q0 -38 -2 -81q-2 -43 -3 -86q0 -50 6 -95l67 0v-65h-21q-21 -13 -35 -30q-20 -25 -20 -57q0 -20 13 -35.5q13 -15.5 38 -15.5q19 0 40 10l11 -43q-15 -12 -40 -18q-25 -6 -46 -6q-45 0 -72 24q-27 24 -27 65q0 41 27 70q20 21 51 36l-52 0l-9 75h-5q-6 -9 -18 -23q-12 -14 -31.5 -27.5q-19.5 -13.5 -47.5 -23.5q-28 -10 -66 -10q-74 0 -117 38q-43 38 -43 104q0 51 22.5 85q22.5 34 64.5 52q42 18 101.5 21q59.5 3 133.5 -8q5 46 1.5 76.5q-3.5 30.5 -16 48.5q-12.5 18 -35 25.5q-22.5 7.5 -55.5 7.5q-45 0 -86 -12.5q-41 -12.5 -73 -25.5zM255 58q28 0 52 9q24 9 42 23q18 14 30 30.5q12 16.5 18 31.5l0 70q-52 9 -96 9q-44 0 -76 -9.5q-32 -9.5 -50 -29.5q-18 -20 -18 -52q0 -33 22.5 -57.5t75.5 -24.5z" />
<glyph unicode="&#262;" horiz-adv-x="600" d="M458 624q-17 7 -37.5 10.5q-20.5 3.5 -49.5 3.5q-41 0 -80.5 -15q-39.5 -15 -70 -49q-30.5 -34 -49 -89q-18.5 -55 -18.5 -135q0 -72 16.5 -126q16.5 -54 46 -90q29.5 -36 71 -54q41.5 -18 92.5 -18q26 0 48.5 4.5q22.5 4.5 41.5 12.5l0 100h74v-135l1 -2q-30 -23 -76 -38.5q-46 -15.5 -112 -15.5q-63 0 -116.5 21.5q-53.5 21.5 -92.5 65.5q-39 44 -60.5 112.5q-21.5 68.5 -21.5 162.5q0 98 24 166.5q24 68.5 65 112q41 43.5 95.5 63.5q54.5 20 116.5 20q34 0 59 -2.5q25 -2.5 44 -7q19 -4.5 33.5 -11.5q14.5 -7 28.5 -16l1 0v-158h-74zM411 870h114v-21l-163 -97l-69 0z" />
<glyph unicode="&#263;" horiz-adv-x="600" d="M439 423q-23 8 -49.5 13.5q-26.5 5.5 -52.5 5.5q-98 0 -146 -46q-48 -46 -48 -146q0 -44 14 -78.5q14 -34.5 40 -58.5q26 -24 62.5 -37q36.5 -13 80.5 -13q47 0 91.5 16q44.5 16 74.5 42l35 -58q-14 -12 -35 -25q-21 -13 -48.5 -24.5q-27.5 -11.5 -61 -18.5q-33.5 -7 -72.5 -7q-65 0 -114.5 18.5q-49.5 18.5 -82.5 53q-33 34.5 -50 83q-17 48.5 -17 107.5q0 63 17.5 112q17.5 49 50.5 82q33 33 80 50.5q47 17.5 105 17.5q74 0 120.5 -13q46.5 -13 78.5 -29l-1 -3v-139h-72zM338 720h109l-119 -149l-55 0z" />
<glyph unicode="&#264;" horiz-adv-x="600" d="M458 624q-17 7 -37.5 10.5q-20.5 3.5 -49.5 3.5q-41 0 -80.5 -15q-39.5 -15 -70 -49q-30.5 -34 -49 -89q-18.5 -55 -18.5 -135q0 -72 16.5 -126q16.5 -54 46 -90q29.5 -36 71 -54q41.5 -18 92.5 -18q26 0 48.5 4.5q22.5 4.5 41.5 12.5l0 100h74v-135l1 -2q-30 -23 -76 -38.5q-46 -15.5 -112 -15.5q-63 0 -116.5 21.5q-53.5 21.5 -92.5 65.5q-39 44 -60.5 112.5q-21.5 68.5 -21.5 162.5q0 98 24 166.5q24 68.5 65 112q41 43.5 95.5 63.5q54.5 20 116.5 20q34 0 59 -2.5q25 -2.5 44 -7q19 -4.5 33.5 -11.5q14.5 -7 28.5 -16l1 0v-158h-74zM314 871h60l145 -123h-99l-77 65l-83 -65l-101 0z" />
<glyph unicode="&#265;" horiz-adv-x="600" d="M439 423q-23 8 -49.5 13.5q-26.5 5.5 -52.5 5.5q-98 0 -146 -46q-48 -46 -48 -146q0 -44 14 -78.5q14 -34.5 40 -58.5q26 -24 62.5 -37q36.5 -13 80.5 -13q47 0 91.5 16q44.5 16 74.5 42l35 -58q-14 -12 -35 -25q-21 -13 -48.5 -24.5q-27.5 -11.5 -61 -18.5q-33.5 -7 -72.5 -7q-65 0 -114.5 18.5q-49.5 18.5 -82.5 53q-33 34.5 -50 83q-17 48.5 -17 107.5q0 63 17.5 112q17.5 49 50.5 82q33 33 80 50.5q47 17.5 105 17.5q74 0 120.5 -13q46.5 -13 78.5 -29l-1 -3v-139h-72zM276 732h37l135 -182h-78l-81 109l-86 -109l-70 0z" />
<glyph unicode="&#268;" horiz-adv-x="600" d="M458 624q-17 7 -37.5 10.5q-20.5 3.5 -49.5 3.5q-41 0 -80.5 -15q-39.5 -15 -70 -49q-30.5 -34 -49 -89q-18.5 -55 -18.5 -135q0 -72 16.5 -126q16.5 -54 46 -90q29.5 -36 71 -54q41.5 -18 92.5 -18q26 0 48.5 4.5q22.5 4.5 41.5 12.5l0 100h74v-135l1 -2q-30 -23 -76 -38.5q-46 -15.5 -112 -15.5q-63 0 -116.5 21.5q-53.5 21.5 -92.5 65.5q-39 44 -60.5 112.5q-21.5 68.5 -21.5 162.5q0 98 24 166.5q24 68.5 65 112q41 43.5 95.5 63.5q54.5 20 116.5 20q34 0 59 -2.5q25 -2.5 44 -7q19 -4.5 33.5 -11.5q14.5 -7 28.5 -16l1 0v-158h-74zM376 746h-58l-149 124h104l77 -67l81 67l93 0z" />
<glyph unicode="&#269;" horiz-adv-x="600" d="M439 423q-23 8 -49.5 13.5q-26.5 5.5 -52.5 5.5q-98 0 -146 -46q-48 -46 -48 -146q0 -44 14 -78.5q14 -34.5 40 -58.5q26 -24 62.5 -37q36.5 -13 80.5 -13q47 0 91.5 16q44.5 16 74.5 42l35 -58q-14 -12 -35 -25q-21 -13 -48.5 -24.5q-27.5 -11.5 -61 -18.5q-33.5 -7 -72.5 -7q-65 0 -114.5 18.5q-49.5 18.5 -82.5 53q-33 34.5 -50 83q-17 48.5 -17 107.5q0 63 17.5 112q17.5 49 50.5 82q33 33 80 50.5q47 17.5 105 17.5q74 0 120.5 -13q46.5 -13 78.5 -29l-1 -3v-139h-72zM312 550h-37l-135 182h78l81 -109l86 109l70 0z" />
<glyph unicode="&#270;" horiz-adv-x="600" d="M80 700q38 5 79.5 6.5q41.5 1.5 70.5 1.5q91 0 152.5 -26q61.5 -26 99 -72.5q37.5 -46.5 54 -111.5q16.5 -65 16.5 -143q0 -71 -15 -136.5q-15 -65.5 -52 -116q-37 -50.5 -99.5 -81q-62.5 -30.5 -156.5 -30.5q-13 0 -34 0.5q-21 0.5 -43 2q-22 1.5 -42 2.5q-20 1 -30 3zM234 634q-14 0 -35.5 -1q-21.5 -1 -35.5 -4l0 -560q5 -1 14.5 -1.5q9.5 -0.5 19.5 -1q10 -0.5 19.5 -1q9.5 -0.5 15.5 -0.5q73 0 118.5 24q45.5 24 70.5 64.5q25 40.5 34 93q9 52.5 9 108.5q0 49 -8 98.5q-8 49.5 -32.5 89.5q-24.5 40 -70 65.5q-45.5 25.5 -119.5 25.5zt0 0zM301 746h-58l-149 124h104l77 -67l81 67l93 0z" />
<glyph unicode="&#271;" horiz-adv-x="600" d="M349 700h162v-529q0 -9 1 -22.5q1 -13.5 2.5 -28.5q1.5 -15 3.5 -29.5q2 -14.5 4 -25.5l67 0v-65h-133l-10 77h-4q-22 -38 -65.5 -63.5q-43.5 -25.5 -100.5 -25.5q-113 0 -166.5 63.5q-53.5 63.5 -53.5 197.5q0 63 18 111.5q18 48.5 51.5 81q33.5 32.5 80.5 49.5q47 17 105 17q21 0 37.5 -1q16.5 -1 30.5 -3q14 -2 26.5 -5.5q12.5 -3.5 27.5 -7.5l0 142h-84zM289 55q61 0 96 31.5q35 31.5 48 94.5l0 232q-22 15 -49.5 22q-27.5 7 -72.5 7q-80 0 -126 -46.5q-46 -46.5 -46 -146.5q0 -41 7.5 -76.5q7.5 -35.5 25 -61.5q17.5 -26 46.5 -41q29 -15 71 -15zt0 0zM673 700q-2 -29 -12 -59.5q-10 -30.5 -22.5 -56.5q-12.5 -26 -25.5 -46q-13 -20 -22 -29l-33 18q17 36 26 81.5q9 45.5 9 91.5z" />
<glyph unicode="&#272;" horiz-adv-x="600" d="M9 392h90v308q38 5 86.5 6.5q48.5 1.5 90.5 1.5q84 0 142.5 -26q58.5 -26 95 -72.5q36.5 -46.5 52.5 -111.5q16 -65 16 -143q0 -71 -15 -136.5q-15 -65.5 -51.5 -116q-36.5 -50.5 -97.5 -81q-61 -30.5 -152 -30.5q-16 0 -40 0.5q-24 0.5 -49 2q-25 1.5 -46.5 2.5q-21.5 1 -31.5 3l0 333h-90zM278 634q-26 0 -54 -1q-28 -1 -42 -4l0 -237h137v-60h-137v-263q5 -1 17 -1.5q12 -0.5 25.5 -1q13.5 -0.5 26 -1q12.5 -0.5 17.5 -0.5q70 0 114.5 24q44.5 24 69 64.5q24.5 40.5 33.5 93q9 52.5 9 108.5q0 49 -8 98.5q-8 49.5 -31.5 89.5q-23.5 40 -65.5 65.5t-111 25.5z" />
<glyph unicode="&#273;" horiz-adv-x="600" d="M589 65v-65h-133l-10 77h-4q-22 -38 -65.5 -63.5q-43.5 -25.5 -100.5 -25.5q-113 0 -166.5 63.5q-53.5 63.5 -53.5 197.5q0 63 18 111.5q18 48.5 51.5 81q33.5 32.5 80.5 49.5q47 17 105 17q21 0 37.5 -1q16.5 -1 30.5 -3q14 -2 26.5 -5.5q12.5 -3.5 27.5 -7.5l0 81h-165v60h165v68h78v-68h75v-60h-75v-401q0 -9 1 -22.5q1 -13.5 2.5 -28.5q1.5 -15 3.5 -29.5q2 -14.5 4 -25.5zM289 55q61 0 96 31.5q35 31.5 48 94.5l0 232q-22 15 -49.5 22q-27.5 7 -72.5 7q-80 0 -126 -46.5q-46 -46.5 -46 -146.5q0 -41 7.5 -76.5q7.5 -35.5 25 -61.5q17.5 -26 46.5 -41t71 -15z" />
<glyph unicode="&#274;" horiz-adv-x="600" d="M107 700h411v-74h-328v-229h303v-74h-303v-249h333v-74h-416zM151 843h316v-62l-316 0z" />
<glyph unicode="&#275;" horiz-adv-x="600" d="M529 63q-18 -16 -42.5 -30q-24.5 -14 -53.5 -24q-29 -10 -60.5 -15.5q-31.5 -5.5 -63.5 -5.5q-60 0 -106 18.5q-46 18.5 -77 53q-31 34.5 -47 82.5q-16 48 -16 108q0 63 17.5 112q17.5 49 50.5 82q33 33 80 50.5q47 17.5 105 17.5q42 0 83 -11q41 -11 72.5 -41.5q31.5 -30.5 48.5 -84q17 -53.5 12 -138.5l-387 0q0 -90 48.5 -134.5q48.5 -44.5 129.5 -44.5q27 0 53.5 6.5q26.5 6.5 50.5 15.5q24 9 42.5 20q18.5 11 28.5 20zM318 446q-33 0 -62.5 -7q-29.5 -7 -52 -23.5q-22.5 -16.5 -37 -43q-14.5 -26.5 -18.5 -65.5l311 0q-5 66 -42.5 102.5q-37.5 36.5 -98.5 36.5zt0 0zM163 643h296v-62l-296 0z" />
<glyph unicode="&#278;" horiz-adv-x="600" d="M107 700h411v-74h-328v-229h303v-74h-303v-249h333v-74h-416zM248 795q0 23 18 40q18 17 50 17q32 0 51 -17q19 -17 19 -40q0 -25 -19 -42q-19 -17 -51 -17q-32 0 -50 17t-18 42z" />
<glyph unicode="&#279;" horiz-adv-x="600" d="M529 63q-18 -16 -42.5 -30q-24.5 -14 -53.5 -24q-29 -10 -60.5 -15.5q-31.5 -5.5 -63.5 -5.5q-60 0 -106 18.5q-46 18.5 -77 53q-31 34.5 -47 82.5q-16 48 -16 108q0 63 17.5 112q17.5 49 50.5 82q33 33 80 50.5q47 17.5 105 17.5q42 0 83 -11q41 -11 72.5 -41.5q31.5 -30.5 48.5 -84q17 -53.5 12 -138.5l-387 0q0 -90 48.5 -134.5q48.5 -44.5 129.5 -44.5q27 0 53.5 6.5q26.5 6.5 50.5 15.5q24 9 42.5 20q18.5 11 28.5 20zM318 446q-33 0 -62.5 -7q-29.5 -7 -52 -23.5q-22.5 -16.5 -37 -43q-14.5 -26.5 -18.5 -65.5l311 0q-5 66 -42.5 102.5q-37.5 36.5 -98.5 36.5zt0 0zM253 642q0 27 18 46.5q18 19.5 46 19.5q29 0 48.5 -19.5q19.5 -19.5 19.5 -46.5q0 -26 -19.5 -44q-19.5 -18 -48.5 -18q-28 0 -46 18t-18 44z" />
<glyph unicode="&#280;" horiz-adv-x="600" d="M107 700h411v-74h-328v-229h303v-74h-303v-249h333v-74h-20q-21 -13 -35 -30q-20 -25 -20 -57q0 -20 13 -35.5q13 -15.5 38 -15.5q19 0 40 10l11 -43q-15 -12 -40 -18q-25 -6 -46 -6q-45 0 -72 24q-27 24 -27 65q0 41 27 70q20 21 51 36l-336 0z" />
<glyph unicode="&#281;" horiz-adv-x="600" d="M529 63q-18 -16 -42.5 -30q-24.5 -14 -53.5 -24q-8 -3 -15 -5q-26 -14 -42 -34q-20 -25 -20 -57q0 -20 13 -35.5q13 -15.5 38 -15.5q19 0 40 10l11 -43q-15 -12 -40 -18q-25 -6 -46 -6q-45 0 -72 24q-27 24 -27 65q0 41 27 70q13 14 30 25q-11 -1 -21 -1q-60 0 -106 18.5q-46 18.5 -77 53q-31 34.5 -47 82.5q-16 48 -16 108q0 63 17.5 112q17.5 49 50.5 82q33 33 80 50.5q47 17.5 105 17.5q42 0 83 -11q41 -11 72.5 -41.5q31.5 -30.5 48.5 -84q17 -53.5 12 -138.5l-387 0q0 -90 48.5 -134.5q48.5 -44.5 129.5 -44.5q27 0 53.5 6.5q26.5 6.5 50.5 15.5q24 9 42.5 20q18.5 11 28.5 20zM318 446q-33 0 -62.5 -7q-29.5 -7 -52 -23.5q-22.5 -16.5 -37 -43q-14.5 -26.5 -18.5 -65.5l311 0q-5 66 -42.5 102.5t-98.5 36.5z" />
<glyph unicode="&#282;" horiz-adv-x="600" d="M107 700h411v-74h-328v-229h303v-74h-303v-249h333v-74h-416zM336 746h-58l-149 124h104l77 -67l81 67l93 0z" />
<glyph unicode="&#283;" horiz-adv-x="600" d="M529 63q-18 -16 -42.5 -30q-24.5 -14 -53.5 -24q-29 -10 -60.5 -15.5q-31.5 -5.5 -63.5 -5.5q-60 0 -106 18.5q-46 18.5 -77 53q-31 34.5 -47 82.5q-16 48 -16 108q0 63 17.5 112q17.5 49 50.5 82q33 33 80 50.5q47 17.5 105 17.5q42 0 83 -11q41 -11 72.5 -41.5q31.5 -30.5 48.5 -84q17 -53.5 12 -138.5l-387 0q0 -90 48.5 -134.5q48.5 -44.5 129.5 -44.5q27 0 53.5 6.5q26.5 6.5 50.5 15.5q24 9 42.5 20q18.5 11 28.5 20zM318 446q-33 0 -62.5 -7q-29.5 -7 -52 -23.5q-22.5 -16.5 -37 -43q-14.5 -26.5 -18.5 -65.5l311 0q-5 66 -42.5 102.5q-37.5 36.5 -98.5 36.5zt0 0zM325 550h-37l-135 182h78l81 -109l86 109l70 0z" />
<glyph unicode="&#284;" horiz-adv-x="600" d="M437 631q-34 7 -83 7q-42 0 -80.5 -14.5q-38.5 -14.5 -68 -48.5q-29.5 -34 -47 -89q-17.5 -55 -17.5 -136q0 -148 54.5 -218q54.5 -70 157.5 -70q64 0 109 25l0 195h-144v67h215v-308q-16 -12 -38.5 -22q-22.5 -10 -48 -17q-25.5 -7 -53 -10.5q-27.5 -3.5 -53.5 -3.5q-67 0 -120 21.5q-53 21.5 -90 66q-37 44.5 -57 113q-20 68.5 -20 161.5q0 97 25 166q25 69 66 112.5q41 43.5 94 63.5q53 20 109 20q60 0 99 -6.5q39 -6.5 66 -17.5l-1 -4v-167h-74zM308 871h60l145 -123h-99l-77 65l-83 -65l-101 0z" />
<glyph unicode="&#285;" horiz-adv-x="600" d="M524 -25q0 -47 -18 -82.5q-18 -35.5 -49.5 -58.5q-31.5 -23 -73.5 -34.5q-42 -11.5 -91 -11.5q-59 0 -103 12q-44 12 -76 31l38 71q9 -8 23.5 -15.5q14.5 -7.5 33.5 -14q19 -6.5 40.5 -10.5q21.5 -4 42.5 -4q44 0 73.5 8q29.5 8 47.5 25q18 17 26 44q8 27 8 66v56h-4q-23 -33 -59 -51q-36 -18 -93 -18q-114 0 -167.5 63.5q-53.5 63.5 -53.5 197.5q0 128 68 193.5q68 65.5 202 65.5q62 0 105.5 -8.5q43.5 -8.5 79.5 -21.5zM301 55q61 0 96 31.5q35 31.5 49 96.5l0 237q-44 21 -123 21q-80 0 -126 -47q-46 -47 -46 -144q0 -43 8 -78.5q8 -35.5 25.5 -61.5q17.5 -26 46 -40.5q28.5 -14.5 70.5 -14.5zt0 0zM299 732h37l135 -182h-78l-81 109l-86 -109l-70 0z" />
<glyph unicode="&#286;" horiz-adv-x="600" d="M437 631q-34 7 -83 7q-42 0 -80.5 -14.5q-38.5 -14.5 -68 -48.5q-29.5 -34 -47 -89q-17.5 -55 -17.5 -136q0 -148 54.5 -218q54.5 -70 157.5 -70q64 0 109 25l0 195h-144v67h215v-308q-16 -12 -38.5 -22q-22.5 -10 -48 -17q-25.5 -7 -53 -10.5q-27.5 -3.5 -53.5 -3.5q-67 0 -120 21.5q-53 21.5 -90 66q-37 44.5 -57 113q-20 68.5 -20 161.5q0 97 25 166q25 69 66 112.5q41 43.5 94 63.5q53 20 109 20q60 0 99 -6.5q39 -6.5 66 -17.5l-1 -4v-167h-74zM200 871q17 -34 52 -52.5q35 -18.5 82 -18.5q48 0 81 21q33 21 47 50l47 -26q-22 -57 -70.5 -86q-48.5 -29 -105.5 -29q-27 0 -54 6q-27 6 -52 19q-25 13 -45 34q-20 21 -33 51z" />
<glyph unicode="&#287;" horiz-adv-x="600" d="M524 -25q0 -47 -18 -82.5q-18 -35.5 -49.5 -58.5q-31.5 -23 -73.5 -34.5q-42 -11.5 -91 -11.5q-59 0 -103 12q-44 12 -76 31l38 71q9 -8 23.5 -15.5q14.5 -7.5 33.5 -14q19 -6.5 40.5 -10.5q21.5 -4 42.5 -4q44 0 73.5 8q29.5 8 47.5 25q18 17 26 44q8 27 8 66v56h-4q-23 -33 -59 -51q-36 -18 -93 -18q-114 0 -167.5 63.5q-53.5 63.5 -53.5 197.5q0 128 68 193.5q68 65.5 202 65.5q62 0 105.5 -8.5q43.5 -8.5 79.5 -21.5zM301 55q61 0 96 31.5q35 31.5 49 96.5l0 237q-44 21 -123 21q-80 0 -126 -47q-46 -47 -46 -144q0 -43 8 -78.5q8 -35.5 25.5 -61.5q17.5 -26 46 -40.5q28.5 -14.5 70.5 -14.5zt0 0zM203 720q18 -36 48 -56.5q30 -20.5 64 -20.5q34 0 61.5 20q27.5 20 44.5 57l42 -18q-3 -24 -15.5 -47.5q-12.5 -23.5 -32 -41.5q-19.5 -18 -45.5 -29q-26 -11 -56 -11q-28 0 -53 8.5q-25 8.5 -45.5 25q-20.5 16.5 -35.5 39q-15 22.5 -22 51.5z" />
<glyph unicode="&#290;" horiz-adv-x="600" d="M437 631q-34 7 -83 7q-42 0 -80.5 -14.5q-38.5 -14.5 -68 -48.5q-29.5 -34 -47 -89q-17.5 -55 -17.5 -136q0 -148 54.5 -218q54.5 -70 157.5 -70q64 0 109 25l0 195h-144v67h215v-308q-16 -12 -38.5 -22q-22.5 -10 -48 -17q-25.5 -7 -53 -10.5q-27.5 -3.5 -53.5 -3.5q-67 0 -120 21.5q-53 21.5 -90 66q-37 44.5 -57 113q-20 68.5 -20 161.5q0 97 25 166q25 69 66 112.5q41 43.5 94 63.5q53 20 109 20q60 0 99 -6.5q39 -6.5 66 -17.5l-1 -4v-167h-74zM281 -92q0 21 15.5 34q15.5 13 35.5 13q25 0 44.5 -17.5q19.5 -17.5 19.5 -57.5q0 -26 -9 -45.5q-9 -19.5 -21.5 -34q-12.5 -14.5 -26 -23q-13.5 -8.5 -23.5 -12.5l-28 32q20 11 32 28q12 17 12 41q-4 -1 -10 -1q-18 0 -29.5 12t-11.5 31z" />
<glyph unicode="&#291;" horiz-adv-x="600" d="M524 -25q0 -47 -18 -82.5q-18 -35.5 -49.5 -58.5q-31.5 -23 -73.5 -34.5q-42 -11.5 -91 -11.5q-59 0 -103 12q-44 12 -76 31l38 71q9 -8 23.5 -15.5q14.5 -7.5 33.5 -14q19 -6.5 40.5 -10.5q21.5 -4 42.5 -4q44 0 73.5 8q29.5 8 47.5 25q18 17 26 44q8 27 8 66v56h-4q-23 -33 -59 -51q-36 -18 -93 -18q-114 0 -167.5 63.5q-53.5 63.5 -53.5 197.5q0 128 68 193.5q68 65.5 202 65.5q62 0 105.5 -8.5q43.5 -8.5 79.5 -21.5zM301 55q61 0 96 31.5q35 31.5 49 96.5l0 237q-44 21 -123 21q-80 0 -126 -47q-46 -47 -46 -144q0 -43 8 -78.5q8 -35.5 25.5 -61.5q17.5 -26 46 -40.5q28.5 -14.5 70.5 -14.5zt0 0zM374 599q0 -21 -15.5 -34q-15.5 -13 -35.5 -13q-25 0 -44.5 17.5q-19.5 17.5 -19.5 57.5q0 26 9 45.5q9 19.5 21.5 34q12.5 14.5 26 23q13.5 8.5 23.5 12.5l28 -32q-20 -11 -32 -28q-12 -17 -12 -41q4 1 10 1q18 0 29.5 -12t11.5 -31z" />
<glyph unicode="&#292;" horiz-adv-x="600" d="M457 321h-314v-321h-83v700h83v-305h314v305h83v-700h-83zM271 871h60l145 -123h-99l-77 65l-83 -65l-101 0z" />
<glyph unicode="&#293;" horiz-adv-x="600" d="M4 700h156v-262h5q31 35 72 54.5q41 19.5 102 19.5q48 0 83.5 -10q35.5 -10 58 -35q22.5 -25 33.5 -68.5q11 -43.5 11 -110.5v-288h-78v273q0 43 -5 75q-5 32 -19.5 53.5q-14.5 21.5 -39.5 32.5q-25 11 -64 11q-27 0 -53 -9.5q-26 -9.5 -47.5 -26q-21.5 -16.5 -37 -40q-15.5 -23.5 -21.5 -51.5l0 -318h-77v633h-79zM118 871h60l145 -123h-99l-77 65l-83 -65l-101 0z" />
<glyph unicode="&#294;" horiz-adv-x="600" d="M10 587h79v113h83v-113h256v113h83v-113h79v-64h-79v-523h-83v321h-256v-321h-83v523h-79zM428 395v128h-256l0 -128z" />
<glyph unicode="&#295;" horiz-adv-x="600" d="M3 632h80v68h77v-68h163v-60h-163v-134h5q31 35 72 54.5q41 19.5 102 19.5q48 0 83.5 -10q35.5 -10 58 -35q22.5 -25 33.5 -68.5q11 -43.5 11 -110.5v-288h-78v273q0 43 -5 75q-5 32 -19.5 53.5q-14.5 21.5 -39.5 32.5q-25 11 -64 11q-27 0 -53 -9.5q-26 -9.5 -47.5 -26q-21.5 -16.5 -37 -40q-15.5 -23.5 -21.5 -51.5l0 -318h-77v572l-80 0z" />
<glyph unicode="&#298;" horiz-adv-x="600" d="M60 700h480v-74h-199v-552h199v-74h-480v74h198v552h-198zM142 843h316v-62l-316 0z" />
<glyph unicode="&#299;" horiz-adv-x="600" d="M105 0v67h174v366h-174v67h254v-433h170v-67zM152 643h296v-62l-296 0z" />
<glyph unicode="&#302;" horiz-adv-x="600" d="M60 700h480v-74h-199v-552h199v-74h-75q-21 -13 -35 -30q-20 -25 -20 -57q0 -20 13 -35.5q13 -15.5 38 -15.5q19 0 40 10l11 -43q-15 -12 -40 -18q-25 -6 -46 -6q-45 0 -72 24q-27 24 -27 65q0 41 27 70q20 21 51 36l-345 0v74h198v552l-198 0z" />
<glyph unicode="&#303;" horiz-adv-x="600" d="M105 0v67h174v366h-174v67h254v-433h170v-67h-74q-21 -13 -35 -30q-20 -25 -20 -57q0 -20 13 -35.5q13 -15.5 38 -15.5q19 0 40 10l11 -43q-15 -12 -40 -18q-25 -6 -46 -6q-45 0 -72 24q-27 24 -27 65q0 41 27 70q20 21 51 36zM252 642q0 27 18 46.5q18 19.5 46 19.5q29 0 48.5 -19.5q19.5 -19.5 19.5 -46.5q0 -26 -19.5 -44q-19.5 -18 -48.5 -18q-28 0 -46 18t-18 44z" />
<glyph unicode="&#304;" horiz-adv-x="600" d="M60 700h480v-74h-199v-552h199v-74h-480v74h198v552h-198zM232 795q0 23 18 40q18 17 50 17q32 0 51 -17q19 -17 19 -40q0 -25 -19 -42q-19 -17 -51 -17q-32 0 -50 17t-18 42z" />
<glyph unicode="&#305;" horiz-adv-x="600" d="M105 0v67h174v366h-174v67h254v-433h170l0 -67z" />
<glyph unicode="&#308;" horiz-adv-x="600" d="M97 700h396v-452q0 -126 -60 -192q-60 -66 -173 -66q-29 0 -57 5q-28 5 -52 13.5q-24 8.5 -41.5 18.5q-17.5 10 -25.5 19l36 66q11 -7 24.5 -15q13.5 -8 30 -15.5q16.5 -7.5 37 -12.5q20.5 -5 46.5 -5q75 0 113.5 47q38.5 47 38.5 152v363h-313zM282 871h60l145 -123h-99l-77 65l-83 -65l-101 0z" />
<glyph unicode="&#309;" horiz-adv-x="600" d="M384 433h-242v67h322v-512q0 -101 -51.5 -150.5q-51.5 -49.5 -142.5 -49.5q-27 0 -52.5 7q-25.5 7 -47.5 16.5q-22 9.5 -38.5 19.5q-16.5 10 -24.5 16l33 65q27 -20 61.5 -35q34.5 -15 71.5 -15q60 0 85.5 37.5q25.5 37.5 25.5 103.5zM291 732h37l135 -182h-78l-81 109l-86 -109l-70 0z" />
<glyph unicode="&#310;" horiz-adv-x="600" d="M245 324h-77v-324h-83v700h83v-312h75l225 312h96l-247 -333l278 -367h-105zM232 -92q0 21 15.5 34q15.5 13 35.5 13q25 0 44.5 -17.5q19.5 -17.5 19.5 -57.5q0 -26 -9 -45.5q-9 -19.5 -21.5 -34q-12.5 -14.5 -26 -23q-13.5 -8.5 -23.5 -12.5l-28 32q20 11 32 28q12 17 12 41q-4 -1 -10 -1q-18 0 -29.5 12t-11.5 31z" />
<glyph unicode="&#311;" horiz-adv-x="600" d="M24 700h162v-414h55l197 214h94l-221 -237l182 -196h65v-67h-103l-214 226h-55v-226h-77v633h-85zM234 -92q0 21 15.5 34q15.5 13 35.5 13q25 0 44.5 -17.5q19.5 -17.5 19.5 -57.5q0 -26 -9 -45.5q-9 -19.5 -21.5 -34q-12.5 -14.5 -26 -23q-13.5 -8.5 -23.5 -12.5l-28 32q20 11 32 28q12 17 12 41q-4 -1 -10 -1q-18 0 -29.5 12t-11.5 31z" />
<glyph unicode="&#313;" horiz-adv-x="600" d="M90 700h83v-626h283v174h74v-248h-440zM275 870h114v-21l-163 -97l-69 0z" />
<glyph unicode="&#314;" horiz-adv-x="600" d="M119 700h166v-532q0 -61 20.5 -86q20.5 -25 60.5 -25q28 0 53.5 10q25.5 10 56.5 34l36 -55q-16 -14 -35 -25q-19 -11 -39 -18.5q-20 -7.5 -40 -11.5q-20 -4 -37 -4q-37 0 -66 9.5q-29 9.5 -48.5 30.5q-19.5 21 -29.5 55.5q-10 34.5 -10 85.5v465h-88zM336 870h114v-21l-163 -97l-69 0z" />
<glyph unicode="&#315;" horiz-adv-x="600" d="M90 700h83v-626h283v174h74v-248h-440zM236 -92q0 21 15.5 34q15.5 13 35.5 13q25 0 44.5 -17.5q19.5 -17.5 19.5 -57.5q0 -26 -9 -45.5q-9 -19.5 -21.5 -34q-12.5 -14.5 -26 -23q-13.5 -8.5 -23.5 -12.5l-28 32q20 11 32 28q12 17 12 41q-4 -1 -10 -1q-18 0 -29.5 12t-11.5 31z" />
<glyph unicode="&#316;" horiz-adv-x="600" d="M119 700h166v-532q0 -61 20.5 -86q20.5 -25 60.5 -25q28 0 53.5 10q25.5 10 56.5 34l36 -55q-16 -14 -35 -25q-19 -11 -39 -18.5q-20 -7.5 -40 -11.5q-20 -4 -37 -4q-37 0 -66 9.5q-29 9.5 -48.5 30.5q-19.5 21 -29.5 55.5q-10 34.5 -10 85.5v465h-88zM295 -92q0 21 15.5 34q15.5 13 35.5 13q25 0 44.5 -17.5q19.5 -17.5 19.5 -57.5q0 -26 -9 -45.5q-9 -19.5 -21.5 -34q-12.5 -14.5 -26 -23q-13.5 -8.5 -23.5 -12.5l-28 32q20 11 32 28q12 17 12 41q-4 -1 -10 -1q-18 0 -29.5 12t-11.5 31z" />
<glyph unicode="&#317;" horiz-adv-x="600" d="M90 700h83v-626h283v174h74v-248h-440zM473 700q-2 -29 -12 -59.5q-10 -30.5 -22.5 -56.5q-12.5 -26 -25.5 -46q-13 -20 -22 -29l-33 18q17 36 26 81.5q9 45.5 9 91.5z" />
<glyph unicode="&#318;" horiz-adv-x="600" d="M119 700h166v-532q0 -61 20.5 -86q20.5 -25 60.5 -25q28 0 53.5 10q25.5 10 56.5 34l36 -55q-16 -14 -35 -25q-19 -11 -39 -18.5q-20 -7.5 -40 -11.5q-20 -4 -37 -4q-37 0 -66 9.5q-29 9.5 -48.5 30.5q-19.5 21 -29.5 55.5q-10 34.5 -10 85.5v465h-88zM469 700q-2 -29 -12 -59.5q-10 -30.5 -22.5 -56.5q-12.5 -26 -25.5 -46q-13 -20 -22 -29l-33 18q17 36 26 81.5q9 45.5 9 91.5z" />
<glyph unicode="&#321;" horiz-adv-x="600" d="M18 287l72 56v357h83v-292l105 83v-80l-105 -81v-256h283v174h74v-248h-440v266l-72 -55z" />
<glyph unicode="&#322;" horiz-adv-x="600" d="M119 700h166v-308l147 117v-80l-147 -115v-146q0 -61 20.5 -86q20.5 -25 60.5 -25q28 0 53.5 10q25.5 10 56.5 34l36 -55q-16 -14 -35 -25q-19 -11 -39 -18.5q-20 -7.5 -40 -11.5q-20 -4 -37 -4q-37 0 -66 9.5q-29 9.5 -48.5 30.5q-19.5 21 -29.5 55.5q-10 34.5 -10 85.5v86l-99 -77v76l99 78v302l-88 0z" />
<glyph unicode="&#323;" horiz-adv-x="600" d="M196 438l-54 101h-4l10 -101v-438h-78v700h54l282 -436l52 -96h5l-11 96v436h78v-700h-54zM370 870h114v-21l-163 -97l-69 0z" />
<glyph unicode="&#324;" horiz-adv-x="600" d="M93 325q0 9 -0.5 23.5q-0.5 14.5 -1.5 30q-1 15.5 -2.5 30.5q-1.5 15 -3.5 26l-67 0v65h134l9 -81h5q10 17 26.5 33.5q16.5 16.5 38.5 30q22 13.5 49 21.5q27 8 57 8q46 0 81.5 -10q35.5 -10 59 -35.5q23.5 -25.5 35.5 -69q12 -43.5 12 -110.5v-287h-78v272q0 83 -27 125q-27 42 -98 42q-26 0 -50.5 -10.5q-24.5 -10.5 -44.5 -27.5q-20 -17 -35 -39.5q-15 -22.5 -22 -47.5l0 -314h-77zM312 720h109l-119 -149l-55 0z" />
<glyph unicode="&#325;" horiz-adv-x="600" d="M196 438l-54 101h-4l10 -101v-438h-78v700h54l282 -436l52 -96h5l-11 96v436h78v-700h-54zM242 -92q0 21 15.5 34q15.5 13 35.5 13q25 0 44.5 -17.5q19.5 -17.5 19.5 -57.5q0 -26 -9 -45.5q-9 -19.5 -21.5 -34q-12.5 -14.5 -26 -23q-13.5 -8.5 -23.5 -12.5l-28 32q20 11 32 28q12 17 12 41q-4 -1 -10 -1q-18 0 -29.5 12t-11.5 31z" />
<glyph unicode="&#326;" horiz-adv-x="600" d="M93 325q0 9 -0.5 23.5q-0.5 14.5 -1.5 30q-1 15.5 -2.5 30.5q-1.5 15 -3.5 26l-67 0v65h134l9 -81h5q10 17 26.5 33.5q16.5 16.5 38.5 30q22 13.5 49 21.5q27 8 57 8q46 0 81.5 -10q35.5 -10 59 -35.5q23.5 -25.5 35.5 -69q12 -43.5 12 -110.5v-287h-78v272q0 83 -27 125q-27 42 -98 42q-26 0 -50.5 -10.5q-24.5 -10.5 -44.5 -27.5q-20 -17 -35 -39.5q-15 -22.5 -22 -47.5l0 -314h-77zM252 -92q0 21 15.5 34q15.5 13 35.5 13q25 0 44.5 -17.5q19.5 -17.5 19.5 -57.5q0 -26 -9 -45.5q-9 -19.5 -21.5 -34q-12.5 -14.5 -26 -23q-13.5 -8.5 -23.5 -12.5l-28 32q20 11 32 28q12 17 12 41q-4 -1 -10 -1q-18 0 -29.5 12t-11.5 31z" />
<glyph unicode="&#327;" horiz-adv-x="600" d="M196 438l-54 101h-4l10 -101v-438h-78v700h54l282 -436l52 -96h5l-11 96v436h78v-700h-54zM327 746h-58l-149 124h104l77 -67l81 67l93 0z" />
<glyph unicode="&#328;" horiz-adv-x="600" d="M93 325q0 9 -0.5 23.5q-0.5 14.5 -1.5 30q-1 15.5 -2.5 30.5q-1.5 15 -3.5 26l-67 0v65h134l9 -81h5q10 17 26.5 33.5q16.5 16.5 38.5 30q22 13.5 49 21.5q27 8 57 8q46 0 81.5 -10q35.5 -10 59 -35.5q23.5 -25.5 35.5 -69q12 -43.5 12 -110.5v-287h-78v272q0 83 -27 125q-27 42 -98 42q-26 0 -50.5 -10.5q-24.5 -10.5 -44.5 -27.5q-20 -17 -35 -39.5q-15 -22.5 -22 -47.5l0 -314h-77zM325 550h-37l-135 182h78l81 -109l86 109l70 0z" />
<glyph unicode="&#332;" horiz-adv-x="600" d="M48 350q0 174 61.5 268q61.5 94 189.5 94q70 0 118.5 -26q48.5 -26 78.5 -73.5q30 -47.5 43 -114q13 -66.5 13 -148.5q0 -174 -61.5 -268q-61.5 -94 -191.5 -94q-69 0 -117 26q-48 26 -78 73.5q-30 47.5 -43 114q-13 66.5 -13 148.5zt0 0zM136 350q0 -58 7.5 -110q7.5 -52 26.5 -91.5q19 -39.5 50 -63q31 -23.5 79 -23.5q86 0 125.5 70q39.5 70 39.5 218q0 57 -7.5 109.5q-7.5 52.5 -26.5 92q-19 39.5 -51 63q-32 23.5 -80 23.5q-85 0 -124 -70.5q-39 -70.5 -39 -217.5zt0 0zM148 843h316v-62l-316 0z" />
<glyph unicode="&#333;" horiz-adv-x="600" d="M57 250q0 121 63 191.5q63 70.5 180 70.5q63 0 108.5 -20.5q45.5 -20.5 75.5 -55.5q30 -35 44.5 -83q14.5 -48 14.5 -103q0 -60 -16 -108.5q-16 -48.5 -47 -82.5q-31 -34 -76.5 -52.5q-45.5 -18.5 -103.5 -18.5q-62 0 -108 20.5q-46 20.5 -76 55.5q-30 35 -44.5 83q-14.5 48 -14.5 103zt0 0zM140 250q0 -35 8.5 -70q8.5 -35 27.5 -63q19 -28 49.5 -45q30.5 -17 74.5 -17q80 0 120.5 49.5q40.5 49.5 40.5 145.5q0 36 -8.5 70.5q-8.5 34.5 -28 62.5q-19.5 28 -50 45q-30.5 17 -74.5 17q-80 0 -120 -49q-40 -49 -40 -146zt0 0zM152 643h296v-62l-296 0z" />
</font>
</defs>
</svg>
