<?xml version="1.0" standalone="no"?> <!DOCTYPE svg PUBLIC "-//W3C//DTD SVG 1.0//EN" "http://www.w3.org/TR/2001/REC-SVG-20010904/DTD/svg10.dtd" > <svg xmlns="http://www.w3.org/2000/svg" width="100%" height="100%">
<defs >
<font id="MathJax_Fraktur-Bold" horiz-adv-x="482" ><font-face
    font-family="MathJax_Fraktur"
    units-per-em="1000"
    panose-1="0 0 8 0 0 0 0 0 0 0"
    ascent="1007"
    descent="-423"
    alphabetic="0" />
<missing-glyph horiz-adv-x="250" d="M50 0V533H200V0H50ZM100 50H150V483H100V50Z" />
<glyph unicode=" " glyph-name="space" horiz-adv-x="250" />
<glyph unicode="!" glyph-name="exclam" horiz-adv-x="349" d="M121 621Q121 657 132 673T177 689Q223 689 223 644V635Q223 604 222 595Q221 590 210 490T187 292T175 190V186L166 185L156 184Q156 185 139 393T121 621ZM107 47Q107 70 127 87T174 104Q201 104
221 89T241 48Q241 24 222 6T174 -12Q147 -12 127 6T107 47Z" />
<glyph unicode="&quot;" glyph-name="quotedbl" horiz-adv-x="254" d="M53 695Q74 695 90 679V622L65 433L52 432H39L27 516Q10 626 10 655Q10 680 26 688Q33 693 39 693Q49 695 53 695ZM151 668Q151 691 191 691Q217 691 224 685T231 661V652Q230 634 219 531L207
433L195 432Q183 432 183 433L168 541Q151 664 151 668Z" />
<glyph unicode="&amp;" glyph-name="ampersand" horiz-adv-x="871" d="M290 -14Q186 -14 115 41T44 185Q44 222 54 249T88 300T131 336T189 371Q216 387 216 388Q185 459 185 510Q185 563 206 601T263 659T334 687T405 696Q476 696 503 668T531 603Q531 565 513
536T450 476Q423 459 370 432L334 413L354 384Q474 212 560 139L563 137Q611 185 611 250Q611 295 577 329Q549 356 496 357Q439 357 433 354Q432 354 432 379V403L437 402Q443 402 479 401T557 400Q653 400 735 403T831 407H836Q833 352 833 351L821 352Q809 352
792 352T756 352T720 353T696 354Q680 354 680 353L681 346Q682 339 683 327T685 306Q685 283 681 260T669 218T653 182T635 152T619 129T606 114L602 109Q604 107 618 99T659 81T707 71Q742 71 767 99T804 155L815 183Q815 184 821 183T833 180T839 177Q837 169
834 156T816 110T782 52T727 5T648 -16Q569 -16 499 35H498Q496 35 466 23T387 -1T290 -14ZM418 592Q418 617 398 639T352 661T302 642T278 574Q278 545 288 514T306 465T319 444Q342 456 353 463T382 488T409 529T418 584V592ZM159 239Q159 158 222 98T364 38Q386
38 447 57L469 63L434 98Q349 185 286 275Q258 316 238 345Q233 353 232 353Q159 316 159 239Z" />
<glyph unicode="&apos;" glyph-name="quotesingle" horiz-adv-x="250" d="M80 645T80 662T93 687T123 695Q158 695 158 659Q158 649 157 643L123 437Q123 436 114 436H104Q104 442 92 538Q80 645 80 662Z" />
<glyph unicode="(" glyph-name="parenleft" horiz-adv-x="459" d="M347 719Q325 708 311 698T272 656T233 580T207 455T195 267Q195 30 247 -79Q261 -110 291 -136Q320 -163 347 -172V-179Q347 -186 344 -186Q338 -186 328 -184T287 -165T230 -123Q134 -25 134
271Q134 417 158 514T226 662T335 734L346 737Q347 737 347 728V719Z" />
<glyph unicode=")" glyph-name="parenright" horiz-adv-x="459" d="M264 262Q264 366 253 446T226 572T186 649T145 692T105 714V725Q105 735 107 735Q108 734 121 731T154 719T196 692T242 641T284 560T314 437T326 268Q326 112 299 7Q279 -78 239 -124T116 -185L105
-187V-179L106 -171L109 -169Q130 -161 138 -158T165 -146T190 -127T210 -101T229 -64T243 -12T255 58T261 148T264 262Z" />
<glyph unicode="*" glyph-name="asterisk" horiz-adv-x="328" d="M40 516L62 529Q85 542 110 556T140 574L126 582Q112 591 104 595T80 607T40 629Q53 642 57 645L65 652L78 642Q106 620 132 603L152 589V595Q152 630 149 681V692H179V689Q178 681 174 638T171
593Q173 593 240 639L258 652Q260 652 267 643L276 633L260 625Q190 587 175 576Q173 575 180 570Q183 569 186 567Q213 549 256 527L277 515L256 495Q246 501 228 515T194 539T170 554V543Q170 486 178 449H148V456Q152 492 152 550L151 562Q150 562 102 528L53
495Q40 514 40 516Z" />
<glyph unicode="+" glyph-name="plus" horiz-adv-x="893" d="M422 584L471 598Q472 598 472 440V282H837Q833 273 829 263L821 244L647 243H472V-63L448 -73L423 -82Q422 -82 422 81V243H239Q56 243 56 244Q60 253 65 263L73 282H422V584Z" />
<glyph unicode="," glyph-name="comma" horiz-adv-x="328" d="M118 61Q118 80 135 93T169 107Q190 107 221 65T253 -23Q253 -39 251 -49T237 -80T198 -133Q148 -191 144 -191Q142 -191 137 -182T132 -172Q143 -161 160 -131T183 -83Q185 -77 185 -62Q185 -54 184
-48T182 -38T177 -28T171 -19T162 -8T150 6Q130 28 124 38T118 61Z" />
<glyph unicode="-" glyph-name="hyphen" horiz-adv-x="893" d="M54 236L73 275H453Q833 275 833 274Q830 265 825 255L818 236H54Z" />
<glyph unicode="." glyph-name="period" horiz-adv-x="328" d="M103 23T103 44T120 83T170 102Q200 102 218 84T237 44Q237 20 216 3T168 -15Q138 -15 121 4Z" />
<glyph unicode="/" glyph-name="slash" horiz-adv-x="593" d="M272 270Q503 721 506 721L509 720Q512 720 518 719T529 717L550 713L91 -181L66 -182Q41 -182 41 -181L272 270Z" />
<glyph unicode="0" glyph-name="zero" horiz-adv-x="593" d="M238 -12Q162 -12 102 42T42 185Q42 303 130 393Q163 425 208 452T284 490L313 501Q323 499 339 495T395 472T464 426Q533 357 533 273Q533 201 483 133T364 27T238 -12ZM428 208Q428 255 402 297T342
365T280 404T241 419Q214 419 178 374T142 259Q142 206 168 164T225 99Q259 74 310 74Q326 74 337 75T366 82T396 103T417 141Q428 171 428 208Z" />
<glyph unicode="1" glyph-name="one" horiz-adv-x="593" d="M95 481Q102 481 217 485T383 489Q384 489 384 485Q367 397 367 165Q367 58 369 54Q374 46 380 44T410 42H466H546V40Q547 38 547 19L548 0H54V23Q54 29 54 34T54 44L55 47Q79 47 134 46T202 45Q226
45 234 52Q240 57 241 64T245 105Q254 236 254 320V347Q254 369 252 382T240 409T211 431L97 450L96 465Q95 480 95 481Z" />
<glyph unicode="2" glyph-name="two" horiz-adv-x="593" d="M307 335Q307 374 283 397T224 421Q187 421 112 387Q105 384 100 382T95 381Q90 387 86 394L77 407L86 413Q219 491 298 491Q370 491 399 460T428 388Q428 373 424 358T409 326T391 297T363 264T335
235T301 202T269 171L199 104Q194 99 205 97Q209 96 214 96Q527 105 544 105Q553 107 563 102Q563 100 557 79T545 34T537 2H377Q338 2 247 2T130 4H44V26L104 77Q185 145 212 172T267 235Q307 291 307 335Z" />
<glyph unicode="3" glyph-name="three" horiz-adv-x="593" d="M102 402L108 408Q115 413 122 418T141 431T165 447T194 461T227 474T263 483T302 487H307Q413 487 452 420Q465 400 465 371Q465 334 445 303T396 253T347 225T317 213Q314 213 314 211Q316 209 316
205Q317 201 320 201Q337 201 359 198T411 184T465 156T506 109T523 39Q523 -62 436 -127T229 -193Q179 -193 130 -178T56 -150T31 -133Q31 -132 41 -122L52 -112L63 -117Q128 -148 201 -148Q282 -148 331 -104T381 20Q381 71 363 100T304 145Q243 166 149 166H137V204H146Q179
204 211 210T275 229T326 268T346 329Q346 372 314 401Q292 423 245 423Q188 423 125 383L102 402Z" />
<glyph unicode="4" glyph-name="four" horiz-adv-x="593" d="M346 -196Q344 -196 335 -187L336 -148Q337 -127 337 -55V0H13V29L187 253Q362 477 362 479L368 480Q375 481 387 483T411 487T434 491T452 494L459 495Q460 495 470 482V453Q470 389 466 230T461 62Q461
61 513 61T565 60L555 29L546 -1H461V-15Q461 -48 463 -100T465 -154L457 -157Q449 -160 434 -165T405 -175Q347 -196 346 -196ZM339 265V341Q339 362 335 362Q327 362 219 217T110 65V61H337V117Q338 133 338 187T339 265Z" />
<glyph unicode="5" glyph-name="five" horiz-adv-x="593" d="M232 192Q176 192 122 152L95 162V481H306Q516 481 516 479Q514 477 501 433L486 389L319 388H152V386V382Q152 379 152 374T151 365Q147 329 146 260V218H149Q211 242 284 242Q353 242 402 224T474
176T508 117T518 55Q518 -62 432 -126T220 -190Q184 -190 151 -185T96 -172T57 -157T31 -145T20 -139T19 -138Q19 -136 27 -125L35 -112L51 -120Q114 -152 174 -152Q257 -152 314 -100T371 46Q371 107 340 149T232 192Z" />
<glyph unicode="6" glyph-name="six" horiz-adv-x="593" d="M48 251Q48 330 76 403T150 529T253 623T370 683T485 704Q494 704 520 701T547 695Q547 692 542 659T536 625Q531 624 524 624L512 623L502 628Q489 635 468 640Q452 645 423 645Q403 645 379 640T320
617T255 568T201 481T171 348Q170 341 170 330V325L183 333Q275 385 357 385H361Q464 385 514 312Q546 267 546 217Q546 127 457 58T262 -12Q225 -12 189 3T120 49T68 132T48 251ZM448 165Q448 228 406 274T289 320Q264 320 236 312T190 295T173 284Q173 266 176
241T189 178T214 112T259 61T326 39Q372 39 410 75T448 165Z" />
<glyph unicode="7" glyph-name="seven" horiz-adv-x="593" d="M57 376L87 479H591V455L584 446Q544 399 491 328T349 117T185 -169L171 -196H159Q152 -197 102 -197Q58 -197 58 -196T56 -185L54 -175L299 158L443 359Q446 367 444 370H254L71 365L57 376Z" />
<glyph unicode="8" glyph-name="eight" horiz-adv-x="593" d="M88 533Q88 573 120 610T194 668T268 701T307 714Q324 714 352 711T422 695T486 659Q518 625 518 585Q518 536 479 489T384 406L371 398L385 390Q387 389 400 382T420 370T442 356T466 339T489 319T510
295T526 269T538 238T542 204Q542 125 463 60T256 -5Q145 -5 92 52Q45 97 45 165Q45 204 64 237T109 290T163 324T209 345T228 353L214 364Q199 375 179 392T138 431T103 480T88 533ZM405 557Q405 568 402 581T387 612T350 644T286 663Q283 663 280 663T274 664H272Q256
664 228 636T199 572Q199 547 238 507Q268 475 320 437L334 427Q345 433 358 443T388 483T405 549V557ZM304 42Q366 42 398 76T431 155Q431 178 420 200T396 238T359 270T321 296T283 318L263 328Q262 328 230 312Q190 290 175 266T160 198Q160 132 202 87T304
42Z" />
<glyph unicode="9" glyph-name="nine" horiz-adv-x="593" d="M549 220Q549 23 429 -82T105 -195H84V-189Q84 -179 85 -174V-164H93Q184 -156 238 -132T334 -56Q361 -23 376 16T394 78L397 100L363 88Q329 75 291 61T244 45Q237 44 218 44Q154 44 94 97Q29 152
29 240Q29 350 108 404Q145 429 257 480Q270 487 279 487Q403 487 470 421Q549 347 549 220ZM408 217Q408 276 390 320T346 385T297 415T259 424Q218 424 185 393T151 286Q151 216 213 154Q252 115 321 115Q368 115 388 134T408 217Z" />
<glyph unicode=":" glyph-name="colon" horiz-adv-x="255" d="M57 398Q57 419 72 438T117 457Q154 457 174 439T194 398Q194 379 176 361T119 343Q85 343 71 362T57 398ZM62 19T62 43T77 85T115 104Q153 104 175 86T197 42Q197 14 171 1T119 -12Q96 -12 79 3Z" />
<glyph unicode=";" glyph-name="semicolon" horiz-adv-x="255" d="M56 399Q56 424 73 440T104 456Q114 458 120 458Q149 458 170 440T192 399Q192 380 174 362T120 344Q85 344 71 362T56 399ZM78 53Q78 67 84 76T90 86Q90 88 98 92T116 98Q117 98 121 98T128 99Q152
97 181 58T211 -24Q211 -77 128 -165Q124 -170 121 -173T116 -178T113 -181T110 -185T106 -190L97 -184L88 -177L95 -168Q143 -104 143 -65Q143 -51 137 -40T113 -7T81 35Q78 41 78 53Z" />
<glyph unicode="=" glyph-name="equal" horiz-adv-x="582" d="M559 342L549 304H22L27 319Q29 328 30 333T33 343H296Q559 343 559 342ZM559 206L549 168H22L27 183Q29 192 30 197T33 207H296Q559 207 559 206Z" />
<glyph unicode="?" glyph-name="question" horiz-adv-x="428" d="M121 590Q121 575 128 562T144 542T152 533T115 512L78 491Q55 499 47 516Q40 530 40 553Q40 601 77 632Q155 697 257 697H268Q316 697 355 679Q422 646 422 576Q422 518 388 476Q383 468 376 461T358
444T340 428T316 410T290 390L230 344Q180 307 180 275Q180 261 187 248T202 227L209 219Q209 215 176 193L142 170Q114 177 100 194T84 226V239Q84 259 93 276T113 302T150 331T192 362Q203 370 219 382T247 403T267 422Q312 471 312 546Q312 593 282 623T207
653Q170 653 146 636T121 590ZM95 23T95 49T117 94T173 113Q204 113 223 96T242 54Q242 27 221 7T167 -14Q136 -14 116 4Z" />
<glyph unicode="A" glyph-name="A" horiz-adv-x="847" d="M821 97Q822 97 824 88T827 77L793 53Q676 -25 670 -28Q669 -29 656 -27L583 123Q583 124 467 46L352 -31L341 -20Q305 18 264 47T192 77Q161 77 60 32L49 40Q37 47 38 49Q39 49 93 83T212 160T297 219Q411
312 411 452Q411 519 360 571T233 624Q180 624 157 601T133 548Q133 524 160 496T214 441T241 393Q241 356 199 321T100 256L86 249L77 256Q68 263 67 263L84 274Q101 286 118 304T135 339T109 384T56 446T29 504Q29 566 118 624Q207 686 309 686Q349 686 360 685Q405
678 439 661T491 625T520 583T534 543T537 511Q537 436 491 344L478 318L455 299Q420 272 308 179L284 160L294 158Q348 154 426 89L437 79Q513 110 579 153V175Q579 183 579 227T580 330T581 446T582 542L583 582L664 630Q681 640 703 653T734 673L744 679Q750
678 756 676L767 674L716 623V585Q716 568 712 463T708 289V250Q708 237 709 218T710 195L711 180L739 130Q768 79 771 79Q775 79 796 88T821 97Z" />
<glyph unicode="B" glyph-name="B" horiz-adv-x="1044" d="M160 345Q160 357 144 376T109 413T73 458T57 509Q57 544 95 584Q142 631 205 657T331 684Q382 684 427 658T500 585L505 577L521 588Q537 599 562 614T616 646T679 673T738 684Q790 684 807 666T840
587Q850 552 863 532T888 508Q894 505 906 505Q917 505 930 507T953 512T963 514L964 504Q965 495 965 494T914 467T808 413T745 384H751Q782 380 802 377T854 362T904 334T937 287T951 217Q951 178 937 143T908 91Q903 86 820 34L734 -21L718 -24Q679 -31 639
-31Q561 -31 451 4T271 40Q190 40 119 -2L99 -13L91 1L84 15L86 16Q88 18 132 42T233 100T315 152Q377 199 386 233Q388 240 393 297T399 363Q399 487 353 551Q337 573 306 597T238 622Q201 622 179 602T157 557T214 476T272 396Q272 371 229 334T143 272T96 246Q95
246 85 252T74 259T95 273T138 306T160 345ZM529 443Q529 409 528 385T526 353L525 346Q526 346 649 390T773 435Q749 451 742 464T727 518Q727 519 725 532T721 548T717 562T712 577T706 589T698 601T688 608T675 614T658 616Q626 616 576 582T525 528Q525 527
526 518T528 489T529 443ZM772 57Q774 57 778 58T792 64T808 77T821 103T827 144Q827 222 784 266T660 322Q652 323 611 323H596Q577 323 535 316L523 314Q520 291 505 255L500 241L356 138L366 137Q443 131 518 110T650 72T748 54Q763 54 772 57Z" />
<glyph unicode="C" glyph-name="C" horiz-adv-x="723" d="M460 -32Q373 -32 305 -11T193 45T122 124T83 214T72 303Q72 395 114 476L119 486L313 592L338 568L359 580Q418 615 479 638T568 668T606 675Q607 675 608 676H610Q612 676 615 661T630 621T660 578Q673
568 694 568Q717 568 721 570H726Q724 565 722 559L717 549L706 545Q608 513 583 513Q568 517 559 522T533 546T493 603L490 609Q452 599 452 558Q452 537 469 481T486 393Q486 353 474 331T422 285T296 231L272 223L262 230L253 237Q279 246 314 274T351 338Q351
376 334 442T316 532Q316 546 319 552Q319 554 316 554Q304 554 288 547T250 523T214 466T199 371Q199 218 299 133T541 47Q571 47 585 51T652 81L712 108Q716 104 716 81L706 74Q695 68 673 54T633 29L550 -22L540 -24Q492 -32 460 -32Z" />
<glyph unicode="D" glyph-name="D" horiz-adv-x="982" d="M380 596Q307 596 250 582T158 546T100 493T67 433T56 373V361Q55 361 43 366L31 372V384Q31 455 69 523T173 627Q213 650 284 666T444 683H452Q629 683 735 629Q896 548 896 369Q896 263 839 163Q835
155 818 140Q746 82 662 27T563 -29Q525 -29 386 16T183 62Q147 62 127 52T63 1L48 -14L40 -4L31 5Q83 73 172 149L186 161H199Q291 161 329 181Q357 199 357 231Q357 258 301 316T245 396Q245 423 282 458T349 512T403 543L413 548L425 545L438 541Q373 491 373
462Q373 446 399 415T453 349T480 288Q480 251 433 212Q394 180 348 156L334 148L353 145Q408 134 513 105T654 76Q711 76 745 132T780 277Q780 434 676 517Q637 549 562 572T380 596Z" />
<glyph unicode="E" glyph-name="E" horiz-adv-x="783" d="M527 55Q574 55 619 69T691 97L717 111V85L562 -18Q520 -29 443 -29Q379 -29 325 -15T235 21T180 61T146 98Q74 186 74 307Q74 395 109 472Q113 482 123 489T190 533Q251 568 295 591L308 598L350 580L361
586Q403 612 464 636T564 673T609 686Q610 686 610 685Q612 683 616 670T627 636T646 601Q666 572 686 572H692Q713 572 726 576H728L725 565L723 554L692 544Q660 535 629 526T595 516Q585 514 574 519Q563 527 543 552T507 597T490 617Q467 604 456 579V564Q456
535 473 471T492 393L494 381L613 460L622 446Q630 433 650 411T696 371L703 365L614 312H596L580 322Q568 329 553 340T528 355T510 360Q496 358 491 354T484 345T471 326T435 297Q408 278 370 261T307 235T277 227Q273 227 266 234L256 240L267 245Q280 251 294
258T330 288T353 336Q353 373 335 444T316 530V537Q316 549 322 567Q270 554 233 499T196 370Q196 253 287 157Q392 55 527 55Z" />
<glyph unicode="F" glyph-name="F" horiz-adv-x="722" d="M424 522Q265 596 208 596Q193 596 180 593T150 579T116 542T89 474Q86 465 86 463L59 481L63 494Q87 578 137 627Q191 684 285 684Q334 684 406 658T538 607T621 581Q644 581 706 629L721 640Q722 640
725 630L727 620Q701 592 654 548T582 486L569 487Q533 490 485 504L468 508Q449 503 429 495T387 466T365 422Q365 373 439 299L453 310Q473 325 528 370L588 418Q614 398 642 368T668 331Q667 331 628 296L590 262L582 274Q557 311 526 311Q511 311 487 297T462
278Q462 277 492 244T551 166T581 88Q581 54 570 25T536 -27T505 -56T478 -76Q376 -146 274 -146H270Q199 -146 162 -118T124 -15Q124 12 128 30T132 96V107Q132 144 117 157Q102 169 85 169Q74 169 59 165T32 156T20 151Q20 152 19 158T17 167Q17 168 17 168T17
169T19 170T22 172T27 175T35 179Q131 230 195 230Q231 230 259 202Q270 190 270 171Q269 150 253 87T236 -16Q236 -67 261 -87T322 -107Q380 -107 428 -68Q467 -35 467 30Q467 60 447 91T383 171T316 251Q290 286 278 308T263 339T261 359Q261 384 284 418Q322
469 424 522Z" />
<glyph unicode="G" glyph-name="G" horiz-adv-x="927" d="M742 611Q784 611 812 631V611Q807 607 783 591T718 544T629 476L606 458Q608 458 628 457T667 453T713 443T762 423T804 388T836 335Q844 313 844 289Q844 231 814 182T746 103Q720 82 655 48T546 -18L520
-21Q456 -29 432 -29Q313 -29 223 33Q204 45 183 65T135 119T91 207T74 320Q74 428 109 480Q116 491 127 497T215 546L308 595L343 583L355 591Q387 613 433 636T488 660H489L491 659Q493 658 495 657T500 655L509 650L500 645Q479 635 460 612T441 552Q441 535
447 498T459 433T466 405L625 513L643 526Q620 530 585 546T535 586Q535 587 532 592T527 602T525 610Q525 613 577 649L630 687Q632 687 638 675T653 649T686 623T742 611ZM349 313Q349 328 327 413T305 510V516Q305 531 308 542T314 559T317 566T315 567Q297
567 270 548Q233 524 212 490T191 392Q191 337 206 288T244 207T284 156T316 128Q410 51 535 51Q632 51 675 102T718 217Q718 269 690 314T599 375Q574 381 535 381Q501 381 477 377L466 376Q469 364 469 349Q469 314 457 295T408 258Q366 236 308 219L288 213L279
220L270 227Q284 232 294 236T309 243T320 252T326 260T331 270T336 281Q349 310 349 313Z" />
<glyph unicode="H" glyph-name="H" horiz-adv-x="851" d="M288 139Q288 172 255 224T189 335T156 442Q156 495 242 579Q289 625 361 668Q364 671 368 673T376 678T380 681L384 683L392 676Q401 670 414 661T443 642T477 626T509 619Q543 619 618 668Q625 672 628
674T631 675Q632 673 633 663T633 651L564 595Q556 589 545 580T528 566T516 556T505 548T497 543T488 539T481 537T472 535T463 534T451 534H442Q385 534 304 581L291 589Q290 588 285 583T277 575T269 566T262 555T257 543T255 529V522Q255 507 260 487T276 446T293
409T311 376L321 359Q321 358 322 358T324 359T327 361T333 366Q386 409 481 460L503 472L543 471Q586 471 599 470Q692 459 714 430Q725 416 738 360T752 245Q752 184 742 127T725 51T703 -8Q700 -13 619 -64T518 -123Q508 -126 493 -126Q438 -126 398 -86L427
-52Q456 -17 457 -17Q460 -17 465 -16H473Q474 -21 481 -32T504 -56T539 -69Q572 -69 599 -34Q625 4 625 158Q625 264 609 311T532 378Q508 386 484 386Q455 386 419 372T360 345T337 330L346 313Q375 263 386 227Q389 215 389 202Q389 192 388 184T384 168T376
152T365 138T350 121T331 103T307 81T278 54L194 -24Q130 30 99 30Q85 30 64 20T31 1T16 -10Q15 -11 13 -7Q12 -6 11 -3Q8 4 6 8L32 35Q88 88 117 107T169 126Q177 126 182 125Q218 118 252 84L263 73Q288 113 288 139Z" />
<glyph unicode="I" glyph-name="I" horiz-adv-x="655" d="M500 615Q523 615 550 628T595 655T614 668L623 654L607 642Q512 569 440 534L427 527L413 529Q384 535 340 547T265 565T209 572Q173 572 145 556T101 522T60 465Q58 460 54 460T41 468L32 477L37 487Q96
599 139 640Q187 681 247 681Q275 681 283 680Q313 674 398 645T500 615ZM418 170Q418 186 410 260T401 382Q403 418 403 424L405 433L415 444Q482 515 571 571L582 578Q591 573 607 568L597 560Q522 504 522 450Q522 427 533 357T545 241V228Q545 190 536 159T508
106T478 73T446 48Q343 -25 238 -25Q179 -25 118 15L107 22L79 5Q51 -12 51 -12L38 2L55 18Q106 67 175 122L192 136Q202 130 206 123Q223 91 252 61Q263 50 266 48T278 39T297 32T320 30Q357 30 389 68Q415 102 418 170Z" />
<glyph unicode="J" glyph-name="J" horiz-adv-x="652" d="M65 510Q68 517 74 528T101 569T144 620T202 661T274 680Q308 680 389 628T503 576Q530 576 596 600Q615 607 616 607Q616 602 615 596V585Q605 581 576 568T531 548T485 531T418 509L400 503L358 522Q347
527 327 537T299 550T277 560T257 568T239 573T220 577T201 578H196Q181 578 169 575T135 554T88 502L83 496Q82 496 74 502T65 510ZM424 4Q424 50 395 151T365 313V320Q365 352 369 361T405 403Q431 432 465 462T521 508T547 525L549 524Q551 524 554 523T560
521L571 517L552 498Q515 461 499 430Q485 399 485 366Q485 326 512 231T539 84Q539 -14 460 -77T273 -141Q248 -141 234 -140T198 -131T160 -106T134 -59Q128 -40 124 -16T117 22T108 49T91 69T59 75T15 65L1 59Q-8 76 -7 77Q4 85 22 97T88 129T170 149Q218 149
234 125Q242 112 242 43V21Q242 -17 248 -41T274 -85T322 -105H325H330Q363 -105 396 -75Q424 -47 424 4Z" />
<glyph unicode="K" glyph-name="K" horiz-adv-x="789" d="M234 109Q234 144 194 245T153 404Q153 445 180 490Q232 572 325 626T517 681H524Q612 681 661 658Q683 647 699 632T717 604Q717 600 708 545L699 490L690 489Q681 488 679 488Q675 488 669 504T640 546T577
592Q520 620 446 620Q415 620 386 614T327 594T280 553T262 487Q262 468 265 447T271 413T279 384T285 362L295 371Q320 396 352 421T439 474T538 502Q577 502 596 484T627 428Q642 386 651 373T677 360H682Q698 360 727 369L724 357Q724 354 724 351T722 346V344Q559
289 539 283Q582 272 589 271L615 265L637 189Q662 109 663 108Q668 97 682 84Q698 68 722 68H730H738Q762 68 799 91L803 80L806 70Q795 59 770 40T703 -3T631 -26Q598 -26 578 -8Q548 24 536 92Q524 154 509 183T477 218T428 224Q409 224 385 220T346 212L331
207Q330 205 330 201T331 189T332 178Q332 158 325 116L305 96Q269 60 240 38Q171 -21 123 -21Q72 -21 33 18L20 32L62 74Q96 107 102 112T116 118Q120 118 122 113T131 95T150 69Q171 48 190 48Q198 48 206 51T224 69T234 109ZM519 367Q497 432 450 432Q379 432
313 333L300 314L304 299Q306 294 309 280T315 260L321 235L542 313Q530 325 519 367Z" />
<glyph unicode="L" glyph-name="L" horiz-adv-x="786" d="M277 226Q277 248 253 286T203 369T178 449Q178 490 212 533T284 607Q380 683 532 683Q610 683 639 660T668 583Q668 568 666 546T663 509Q663 478 683 460Q691 452 719 452L738 450Q732 437 729 437Q728
437 652 416T573 394Q554 394 541 409T527 444Q527 449 532 487T538 542Q536 584 501 606T418 628Q389 628 364 620T317 587T295 523Q295 478 333 401T372 276Q372 269 371 267Q371 264 318 206L264 149Q284 141 317 130T433 101T577 82Q619 82 652 95T701 127T728
164T742 196L744 209Q744 210 749 208T759 203T764 199T760 185T751 154T744 129Q714 42 680 13Q628 -28 566 -28Q490 -28 403 -5T249 42T153 66T106 53T70 15T47 -16Q46 -17 30 -5L39 13Q85 100 138 148L147 156L161 157Q218 165 246 179T277 226Z" />
<glyph unicode="M" glyph-name="M" horiz-adv-x="1239" d="M134 338Q134 357 81 417T27 504Q27 516 34 530Q55 568 110 615Q190 683 305 683H314Q445 683 495 580L501 569L512 577Q608 646 681 646Q759 646 801 585L808 576L816 583Q860 619 921 650T1041 682Q1063
682 1077 675T1096 660T1112 631T1132 596Q1160 555 1188 555Q1204 555 1228 564Q1230 565 1231 562Q1231 560 1232 554V547L1215 538Q1179 521 1114 475Q1112 474 1106 470T1099 464T1093 459T1088 452T1085 441T1082 425T1081 404T1079 376T1079 339Q1079 282
1084 236T1098 160T1117 112T1138 85T1159 77Q1166 77 1180 81T1207 90L1219 94Q1220 94 1221 86T1222 76L1045 -32Q1044 -32 1004 15L964 64V167Q965 334 970 372V378L994 402Q1032 440 1057 460Q1061 463 1066 467Q1070 469 1070 470T1068 471T1060 474T1050
481Q1040 488 1021 531T996 583Q979 609 947 609Q922 609 887 592T820 537L821 524Q825 484 825 448Q825 268 768 155L759 137L589 -28L579 -20Q533 17 507 17Q475 17 449 -7L436 -18L424 2L441 20Q446 25 456 36T471 52T484 65T497 79T509 90T522 99T534 106T548
112T561 115T576 117Q602 117 639 86Q648 81 648 81Q650 82 657 94T668 112Q711 202 711 373Q711 484 677 533T600 583Q592 583 583 581T569 577T554 568T542 560T528 549T516 539L519 523Q527 485 527 461Q527 444 522 407Q506 266 447 150L437 130L217 -25L208
-15Q165 28 126 28Q89 28 62 1Q47 -14 43 -14Q42 -14 36 -8L28 0L44 17Q96 73 120 92T166 117Q182 123 204 123Q239 123 284 78L295 67Q307 72 337 102Q400 178 400 346Q400 508 325 571Q270 618 208 618Q180 618 168 614T140 594Q124 578 124 564Q124 540 182
480T240 396Q240 359 197 321Q154 285 94 252L80 245L76 248L67 257L61 262L71 268Q82 275 94 284T120 309T134 338Z" />
<glyph unicode="N" glyph-name="N" horiz-adv-x="983" d="M522 492Q521 492 517 502T512 513Q542 444 542 333Q542 226 503 137L498 125L396 53Q308 -8 292 -17T260 -27Q226 -27 191 -9T136 29L145 39Q162 56 192 89L230 129L235 128H241Q276 57 332 57Q358 57
391 80Q403 89 409 100T422 143T428 227Q428 329 406 408T347 530T272 594T196 615Q152 615 135 596T118 558Q118 535 146 502T203 438T232 385Q232 357 195 322T122 265T83 243Q82 242 72 249T61 258L66 262Q72 265 82 273T103 292Q125 314 125 333Q125 351 101
376T51 432T26 492Q26 549 108 614T290 679Q326 679 335 678Q353 675 370 670T400 658T425 642T445 625T463 606T477 588T487 571T495 556T500 543L504 535L523 553Q553 581 569 595T619 632T686 667T757 678Q778 678 793 675T819 664T833 651T844 633T852 617Q884
548 910 548H916Q938 548 962 556L967 542Q967 540 947 531Q909 509 883 492T847 467T838 458Q825 419 825 328Q825 234 833 191T858 121Q875 94 892 77Q898 71 907 71Q912 71 928 76T957 87T971 91L972 88Q972 84 972 81L973 73L957 63Q891 21 806 -23L794 -30L783
-14Q766 13 728 60L713 79V372L724 384Q743 406 765 427T800 460L813 471Q809 472 806 472Q783 479 766 503T741 551T715 594T672 614Q644 614 622 595Q597 576 572 550T534 508L522 492Z" />
<glyph unicode="O" glyph-name="O" horiz-adv-x="976" d="M254 595Q269 583 269 581L262 577Q256 573 247 566T228 549T212 527T205 502Q205 480 266 386T328 277Q328 234 239 150L221 134L231 133Q264 131 376 99T516 62Q567 50 604 50Q614 50 626 52Q643 57
662 71T703 115T739 198T753 323Q753 454 692 517Q652 555 584 565T382 577Q365 577 357 577H308L300 591L292 606Q292 608 342 665L392 724L403 725Q406 725 411 726H416L417 725L412 715Q408 705 408 698Q408 684 423 679Q431 677 516 672T663 655Q757 634 806
593T873 463Q881 421 881 380Q881 340 874 306Q859 223 809 147Q801 134 789 124Q595 -30 456 -30Q395 -30 289 3T147 36Q134 36 121 33T98 26T76 15T59 4T44 -8T32 -17L22 -7L12 4L56 59L100 114L116 118Q217 142 217 199Q217 230 185 276T120 365T87 430Q87 435
109 464T172 534T254 595Z" />
<glyph unicode="P" glyph-name="P" horiz-adv-x="977" d="M247 398Q247 372 206 334T126 272T83 247Q82 247 72 253T61 261Q60 261 61 262T66 265Q127 306 127 343Q127 364 63 430Q42 451 38 458T33 480V490V497Q33 526 63 567Q112 632 170 660T282 688Q341 688
384 667Q454 633 482 566Q483 565 484 566T496 574Q562 623 630 653Q699 681 751 681Q778 681 797 673Q818 662 830 609Q835 580 843 564Q863 524 895 524H901Q917 524 932 528Q936 522 938 518T942 513T942 511Q873 480 836 454Q789 423 789 395Q789 362 834 298T880
200Q880 170 867 145T820 81Q733 -20 647 -20Q581 -20 499 21V9Q499 -16 502 -53T509 -116L512 -141L370 -223L357 -216Q344 -209 344 -208L348 -196Q370 -113 370 33V52L355 58Q307 76 284 76Q258 76 228 60T183 29T141 -11Q137 -7 133 -2L126 7L134 18Q181 89
210 121T278 170Q304 179 328 179Q336 179 358 177L370 175Q368 268 367 359Q367 416 363 434Q362 438 362 441Q348 527 302 574T203 621Q169 621 148 599T127 557Q127 535 187 476T247 398ZM673 315Q673 357 786 442Q786 443 776 444T750 449T727 462Q719 471
716 484V496Q715 507 715 515Q715 571 698 588Q680 611 643 611Q592 611 547 571Q534 558 511 522L499 505V139L543 123Q702 64 744 64Q770 64 781 79T793 112Q793 143 733 217T673 315Z" />
<glyph unicode="Q" glyph-name="Q" horiz-adv-x="976" d="M254 595Q269 583 269 581L262 577Q256 573 247 566T228 549T212 527T205 502Q205 480 266 386T328 277Q328 234 239 150L221 134L231 133Q264 131 376 99T516 62Q567 50 604 50Q614 50 626 52Q643 57
662 71T703 115T739 198T753 323Q753 454 692 517Q652 555 584 565T382 577Q365 577 357 577H308L300 591L292 606Q292 608 342 665L392 724L403 725Q406 725 411 726H416L417 725L412 715Q408 705 408 698Q408 684 423 679Q431 677 516 672T663 655Q757 634 806
593T873 463Q881 421 881 380Q881 340 874 306Q864 250 838 196T791 126Q748 93 733 82L715 69Q714 68 723 60T748 40T774 23Q806 2 832 2Q849 2 870 6T904 14L917 17Q917 12 918 6V-3L882 -22Q806 -60 778 -73L755 -83Q640 -36 596 -7L586 0L576 -4Q513 -30 457
-30Q394 -30 289 2T149 35Q119 35 93 22T52 -4T36 -17T24 -7T12 4L56 59L100 114L116 118Q217 142 217 199Q217 230 185 276T120 365T87 430Q87 435 109 464T172 534T254 595Z" />
<glyph unicode="R" glyph-name="R" horiz-adv-x="978" d="M31 498Q34 541 76 586T176 659T279 688H290Q377 688 429 653T506 569L511 558L526 572Q620 663 707 682Q722 685 737 685Q781 685 804 665T830 619T838 565T854 525Q866 511 897 511Q917 511 925 513L937
515Q938 515 941 509T944 501T925 493T870 470T803 438Q735 406 735 401Q735 400 741 399T767 390T814 374L828 367L829 307Q829 233 833 202T852 144Q873 109 896 90Q906 82 928 82T976 95V92Q976 88 978 72L807 -28Q768 39 733 87L718 108V149Q718 230 714 257T693
298Q654 333 580 333Q524 333 520 329Q520 300 489 224T443 133Q441 131 333 53T223 -27Q221 -26 204 -11T169 16T136 28Q110 28 66 -8L56 -16Q52 -13 40 -1L48 7Q165 124 211 124Q232 124 287 77L298 67Q309 73 337 97Q397 150 397 347Q397 419 379 474T330 560T269
604T207 619Q177 619 152 601T126 563Q126 540 185 479T244 387Q240 336 160 289Q144 278 98 255L80 246L62 261L79 272Q96 283 113 301T130 337Q130 353 115 373T81 410T47 451T31 498ZM524 358Q537 358 657 405T777 457Q777 459 768 459Q749 462 738 474T723
499T714 539Q706 585 697 599Q681 618 657 618Q632 618 597 595T532 515L525 502L524 441Q524 375 523 369Q523 358 524 358Z" />
<glyph unicode="S" glyph-name="S" horiz-adv-x="978" d="M457 -31Q356 -31 272 6T135 120T82 304Q82 372 106 430T170 527T241 588T305 626Q341 643 386 657T460 678T495 685T554 660T674 609T778 584Q800 584 818 591T848 610T866 633T878 651T883 659L893 649L901
639Q879 574 803 532T666 490Q661 490 657 490T650 491T641 492T633 495T622 500T610 505T595 513T577 522T554 533T527 547Q436 594 415 602Q393 608 374 608Q303 608 253 545T202 386Q202 229 307 135T568 41Q674 41 748 85T822 198Q822 244 779 283T639 322Q595
322 499 303T383 283Q358 283 335 290T291 318T270 374Q270 418 313 460T424 510H431L435 505L440 500Q425 496 403 475T380 427Q380 382 431 373Q437 372 475 372Q543 372 626 388T742 404Q831 404 868 362T905 260Q905 182 831 108Q692 -31 457 -31Z" />
<glyph unicode="T" glyph-name="T" horiz-adv-x="790" d="M666 641Q737 641 794 686L802 662Q790 648 734 596L677 541L664 538Q630 528 583 528Q540 528 482 537L461 541Q402 512 402 456Q402 427 439 387T512 311T549 253Q549 220 455 139L440 126Q541 75 586
75Q600 75 619 80T654 94T685 110T709 124T719 130Q722 125 725 119L730 108Q700 72 568 -18Q551 -30 542 -30Q495 -30 404 6T270 42H263Q213 42 142 -11L131 -19L129 -8Q126 1 126 4Q218 84 301 126L316 134H406L413 142Q436 165 436 189Q436 202 421 221T364
281Q336 307 318 328T296 356T283 381L290 394Q338 478 410 540Q419 549 417 549Q415 550 369 558T268 575T195 584Q153 584 127 567T100 523Q100 499 116 479T151 447T170 433Q170 429 171 428Q171 427 131 394T88 359Q82 363 73 370T47 403T31 457Q31 513 79
565T197 648T332 679Q369 679 490 660T666 641Z" />
<glyph unicode="U" glyph-name="U" horiz-adv-x="851" d="M273 244Q273 281 244 331T186 428T155 502Q155 524 165 536Q239 634 333 688Q338 684 345 680L356 672L344 664Q310 642 295 624T280 582Q280 550 303 505T348 407T371 300Q371 270 362 248L247 123L358
92Q452 64 484 64Q507 64 523 72Q553 87 573 109Q583 121 586 146T593 283Q594 303 594 344Q594 401 591 461T584 558L581 595Q598 600 623 611T672 634T719 659T754 678L768 686Q770 686 784 673L782 670Q781 668 777 664T768 655Q747 635 738 616T721 535T714
359Q714 205 723 176Q727 164 744 133T771 89Q780 75 804 75Q814 75 853 87L867 92L871 73L671 -39L654 -10Q636 20 619 50T600 83Q600 84 589 75T539 34Q478 -16 475 -19Q469 -22 449 -28T414 -34Q410 -34 394 -32Q356 -28 282 -2L237 15Q169 38 126 38Q106 38
85 27T51 4T37 -8T27 -1T18 8Q18 10 70 63T124 116Q154 123 176 131T223 154T260 191T273 244Z" />
<glyph unicode="V" glyph-name="V" horiz-adv-x="982" d="M133 343Q133 360 79 416T25 496Q25 523 58 563T118 624Q197 685 293 685Q331 685 339 684Q453 665 489 558L493 546Q521 570 553 596T640 653T725 684Q753 684 783 672T844 641T889 618Q895 616 912 616Q924
616 936 617T956 620T965 622T966 612V604L952 595Q924 576 895 549Q864 517 856 496T847 448V434Q847 395 848 388L859 323Q874 241 874 212Q874 142 830 96Q796 62 724 14Q661 -29 603 -29Q555 -29 421 28T242 86Q182 86 110 31Q105 28 102 26T99 25Q88 36 88
42Q95 54 222 142Q252 163 262 165Q319 183 344 218Q378 266 378 377Q378 444 362 494T319 571T266 610T212 623Q181 623 156 603T131 562Q131 539 154 512T206 458T243 416Q246 409 246 399Q246 387 242 377T225 351T178 311T94 259L79 251Q72 256 68 261T62 268L61
270L70 277Q131 318 133 343ZM822 526Q778 531 719 564T628 597Q611 597 579 574Q543 543 513 506L505 495L506 473Q506 469 506 461T507 449Q507 348 467 271L462 261L404 218L348 174Q349 173 356 173Q384 169 450 144L546 105Q665 56 708 56Q737 56 746 72T756
118Q756 129 755 135L741 219Q725 314 725 334V344Q725 416 736 431Q748 450 815 510L832 526H822Z" />
<glyph unicode="W" glyph-name="W" horiz-adv-x="1235" d="M133 317T133 338T80 413T26 496Q26 532 83 591Q100 608 111 616T151 644T219 672T304 682Q381 682 434 646T506 564L510 557Q513 557 534 573L677 665L707 683L790 561L803 572Q933 682 1001 682Q1037
682 1098 650T1193 616Q1208 616 1222 619L1235 622Q1239 622 1239 616Q1239 611 1240 609Q1240 608 1206 577T1138 503T1104 430Q1104 409 1123 330T1142 208Q1142 183 1136 147Q1127 118 1117 106Q1114 103 1031 48T935 -14Q930 -18 908 -22T862 -27Q826 -27
759 -6T647 26Q597 38 578 38Q573 38 561 33T533 20T505 4T480 -10L469 -16L452 -26L439 -28Q423 -30 411 -30Q358 -30 279 7T169 45Q125 45 58 -5L47 -14L41 -4L35 8Q35 11 56 29T113 75T181 125L200 139H217Q279 143 320 180T377 270T394 393Q394 453 378 498T334
568T277 605T213 617Q177 617 155 607Q140 600 130 587T119 560Q119 545 137 522T177 479T217 434T236 393Q236 324 98 251L89 246L76 253L63 261Q91 275 112 296ZM1088 526Q1066 526 1004 556T909 586Q863 586 816 539L802 526L804 514Q814 461 814 411Q814 319
781 238Q772 214 760 198T730 165T702 136L715 133Q759 122 848 90T973 57Q1003 57 1017 80Q1022 93 1022 116Q1022 152 1003 241T983 377V391Q983 405 985 409T1002 429Q1019 450 1045 475T1090 514L1107 528Q1104 527 1102 527T1096 527T1088 526ZM699 358Q699
391 696 419T688 467T675 503T660 530T642 550T626 563T608 574T593 582Q581 575 559 554T524 512Q523 510 523 477Q523 315 444 218L435 207L368 169Q301 132 301 131Q307 128 315 125L377 99Q476 57 515 57Q534 57 608 94L627 102L636 111Q699 187 699 358Z"
/>
<glyph unicode="X" glyph-name="X" horiz-adv-x="849" d="M273 679Q354 674 408 633T477 525L484 533Q496 548 524 574T571 615Q594 633 625 649T675 673T699 681Q724 632 747 607Q754 601 756 599T765 594T777 591T794 590Q818 590 834 594V585L835 577L704 513L693
518Q657 534 631 560T597 599Q596 601 581 584Q495 490 489 379V366H562L681 369Q682 369 679 366T668 355T651 341L620 314H485V295Q490 190 543 125T686 60Q720 60 789 88L801 93V89Q798 83 798 66Q781 59 685 -10L665 -25L634 -30Q596 -35 594 -35Q570 -35 536
-23T477 19Q461 37 445 67T418 118L409 138Q401 131 388 120T340 79T273 28T206 -12T151 -31Q129 -31 90 -12T32 22L113 101Q114 101 120 96T136 84T160 69T189 56T221 51Q256 51 305 90Q376 149 376 301V315H293Q276 315 251 315T210 314T190 313L168 312Q168
313 200 340L231 368L238 367Q275 367 311 366H378V387Q376 470 355 512T291 572Q274 579 252 579Q223 579 197 568T156 544T131 519T117 508Q112 512 108 518L99 527L117 545Q177 604 255 665L273 679Z" />
<glyph unicode="Y" glyph-name="Y" horiz-adv-x="984" d="M34 496Q34 518 53 549T107 610T195 661T310 682Q357 682 398 663T460 611Q467 600 475 583T489 554T495 542Q495 544 531 570T617 629T700 676L724 688Q742 670 756 657T784 635T806 621T830 606T856
592Q878 416 878 340Q878 154 805 -3L798 -20L779 -40Q706 -113 613 -163T421 -214Q359 -214 317 -196T256 -160L306 -63L313 -64L320 -66L326 -79Q337 -104 349 -120T392 -151T470 -166Q576 -166 644 -101Q750 7 750 292Q750 426 721 495T617 565H611Q563 565
513 509L506 501L508 493Q508 490 509 475T510 445Q510 319 458 236L451 225L436 216Q406 198 365 169T318 134L332 127Q336 126 397 103T489 80H493Q527 80 593 129L604 137L607 127Q610 119 610 116Q610 114 592 95T543 46T484 -4Q450 -27 446 -27Q441 -27 402
-18Q365 -9 290 20T188 50Q135 50 64 -7L52 -17L43 -7L34 2L51 19Q118 87 177 132L192 143H215Q259 145 289 155T335 184T355 214T366 245Q382 306 382 388Q382 426 381 436Q368 520 318 570T214 621Q184 621 165 608T142 583T137 562Q137 541 163 508L201 469Q245
425 251 408Q253 403 253 398Q253 383 240 366T212 335T161 295Q128 271 99 253L89 247L77 256L65 266L76 273Q125 301 134 329Q136 334 136 342Q136 357 124 372T88 410T49 455Q34 479 34 496Z" />
<glyph unicode="Z" glyph-name="Z" horiz-adv-x="711" d="M278 601Q242 601 212 591T167 570T121 533Q114 528 111 525L93 550Q223 661 244 667Q299 677 356 677Q415 677 456 666T515 634T541 596T549 555Q549 513 529 478T480 421T424 388T377 372Q365 370 365
367Q365 365 389 365T450 358T523 337T588 282T623 183Q624 177 624 161Q624 20 524 -60Q415 -148 285 -148Q242 -148 213 -139Q181 -131 159 -109Q136 -87 127 -56T114 6T104 49Q94 69 57 69Q38 69 13 58L1 53Q1 55 0 59T-3 68T-4 76Q78 130 138 142Q150 144 162
144Q213 144 227 120T242 31Q242 -30 263 -66T345 -102Q397 -102 444 -52T491 107Q491 172 471 211T428 265Q392 288 306 288Q269 288 233 284L218 282Q208 289 208 291L229 324L251 359Q250 360 248 360Q239 360 248 371L256 381H273Q344 385 378 409T413 495Q413
537 384 569T278 601Z" />
<glyph unicode="[" glyph-name="bracketleft" horiz-adv-x="257" d="M226 711T225 711T86 699V-93H89Q94 -93 157 -96T223 -100H226V-119H223Q134 -119 42 -130H36V740H42Q61 738 156 736H226V723Q226 711 225 711Z" />
<glyph unicode="]" glyph-name="bracketright" horiz-adv-x="257" d="M69 732Q116 733 146 734T184 736T197 737T206 738H208V-132Q190 -129 160 -127T99 -125T66 -124H14V-103H19Q20 -103 84 -98T152 -92H158V699H151Q148 700 85 703T18 708H14V732H69Z" />
<glyph unicode="^" glyph-name="asciicircum" horiz-adv-x="590" d="M1 463T1 464T148 599T296 734Q584 486 584 485L561 472Q538 459 537 461Q296 672 293 672L161 563Q133 539 97 509T44 466L28 452Q27 452 14 457Z" />
<glyph unicode="a" glyph-name="a" horiz-adv-x="603" d="M80 129V151Q80 241 99 363Q99 367 111 372T172 401T285 465L297 472Q340 455 405 443L423 440L455 453Q486 467 489 467L497 461L494 451Q480 390 480 292V283Q480 207 483 155L484 143L535 80L558 90L582
99Q586 95 586 83Q586 81 513 25L443 -29Q410 16 386 40L371 55V61Q371 63 371 67T370 74V80L278 25Q186 -29 184 -31Q182 -32 160 -12T112 35T80 75V129ZM359 366Q334 366 300 371T243 382L221 388Q218 388 212 375T200 323T194 228Q194 191 197 152L198 139L217
120Q245 92 269 74L279 66L304 78Q338 95 349 100L369 110V152Q368 164 368 210T367 275Q367 358 366 361V366H359Z" />
<glyph unicode="b" glyph-name="b" horiz-adv-x="590" d="M99 398Q99 610 86 662Q86 665 95 669T106 674L108 669Q109 664 112 654T119 635Q122 626 125 616T130 601L131 596Q214 649 273 678Q295 690 298 690Q299 690 304 688T313 682L317 679Q275 653 240 612Q210
569 210 469V459Q210 450 210 432T211 406L212 378L285 425Q301 435 321 447T350 466L360 472Q360 473 361 473T368 471T401 456T465 429L501 414V408Q504 386 504 309Q504 255 500 203T491 125T485 97Q485 95 445 74T343 23T237 -24L214 -32Q197 -22 165 3T109
49T87 73Q99 169 99 398ZM386 251Q386 320 380 347V350L305 374L282 382L214 348L213 274Q213 184 214 165V131L230 119Q288 76 349 54Q386 137 386 251Z" />
<glyph unicode="c" glyph-name="c" horiz-adv-x="464" d="M227 393Q215 393 210 351T205 269Q205 161 213 153Q220 145 244 125T290 88L312 72L365 92Q414 113 418 113V93L365 60Q255 -9 221 -26L211 -18Q158 21 91 88L90 107Q87 167 87 225Q87 267 90 302T96
351T100 366L295 473L311 470Q340 464 368 454T410 437T424 429L347 334L342 333H337L325 342Q299 363 271 378T228 393H227Z" />
<glyph unicode="d" glyph-name="d" horiz-adv-x="589" d="M88 117Q88 177 91 231T97 310T102 341Q102 343 118 357T168 397T239 447L257 459L268 454L278 449Q242 416 238 412L219 394Q219 391 216 378T211 349T206 307T203 249Q203 211 206 166L208 148Q224 132
261 108T333 70Q341 66 342 67T350 79Q393 157 393 302Q393 368 388 406V411L371 424Q199 558 101 558Q69 558 28 545L18 542L8 549L-1 557L24 569Q61 587 147 621L177 632Q179 631 194 627T216 621T240 613T269 602T302 589T340 571T382 549T431 522T484 488Q504
475 504 472Q511 449 511 365Q511 248 474 129L468 108L451 96Q427 77 347 28T254 -28Q235 -20 174 21T89 86L88 117Z" />
<glyph unicode="e" glyph-name="e" horiz-adv-x="472" d="M309 69Q391 98 416 108Q418 106 422 100T425 92Q419 86 326 30T229 -27Q228 -27 207 -13T154 27T97 76L85 87L84 106Q81 152 81 194Q81 295 93 359L95 369L286 471L313 449Q376 397 414 372L428 362Q428
360 375 318L188 181V170Q188 156 189 153V148L203 138Q228 119 266 94T309 69ZM209 389Q208 388 204 366T194 307T187 244Q187 225 188 225T201 233L245 261Q283 284 291 291Q324 313 324 316L296 334Q280 343 259 357T224 380L210 390Q209 390 209 389Z" />
<glyph unicode="f" glyph-name="f" horiz-adv-x="388" d="M128 400Q127 401 121 422T108 478T99 540V555L111 569Q135 597 165 626T214 671T235 687L249 678Q263 668 282 659T315 650Q335 650 362 666L372 654L286 569H271Q205 576 173 586V583Q173 558 208 492T252
401Q253 399 310 399T367 398L332 355H254V311Q251 160 235 16Q230 -28 226 -36Q225 -38 221 -45Q171 -140 121 -211L113 -222H104Q94 -222 94 -220Q94 -215 105 -187L121 -145Q139 -80 139 35V93Q139 222 135 314L134 354Q134 355 84 355H35L84 399H106Q128 399
128 400Z" />
<glyph unicode="g" glyph-name="g" horiz-adv-x="595" d="M92 71Q92 74 91 88T88 128T86 183Q86 230 91 275T102 342T109 366Q115 372 207 422T305 472Q407 426 431 426Q435 426 476 445L519 465L525 463L532 461Q497 392 497 268Q496 255 496 233Q496 179 516
92T539 -10L541 -22L526 -38Q441 -126 355 -194L339 -206L327 -207Q324 -207 319 -207T310 -208Q242 -208 171 -179T73 -131L56 -141Q40 -150 38 -150Q17 -140 17 -137Q17 -136 18 -136T98 -79L176 -23Q174 -21 134 24T92 71ZM226 393Q224 393 221 372T214 312T210
235Q210 182 214 144L215 132L230 118Q281 70 301 66Q304 66 331 80T373 105L384 112L383 165Q383 224 387 309Q387 314 387 319T387 329T388 336T388 341V343Q388 344 381 344T339 354T249 384Q246 385 243 386T236 389T231 391T228 392L226 393ZM414 -80Q414
-64 411 -43T403 -1T394 37T386 66T382 79Q381 79 286 15T189 -52Q312 -125 365 -125Q397 -125 405 -115T414 -80Z" />
<glyph unicode="h" glyph-name="h" horiz-adv-x="615" d="M95 661Q95 662 103 667T113 672L126 634L137 596L147 602Q235 656 275 677L292 687L303 680Q305 679 307 677T312 674L313 672L310 670Q307 669 301 667T289 660T274 649T259 634Q250 622 244 611T233
585T226 560T222 528T221 497T220 456T219 413V377L232 384Q244 391 271 409T339 455L362 471L383 461Q425 440 491 415L504 410V406Q507 399 507 269Q507 76 486 -21Q485 -30 483 -33T461 -57Q382 -139 299 -207L281 -197L263 -186L266 -185Q268 -184 280 -177T312
-155Q344 -130 353 -116Q394 -59 394 117Q394 162 391 216T386 301T382 335Q382 338 365 346T323 364T281 376L250 362Q220 347 219 347Q213 336 213 232Q213 177 217 144L218 128L224 119Q244 92 263 71L272 60Q206 21 157 -24Q156 -24 151 -16T132 11T98 52L89
62L91 103Q104 289 104 436Q104 471 103 506T101 568T99 616T96 649L95 661Z" />
<glyph unicode="i" glyph-name="i" horiz-adv-x="331" d="M73 613L164 686L184 666Q200 650 214 637T235 620T242 614T203 577T162 540Q158 540 122 570T73 613ZM92 58Q92 63 94 83T98 142T101 234Q101 318 97 358V366L59 387L40 379L21 371Q20 371 12 376T3 382L38
406Q78 431 125 466L138 477Q149 468 186 444L219 422V389Q215 324 215 247Q215 136 222 123Q226 113 238 98T258 83Q263 83 292 94L322 104Q322 103 324 97T327 89Q327 88 317 82T272 52T190 -7Q166 -25 164 -25L112 35Q92 55 92 58Z" />
<glyph unicode="j" glyph-name="j" horiz-adv-x="332" d="M74 611L155 682Q172 666 186 655T208 636L235 614Q227 606 191 574L154 540L135 556Q101 582 84 601L74 611ZM10 377L144 477Q145 476 184 453T229 428L233 425V416Q238 346 238 252Q238 93 215 -16L213
-30L185 -57Q29 -203 19 -203Q17 -203 -19 -189L-9 -183Q52 -146 78 -116T114 -37Q120 31 120 192V237Q120 327 113 351T72 380L53 372Q34 362 32 364L10 377Z" />
<glyph unicode="k" glyph-name="k" horiz-adv-x="464" d="M106 72Q110 105 111 193T114 294V308H74L34 309L83 346H115V430Q114 591 106 652Q105 662 107 665T114 668T123 672Q125 672 139 635L152 597L154 598Q156 600 160 602T167 607Q193 625 226 644T279 672T302
682L312 676L321 670L312 665Q281 649 263 626T241 587T233 547Q232 541 231 530T230 510T230 501Q231 501 265 522T334 564T369 583L380 570Q428 509 428 481Q428 475 427 470T423 459T416 448T404 434T389 418T369 397T344 371L321 347L365 346H409L372 308H227V294Q227
272 230 208T234 138Q234 136 256 119T302 84L324 68L372 88Q421 108 422 108T432 90L421 83Q373 53 270 -5L234 -25L204 -1Q172 25 124 60L106 72ZM336 434Q336 452 327 472T308 503T297 514Q296 514 290 510T275 499T264 490Q230 458 230 358V346H247Q268 346
276 350T302 372Q328 398 335 423Q335 424 335 428T336 434Z" />
<glyph unicode="l" glyph-name="l" horiz-adv-x="337" d="M111 275Q111 406 108 518T104 650V657Q105 657 109 660T117 665T122 666L133 629L144 594L161 606Q218 642 272 670L294 681Q295 681 300 677T306 672L302 669Q298 666 292 662T278 651T263 637T251 621Q232
587 227 530T222 343Q222 226 230 125L231 112L244 98L258 83Q271 87 285 92L312 102V84Q297 72 231 24T163 -23L100 55Q110 141 111 275Z" />
<glyph unicode="m" glyph-name="m" horiz-adv-x="921" d="M115 203Q115 257 114 291T112 338T111 355Q111 357 93 370L75 384L54 375Q32 366 31 365Q27 365 16 378Q25 383 89 430L152 476Q175 453 228 420Q229 420 229 418T229 410T227 394L225 369Q279 400 315
425T363 461T376 471Q480 424 514 416V412Q514 411 514 404T513 392L511 376L520 382Q529 387 548 399T584 422Q599 432 618 444T648 463L657 469H658Q661 469 681 461T735 440T796 420Q803 418 803 416Q801 414 798 390T791 325T788 247Q788 220 790 172T794 123Q799
115 814 97T835 78H838Q841 78 867 89L895 101Q896 101 896 100T897 92T900 78L873 62Q810 23 761 -12L736 -30Q735 -30 729 -22T707 7T671 48L661 59Q674 93 674 207V219Q674 341 670 344Q655 353 591 372L576 376L544 364Q511 351 510 351Q507 349 507 224V132L535
95Q541 87 548 78T560 63L563 58Q563 57 504 15T444 -28L385 53L387 67Q396 114 396 206Q396 289 393 334Q393 346 390 348Q369 358 306 373Q301 373 265 361L228 349V335Q227 322 227 284Q227 206 231 157Q231 151 231 144T232 133V129Q232 125 259 90Q286 56
286 53Q287 53 284 51T273 43T258 31L173 -31L166 -20Q160 -11 145 7T119 38T108 59Q108 62 110 81T113 133T115 203Z" />
<glyph unicode="n" glyph-name="n" horiz-adv-x="654" d="M608 88Q572 65 535 37T477 -8T455 -25Q432 7 389 53L375 68L378 82Q386 160 386 195V221Q386 284 385 307L384 344Q352 359 306 373L286 379L213 353V273Q214 229 214 161V129L275 62L163 -28L150 -14Q136
0 121 16T91 44Q86 48 86 50Q95 83 96 148Q96 224 89 340L88 366L79 374Q69 384 67 385L64 388L55 383Q52 382 44 378T33 373L21 367L13 374Q5 379 5 381Q5 384 69 428L133 473Q135 473 147 464T179 443T215 424L214 400V376Q271 404 342 457L363 472Q363 473 364
473Q366 473 375 469T418 449T502 414L512 411V407Q502 330 502 217V197V132L523 109Q527 104 533 97T543 87T547 83L550 80L578 92Q603 103 604 103Q606 103 608 88Z" />
<glyph unicode="o" glyph-name="o" horiz-adv-x="609" d="M107 102Q107 178 112 242T123 334T129 362Q129 363 140 368T199 400T315 469L336 482L346 476Q409 439 498 414L514 410L515 389Q515 208 502 141Q494 101 491 94Q490 89 478 81Q430 51 375 23T288 -20T254
-34Q250 -34 200 -1T119 56L108 65L107 76V102ZM389 355Q367 358 346 363T309 372T282 381T264 388L257 390H256Q254 390 249 381T238 348T227 293Q226 280 226 237Q226 183 231 146L232 131L244 122Q285 91 323 74T374 57H377L380 68Q405 154 405 267Q405 315
401 349V354L389 355Z" />
<glyph unicode="p" glyph-name="p" horiz-adv-x="604" d="M66 435Q66 445 117 501T173 557Q174 557 183 555T193 551Q174 526 174 509Q174 496 190 472T233 428V386L377 482L399 471Q450 445 509 425Q519 421 519 420L518 419Q518 418 518 416T517 410Q517 405
518 381T519 335Q519 222 501 137Q492 84 489 84L473 75Q457 66 423 44T354 -6L338 -19L329 -13Q320 -8 313 -4T297 4T284 10T270 14T258 17T245 20T233 22V12L241 -161L214 -172Q187 -184 160 -195T131 -207Q127 -207 112 -202L113 -188Q113 -182 115 -77T118
31Q118 32 109 32Q63 27 23 0L10 -9Q5 -4 -1 8Q1 13 52 57T114 101H115L117 123Q117 141 117 230V359L110 367Q85 394 71 421Q66 433 66 435ZM384 83Q386 83 389 110T396 180T400 254Q400 294 395 339L394 349L379 355Q308 383 294 383Q290 383 263 372L234 360L233
245V130Q270 125 305 113T361 92T384 83Z" />
<glyph unicode="q" glyph-name="q" horiz-adv-x="596" d="M362 -196Q375 -92 375 47V78L282 24Q189 -29 188 -30Q187 -30 139 21T90 75Q87 84 87 158Q88 206 94 259T107 342L113 372L308 478L322 473Q374 452 421 444L433 442L503 485Q515 479 515 477Q485 378
485 56Q485 -100 494 -164V-171L381 -211L371 -207L362 -202V-196ZM280 72Q301 77 323 86T358 101T372 110Q372 268 377 346L378 358H374Q368 360 358 360T323 365T257 380L234 386Q231 386 229 379Q215 353 211 310T207 180Q207 152 208 150Q210 142 235 114T280
72Z" />
<glyph unicode="r" glyph-name="r" horiz-adv-x="460" d="M23 367Q21 370 18 374T14 380L13 382L151 472L236 411L238 381L290 426Q298 432 307 439T322 452T333 461T342 467L344 469Q382 410 404 399Q410 397 416 397Q423 397 432 399T446 403L451 405Q453 405
453 399V393Q430 374 404 356T364 328T350 318L349 317Q321 320 276 356Q257 371 256 371Q253 374 249 366T242 351Q232 321 232 236Q232 214 232 205T232 182T233 162T235 148T238 137T242 129T249 120T257 114T268 105T281 95Q313 70 314 70L358 85Q377 92 389
96T402 100V90L403 80L229 -26L221 -18Q195 6 166 29T121 63T105 76T106 82T110 97T114 121T117 158T119 208Q119 269 114 329L113 341L103 350Q90 362 67 380L45 374L23 367Z" />
<glyph unicode="s" glyph-name="s" horiz-adv-x="523" d="M189 331Q190 304 196 282T207 252T214 244Q239 244 348 292L371 302L382 297Q398 290 415 279T433 265Q442 238 442 166Q442 103 423 45Q416 42 380 29T310 3T244 -26L227 -34Q139 40 73 40Q61 40 48
37T24 30T6 22T-8 14L-13 11Q-14 11 -18 18T-23 26T38 75T102 125Q107 128 146 131H153Q192 131 296 56Q318 40 318 43Q323 48 323 114Q323 157 321 177L319 194Q308 208 291 216T261 225Q239 225 160 185L123 167Q85 205 79 227Q78 230 78 304V377L171 428Q264
479 265 478Q268 478 287 465T334 440T384 427Q423 427 475 463L478 453Q481 446 481 442Q481 439 410 391L339 342H331Q309 345 277 361T222 391T198 406T195 399T191 372T189 331Z" />
<glyph unicode="t" glyph-name="t" horiz-adv-x="393" d="M328 69Q401 102 403 102Q404 102 405 94T406 84Q406 83 318 28L230 -27Q223 -21 206 -5T171 25T132 54L124 60V71Q129 154 129 297V359H43L44 363Q44 365 44 367L45 369L48 372Q51 374 57 378T68 387L90
405H129V553L285 648Q304 641 306 640L260 598V592Q259 589 255 505T249 413V405H353V402Q353 399 328 379L303 360H245V319Q245 150 253 125Q257 115 276 101T311 78T328 69Z" />
<glyph unicode="u" glyph-name="u" horiz-adv-x="589" d="M444 -31Q444 -29 384 66Q382 66 364 58T309 30T231 -17Q214 -29 212 -29L197 -20Q172 -4 140 11T88 34L68 42Q68 43 73 49T85 67T100 98T113 149T118 221Q118 272 105 332L100 356L58 383L23 365L9 379L76
425Q141 472 144 472Q144 471 183 443L221 414V404Q224 365 224 275V253Q224 159 196 113Q191 104 193 104Q203 104 285 72L308 62L374 89L375 106Q375 266 373 340Q373 364 371 396V424L430 445L491 467Q493 467 499 463T505 457Q505 456 503 442Q488 335 488
187V158L529 81L534 80Q541 80 568 90L598 101Q605 94 602 87L524 27Q445 -32 444 -31Z" />
<glyph unicode="v" glyph-name="v" horiz-adv-x="604" d="M95 67Q104 80 104 193Q104 261 100 321L98 355L91 363Q56 402 56 421Q56 441 82 472T132 524T159 546Q174 542 175 542Q159 520 159 501Q159 481 205 432L221 415L220 401Q219 394 219 387L288 429Q309
441 325 451T347 465T358 472T365 476L504 415V409Q504 408 505 374T507 318Q507 155 474 91L469 80L343 26Q314 14 281 0T232 -20L216 -27L202 -15Q192 -5 152 28Q141 35 126 45T103 60T95 67ZM386 349Q302 389 287 389Q271 383 253 375L220 361V136Q226 120 256
100T312 68T342 56Q355 56 360 68Q389 134 389 258Q389 310 386 341V349Z" />
<glyph unicode="w" glyph-name="w" horiz-adv-x="918" d="M90 58T90 59T92 64T97 78T102 105T107 150T109 218Q109 290 103 350V356L83 377Q55 407 55 425Q55 445 138 528Q158 549 162 549L164 548Q165 548 167 548T170 547L175 546L172 540Q168 533 165 523T161
502Q161 479 216 430L229 419V382Q232 382 366 471Q407 445 500 408L511 404V387L512 370L595 420Q678 469 679 469L693 462Q756 431 795 417L815 409L814 380Q812 187 782 96Q774 71 766 62T744 48T684 25T577 -23L557 -32L546 -26Q536 -19 519 -10T481 10T436
31T393 47Q384 50 380 50Q380 52 381 58T384 77T387 104Q391 174 391 256V292L390 333L377 340Q350 357 304 373L294 376L227 355V348Q224 322 224 243Q228 117 232 112L235 108Q238 103 245 95T257 80L281 50Q281 49 227 10T172 -29L159 -13Q133 19 116 36T94
56ZM652 64Q658 64 667 84T685 162T697 303V336L686 341Q653 356 619 367L591 376Q590 376 553 361T514 344T512 324T510 275T508 221Q508 167 510 152T521 126Q537 112 590 88T652 64Z" />
<glyph unicode="x" glyph-name="x" horiz-adv-x="459" d="M8 -90Q8 -68 13 -63Q13 -56 53 -8T120 63L128 71L129 85Q133 120 134 182Q134 308 131 331T106 365Q100 367 97 369L75 381L35 365L20 377Q20 378 47 397T110 440T161 471L253 413V396Q253 378 254 378L309
422Q364 466 365 466Q365 467 366 466T370 461T376 454Q403 419 426 396L441 380L438 377Q438 376 433 372T420 359T404 344L372 314Q351 320 338 327T310 344T277 364Q261 364 252 316Q251 306 251 235Q251 136 255 129Q257 127 258 124T268 113T298 92Q334 68
335 68Q340 70 349 73T377 84T408 95T421 99Q422 99 422 90L423 82L334 26Q246 -28 243 -28L200 8Q156 43 148 43Q144 43 130 36T99 9T83 -36Q83 -67 121 -89T198 -118L237 -124V-129L238 -133L193 -160Q183 -166 171 -173T152 -184L146 -188Q140 -187 131 -185T98
-173T56 -154T23 -127T8 -90Z" />
<glyph unicode="y" glyph-name="y" horiz-adv-x="589" d="M280 53Q272 47 246 27T199 -10T176 -27L167 -18Q137 17 107 44L90 60L93 71Q108 130 109 290V331Q109 339 109 344T108 353T107 359T105 364T102 369T97 374T91 381Q60 412 60 432Q60 448 86 479T138
534L164 557Q168 553 180 553Q163 532 163 511Q165 491 186 468Q206 443 231 423V404L232 385L371 477L389 468Q439 441 498 418L512 412V386Q512 360 507 190T500 14Q488 -26 445 -67Q401 -111 355 -148T282 -203T249 -221Q247 -220 230 -210T213 -199T229 -191T269
-172T306 -151Q361 -120 379 14Q391 92 391 182Q391 218 386 305Q384 339 380 341Q363 353 330 366T288 379Q282 379 258 368L230 356V181V141Q230 127 232 120T236 108T251 89T275 59L280 53Z" />
<glyph unicode="z" glyph-name="z" horiz-adv-x="461" d="M153 371Q141 371 126 365T100 354T78 340L65 331L57 338L50 346L62 356Q133 419 222 471Q274 453 306 422T338 366Q338 356 329 346T283 301L243 264L262 257Q298 246 361 214Q378 154 378 73Q378 33
371 -9T356 -74T345 -104Q340 -106 267 -160L191 -214H177Q60 -214 13 -150Q-7 -122 -7 -115Q-7 -112 19 -77T106 25T241 149Q241 152 227 158T181 173T109 185V190L108 194L158 229Q212 267 223 278T234 306Q234 329 208 350T153 371ZM258 1Q258 42 257 68T254
105T252 118Q235 105 210 85T144 22T102 -45Q102 -79 146 -106T234 -133H238Q248 -128 254 -80Q258 -58 258 1Z" />
<glyph unicode="&#xa0;" glyph-name="uni00A0" horiz-adv-x="250" />
<glyph unicode="&#x2018;" glyph-name="quoteleft" horiz-adv-x="254" d="M187 456Q187 437 169 424T138 411Q114 411 84 454T53 538Q53 565 75 597Q109 648 155 697L166 708L181 694L173 681Q124 610 124 577Q124 549 155 511T187 456Z" />
<glyph unicode="&#x2019;" glyph-name="quoteright" horiz-adv-x="254" d="M125 524Q125 545 92 588T58 651Q58 661 61 667Q65 674 80 683T107 692Q131 692 162 645T193 564Q193 540 176 509T144 460T87 394L78 400L68 406L79 421Q125 489 125 524Z" />
<glyph unicode="&#xe301;" glyph-name="uniE301" horiz-adv-x="587" d="M388 427Q320 485 242 524T128 563H116Q95 563 87 561L77 559Q72 563 69 566T65 570T65 572L75 576Q106 592 154 611T212 630Q230 630 262 622T358 581T492 498L508 486Q512 463 512 396Q512
246 469 112L465 102Q453 94 341 25Q252 -27 247 -27Q243 -27 174 24T97 84Q90 100 90 214Q90 285 98 345Q100 360 102 363T118 377Q175 422 262 465Q264 463 270 460L277 456Q277 455 267 447T244 428T228 414Q206 382 206 269Q206 187 214 164T259 110Q286 89
342 58Q391 131 391 313Q391 355 388 412V427Z" />
<glyph unicode="&#xe302;" glyph-name="uniE302" horiz-adv-x="394" d="M39 362L37 366L38 368L82 405H133V474Q135 563 143 589T198 658Q210 669 224 676T247 687L255 690H253Q241 690 253 692Q254 692 256 692T260 693Q263 693 262 691L261 690Q300 690 361
662L373 656L388 666Q404 675 405 675L406 674Q406 672 406 670T406 664L408 655L301 555Q300 555 287 564T254 584T221 597Q190 597 176 583T161 550Q161 525 184 495T232 440T261 405H387V399Q377 389 364 379L340 359H258V315Q258 52 228 -18L172 -120L121 -211H109Q102
-212 96 -212L109 -174Q131 -108 135 -80T139 53V76V157V362H39Z" />
<glyph unicode="&#xe303;" glyph-name="uniE303" horiz-adv-x="387" d="M41 352Q40 354 39 355T37 358L36 360H37Q48 370 61 380L84 400H108Q131 400 131 402Q121 424 104 501L100 519Q109 560 134 602T196 664Q230 681 271 681Q291 681 316 669T358 644L373 631Q373
630 304 553Q299 548 294 547Q292 547 290 546H287Q286 546 274 562T243 593T205 609Q180 609 165 596T150 562Q150 526 191 488L217 462Q248 431 253 405V400H381L384 394L349 352H251V332Q249 271 231 17L227 -37L120 -217L109 -218Q103 -219 97 -219Q97 -218
101 -206T110 -177T118 -151Q126 -129 128 -120T136 -46T141 127Q141 250 136 340V352H41Z" />
<glyph unicode="&#xe304;" glyph-name="uniE304" horiz-adv-x="593" d="M107 370Q127 384 172 409T255 454T294 473L306 468Q356 446 425 431L435 429L524 468Q528 465 531 461Q499 395 499 271V263Q499 146 509 71T519 -8Q519 -28 512 -45Q510 -50 435 -123T355
-197Q296 -212 257 -212Q209 -212 164 -196T98 -167T67 -143L133 -44H144Q167 -88 216 -111T320 -134Q371 -134 390 -118T410 -69Q410 -52 404 -12T392 60T385 92L193 -29L158 5Q124 39 110 51L96 63V71Q94 79 94 121Q94 130 94 148T93 174Q93 230 96 275T103 344T107
370ZM221 397Q200 334 200 254Q200 170 210 140Q216 126 234 109T268 81L283 71L383 119V127Q384 132 384 241L385 347L368 349Q325 357 290 369T240 389T221 397Z" />
<glyph unicode="&#xe305;" glyph-name="uniE305" horiz-adv-x="393" d="M103 453Q103 631 95 661Q95 663 102 667T110 672L114 664Q117 655 123 641T131 621L140 597L154 606Q208 641 275 673L297 684Q300 683 302 682T307 679T310 678L314 676Q283 658 256 625Q238
601 231 579T223 515L224 512L282 548Q339 583 341 583T365 548T386 509Q326 443 318 443L316 446Q314 448 311 452T304 460T294 470T283 480T272 488T260 494T248 497Q231 497 223 474Q220 468 218 440T215 407V401H345L309 360H218V314Q218 181 221 139V129L253
108Q306 73 310 73Q315 73 343 83L373 92L374 87Q375 82 375 79T375 74T360 65T308 36T229 -13L208 -27L192 -13Q149 24 90 61Q89 61 89 62L90 68Q91 73 93 87T97 125T100 191T103 291V360H33V366L34 371L85 405H94L103 404V453Z" />
<glyph unicode="&#xe308;" glyph-name="uniE308" horiz-adv-x="981" d="M602 575Q505 508 505 489Q505 488 505 482T506 463T507 432Q507 314 456 237L449 226L434 216Q420 208 325 143L316 137Q453 82 488 82Q527 82 585 127L596 136Q597 136 599 126L602 115Q578
85 511 27T428 -31Q400 -31 308 10T170 51Q143 51 123 43T92 24T54 -15L34 6L41 14Q65 41 170 129L188 144L204 145Q254 147 293 164T350 208Q378 249 378 344Q378 422 362 478T320 563T268 605T213 618Q177 618 156 600T134 561Q134 539 162 508T217 446T245 394Q245
368 213 337T85 250L62 262Q73 269 86 279T116 308T133 338T108 378T57 439T32 499Q32 556 117 617T291 679Q350 679 393 658Q415 647 433 631T462 600T480 572T490 550T494 541T499 544T516 556T547 578T603 613T689 662L720 679L730 670Q742 659 756 649T785
629T810 615T836 601T855 590Q855 587 860 536T870 419T875 312Q875 114 800 -25Q794 -35 781 -47Q584 -220 398 -220Q322 -220 278 -190Q253 -173 239 -155L244 -150Q248 -145 255 -138T271 -120T290 -100T310 -80T328 -63T341 -51T349 -46Q350 -46 351 -46T354
-47Q357 -47 357 -52Q359 -68 364 -83T383 -118T424 -151T491 -166Q559 -166 613 -129Q629 -118 641 -108T674 -68T710 1T735 107T746 260Q746 433 727 507Q727 512 685 535T615 570L602 575Z" />
<glyph unicode="&#xe309;" glyph-name="uniE309" horiz-adv-x="727" d="M351 571Q317 571 247 563T171 555Q153 555 133 563T107 584Q94 605 98 609Q101 615 138 658T190 717H207Q204 710 204 699Q204 673 231 666Q235 665 264 665Q296 665 345 667T426 669Q474
669 501 660T545 626Q553 612 553 594Q553 531 498 474T379 384Q371 379 371 378Q371 376 390 376H411H434Q520 376 602 318Q621 303 627 288T633 234Q633 59 540 -34Q465 -109 348 -130Q308 -137 235 -137Q159 -136 143 -129Q132 -125 132 -118V-53Q118 -24 90
-24Q69 -24 37 -39L27 -44L25 -42Q23 -39 21 -35T17 -30Q17 -28 40 -14T103 19T177 44Q183 45 205 45Q219 45 227 44T245 37T259 20T264 -12Q264 -33 262 -48T259 -80Q259 -93 260 -95Q271 -110 305 -110Q343 -110 383 -86T443 -33Q491 34 491 154Q491 223 467
249Q428 288 334 288H322Q288 288 237 276L222 273L206 286L262 367Q279 369 303 377T358 403T410 452T431 524Q431 531 431 533T427 545T416 558T392 566T351 571Z" />
<glyph unicode="&#xeffd;" glyph-name="uniEFFD" horiz-adv-x="500" d="M0 0V100H100V0H0ZM400 0V100H500V0H400Z" />
<glyph unicode="&#xeffe;" glyph-name="uniEFFE" horiz-adv-x="300" d="M0 0V100H100V0H0ZM200 0V100H300V0H200Z" />
<glyph unicode="&#xefff;" glyph-name="uniEFFF" horiz-adv-x="100" d="M0 0V100H100V0H0Z" />
</font>
</defs>
</svg>
