<?xml version="1.0" standalone="no"?> <!DOCTYPE svg PUBLIC "-//W3C//DTD SVG 1.0//EN" "http://www.w3.org/TR/2001/REC-SVG-20010904/DTD/svg10.dtd" > <svg xmlns="http://www.w3.org/2000/svg" width="100%" height="100%">
<defs >
<font id="MathJax_Math-Italic" horiz-adv-x="444" ><font-face
    font-family="MathJax_Math"
    units-per-em="1000"
    panose-1="0 0 0 0 0 0 0 0 0 0"
    ascent="984"
    descent="-418"
    alphabetic="0" />
<missing-glyph horiz-adv-x="250" d="M50 0V533H200V0H50ZM100 50H150V483H100V50Z" />
<glyph unicode=" " glyph-name="space" horiz-adv-x="250" />
<glyph unicode="/" glyph-name="slash" horiz-adv-x="778" d="M166 -215T159 -215T147 -212T141 -204T139 -197Q139 -190 144 -183Q157 -157 378 274T602 707Q605 716 618 716Q625 716 630 712T636 703T638 696Q638 691 406 241T170 -212Q166 -215 159 -215Z" />
<glyph unicode="A" glyph-name="A" horiz-adv-x="750" d="M35 11Q37 38 48 46H62Q132 49 164 96Q170 102 345 401T523 704Q530 716 547 716Q548 716 551 716T555 716H572Q578 707 578 706L606 383Q634 60 636 57Q641 46 701 46Q726 46 726 36Q726 34 723 22Q720
7 718 4T704 0Q701 0 690 0T651 1T578 2Q484 2 455 0H443Q437 6 437 9T439 27Q443 40 445 43L449 46H469Q523 49 533 63L521 213H283L249 155Q223 111 216 97T208 74Q208 71 209 68Q217 49 254 46Q272 46 272 35Q272 31 270 22Q267 8 264 4T251 0Q249 0 239 0T205
1T141 2Q70 2 50 0H42Q35 7 35 11ZM516 260Q516 271 504 416T490 562L463 519Q447 492 400 412L310 260L413 259Q516 259 516 260Z" />
<glyph unicode="B" glyph-name="B" horiz-adv-x="759" d="M288 628Q288 635 231 637Q207 637 202 638T195 644Q194 645 194 649Q194 657 197 668T205 682Q206 683 335 683Q594 683 608 681Q671 671 713 636T756 544Q756 480 698 429T565 360L555 357Q619 348 660
311T702 219Q702 146 630 78T453 1Q446 0 242 0Q42 0 39 2Q35 5 35 10Q35 17 37 24Q42 43 47 45Q51 46 62 46H68Q95 46 128 49Q142 52 147 61Q150 65 219 339T288 628ZM649 544Q649 574 634 600T585 634Q578 636 493 637Q473 637 451 637T416 636H403Q388 635 384
626Q382 622 352 506Q352 503 351 500L320 374H401Q482 374 494 376Q554 386 601 434T649 544ZM595 229Q595 273 572 302T512 336Q506 337 429 337Q311 337 310 336Q310 334 293 263T258 122L240 52Q240 48 252 48T333 46Q422 46 429 47Q491 54 543 105T595 229Z"
/>
<glyph unicode="C" glyph-name="C" horiz-adv-x="715" d="M50 252Q50 367 117 473T286 641T490 704Q580 704 633 653Q642 643 648 636T656 626L657 623Q660 623 684 649Q691 655 699 663T715 679T725 690L740 705H746Q760 705 760 698Q760 694 728 561Q692 422
692 421Q690 416 687 415T669 413H653Q647 419 647 422Q647 424 648 430T650 449T651 481Q651 552 619 605T510 659Q484 659 454 652T382 628T299 572T226 479Q194 422 175 346T156 222Q156 108 232 58Q280 24 350 24Q441 24 512 92T606 240Q610 253 612 255T628
257Q640 257 644 256T648 248Q648 245 647 239Q618 132 523 55T319 -22Q206 -22 128 53T50 252Z" />
<glyph unicode="D" glyph-name="D" horiz-adv-x="828" d="M287 628Q287 635 230 637Q206 637 200 638T193 647Q193 650 195 661Q200 680 204 682Q206 683 403 683Q570 682 590 682T630 676Q702 659 752 597T803 431Q803 275 696 151T444 3L430 1L236 0H125Q113
0 96 0T72 0Q49 0 41 2T33 11Q33 13 36 25Q40 41 44 43T67 46Q94 46 127 49Q141 52 146 61Q149 65 218 339T287 628ZM703 469Q703 507 692 537T666 584T629 613T590 629T555 636Q553 636 541 636T512 636T479 637Q469 637 455 637T436 637Q409 637 400 636T386
627Q384 623 313 339T242 52Q242 48 253 48T330 47Q335 47 349 47T373 46Q499 46 581 128Q617 164 640 212T683 339T703 469Z" />
<glyph unicode="E" glyph-name="E" horiz-adv-x="738" d="M322 0Q274 0 212 0T133 0Q94 0 75 0T45 1T33 5T31 11Q31 13 34 25Q38 41 42 43T65 46Q92 46 125 49Q139 52 144 61Q146 66 215 342T285 622Q285 629 281 629Q273 632 228 634H197Q191 640 191 642T193
659Q197 676 203 680H757Q764 676 764 669Q764 664 751 557T737 447Q735 440 717 440H705Q698 446 698 453Q698 453 701 476T704 528Q704 558 697 577T678 608T643 625T596 632T532 634Q525 634 510 634T485 634Q397 633 392 631Q388 629 386 622Q385 619 355 499T324
377Q347 376 372 376Q377 376 385 376T398 376Q433 376 450 378T485 389T513 418T534 472Q538 488 540 490T557 493Q562 493 565 493T570 492T572 491T574 487T577 483L544 351Q511 218 508 216Q505 213 492 213T476 216Q472 218 472 224Q472 228 477 249T482 285Q482
316 461 323T364 330H312Q311 328 277 192T243 52Q243 48 254 48T334 46Q428 46 458 48T518 61Q567 77 599 117T670 248Q680 270 683 272Q690 274 698 274Q718 274 718 261Q613 7 608 2Q605 0 322 0Z" />
<glyph unicode="F" glyph-name="F" horiz-adv-x="643" d="M48 1Q31 1 31 11Q31 13 34 25Q38 41 42 43T65 46Q92 46 125 49Q139 52 144 61Q146 66 215 342T285 622Q285 629 281 629Q273 632 228 634H197Q191 640 191 642T193 659Q197 676 203 680H742Q749 676 749
669Q749 664 736 557T722 447Q720 440 702 440H690Q683 446 683 453Q683 454 686 478T689 530Q689 549 687 563T679 589T666 607T646 620T621 628T589 632T550 633T503 634H480Q398 633 393 631Q388 629 386 623Q385 622 352 492L320 363H375Q378 363 398 363T426
364T448 367T472 374T489 386Q502 398 511 419T524 457T529 475Q532 480 548 480H560Q567 475 567 470Q567 467 536 339T502 207Q500 200 482 200H470Q463 205 463 212Q463 215 468 234T473 274Q473 303 453 310T364 317H309L277 190Q245 66 245 60Q245 46 334
46H359Q365 40 365 39T363 19Q359 6 353 0H336Q295 2 185 2Q120 2 86 2T48 1Z" />
<glyph unicode="G" glyph-name="G" horiz-adv-x="786" d="M50 252Q50 367 117 473T286 641T490 704Q580 704 633 653Q642 643 648 636T656 626L657 623Q660 623 684 649Q691 655 699 663T715 679T725 690L740 705H746Q760 705 760 698Q760 694 728 561Q692 422
692 421Q690 416 687 415T669 413H653Q647 419 647 422Q647 424 648 430T650 449T651 481Q651 552 619 605T510 659Q492 659 471 656T418 643T357 615T294 567T236 496T189 394T158 260Q156 242 156 221Q156 173 170 136T206 79T256 45T308 28T353 24Q407 24 452
47T514 106Q517 114 529 161T541 214Q541 222 528 224T468 227H431Q425 233 425 235T427 254Q431 267 437 273H454Q494 271 594 271Q634 271 659 271T695 272T707 272Q721 272 721 263Q721 259 719 249Q714 230 709 228Q706 227 694 227Q674 227 653 224Q646 221
643 215T629 164Q620 131 614 108Q589 6 586 3Q584 1 581 1Q571 1 553 21T530 52Q530 53 528 52T522 47Q448 -22 322 -22Q201 -22 126 55T50 252Z" />
<glyph unicode="H" glyph-name="H" horiz-adv-x="831" d="M285 628Q285 635 228 637Q204 637 199 638T192 644Q191 645 191 649Q191 657 194 668T202 682Q204 683 219 683Q260 681 355 681Q389 681 418 681T463 682T483 682Q492 682 495 680T499 672Q499 668 497
658Q492 641 487 638H485Q483 638 480 638T473 638T464 637T455 637Q416 636 405 634T387 623Q384 619 355 500Q348 474 340 442T328 395L324 380Q324 378 469 378H614L615 381Q615 384 646 504Q674 619 674 627T617 637Q594 637 587 638T580 648Q580 651 582 660Q586
677 588 679T604 682Q609 682 646 681T740 680Q802 680 835 681T871 682Q888 682 888 672Q888 645 876 638H874Q872 638 869 638T862 638T853 637T844 637Q805 636 794 634T776 623Q773 618 704 340T634 58Q634 51 638 51Q646 48 692 46H723Q729 38 729 37T726
19Q722 6 716 0H701Q664 2 567 2Q533 2 504 2T458 2T437 1Q420 1 420 10Q420 14 423 24Q428 43 433 45Q437 46 448 46H454Q481 46 514 49Q520 50 522 50T528 55T534 64T540 82T547 110T558 153Q565 181 569 198Q602 330 602 331T457 332H312L279 197Q245 63 245
58Q245 51 253 49T303 46H334Q340 38 340 37T337 19Q333 6 327 0H312Q275 2 178 2Q144 2 115 2T69 2T48 1Q31 1 31 10Q31 12 34 24Q39 43 44 45Q48 46 59 46H65Q92 46 125 49Q139 52 144 61Q147 65 216 339T285 628Z" />
<glyph unicode="I" glyph-name="I" horiz-adv-x="440" d="M43 1Q26 1 26 10Q26 12 29 24Q34 43 39 45Q42 46 54 46H60Q120 46 136 53Q137 53 138 54Q143 56 149 77T198 273Q210 318 216 344Q286 624 286 626Q284 630 284 631Q274 637 213 637H193Q184 643 189
662Q192 677 195 680T209 683H213Q285 681 359 681Q481 681 487 683H497Q504 676 504 672T501 655T494 639Q491 637 471 637Q440 637 407 634Q393 631 388 623Q381 609 337 432Q326 385 315 341Q245 65 245 59Q245 52 255 50T307 46H339Q345 38 345 37T342 19Q338
6 332 0H316Q279 2 179 2Q143 2 113 2T65 2T43 1Z" />
<glyph unicode="J" glyph-name="J" horiz-adv-x="555" d="M447 625Q447 637 354 637H329Q323 642 323 645T325 664Q329 677 335 683H352Q393 681 498 681Q541 681 568 681T605 682T619 682Q633 682 633 672Q633 670 630 658Q626 642 623 640T604 637Q552 637 545
623Q541 610 483 376Q420 128 419 127Q397 64 333 21T195 -22Q137 -22 97 8T57 88Q57 130 80 152T132 174Q177 174 182 130Q182 98 164 80T123 56Q115 54 115 53T122 44Q148 15 197 15Q235 15 271 47T324 130Q328 142 387 380T447 625Z" />
<glyph unicode="K" glyph-name="K" horiz-adv-x="849" d="M285 628Q285 635 228 637Q204 637 198 638T191 647Q191 650 193 661Q194 664 195 668T196 673T198 677T200 680T202 681T205 683T209 683T214 683H219Q260 681 355 681Q389 681 418 681T463 682T483 682Q500
682 500 674Q500 670 497 660Q496 658 496 654T495 648T493 644T490 641T486 639T479 638T470 637T456 637Q416 636 405 634T387 623L306 305Q307 305 490 449T678 597Q692 611 692 620Q692 635 667 637Q651 637 651 648Q651 650 654 662T659 677Q662 682 676 682Q680
682 711 681T791 680Q814 680 839 681T869 682Q881 682 885 680T889 672Q889 650 881 642Q878 637 862 637Q787 632 726 586Q710 576 656 534T556 455L509 418L518 396Q527 374 546 329T581 244Q656 67 661 61Q663 59 666 57Q680 47 717 46H738Q744 38 744 37T741
19Q737 6 731 0H720Q680 3 625 3Q503 3 488 0H478Q472 6 472 9T474 27Q477 40 480 43T491 46Q491 46 492 46T494 46Q544 46 544 71Q544 75 517 141T485 216L427 354L359 301L291 248L268 155Q245 63 245 58Q245 51 253 49T303 46H334Q340 37 340 35Q340 19 333
5Q328 0 317 0Q314 0 280 1T180 2Q118 2 85 2T49 1Q31 1 31 11Q31 13 34 25Q38 41 42 43T65 46Q92 46 125 49Q139 52 144 61Q147 65 216 339T285 628Z" />
<glyph unicode="L" glyph-name="L" horiz-adv-x="681" d="M285 628Q285 635 228 637Q204 637 199 638T192 644Q191 645 191 649Q191 657 194 668T202 682Q204 683 217 683Q271 680 344 680Q485 680 506 683H518Q524 677 524 674T522 656Q517 641 513 637H475Q406
636 394 628Q387 624 380 600T313 336Q297 271 279 198T252 88L243 52Q243 48 252 48T311 46Q314 46 319 46T328 46Q360 46 379 47T428 54T479 72T523 106T564 161Q580 191 594 228T611 270Q616 273 628 273H641Q647 264 647 262T627 203T583 83T557 9Q555 5 554
4T547 2T529 0T494 -1Q483 -1 418 -1T294 0Q247 0 189 0T116 0Q83 0 67 0T43 1T33 4T32 10Q32 17 34 24Q39 43 44 45Q48 46 59 46H65Q92 46 125 49Q139 52 144 61Q147 65 216 339T285 628Z" />
<glyph unicode="M" glyph-name="M" horiz-adv-x="970" d="M289 629Q289 635 232 637Q208 637 201 638T194 648Q194 651 196 659Q197 662 198 667T200 673T202 677T205 680T211 682T220 683T232 684Q238 684 262 684T307 683Q386 683 398 683T414 678Q415 674 451
396L487 117L510 154Q534 190 574 254T662 394Q837 673 839 675Q840 676 842 678T846 681L852 683H948Q966 683 988 683T1017 684Q1038 684 1044 682T1051 673Q1051 668 1048 656T1045 643Q1041 637 1008 637Q968 636 957 634T939 623Q936 618 867 340T797 59Q797
55 798 54T805 50T822 48T855 46H886Q892 37 892 35Q892 19 885 5Q880 0 869 0Q864 0 828 1T736 2Q675 2 644 2T609 1Q592 1 592 11Q592 14 594 25Q598 41 602 43T625 46Q652 46 685 49Q699 52 704 61Q706 65 742 207T813 490T848 631L654 322Q458 10 453 5Q451
4 449 3Q444 0 433 0Q418 0 415 7Q413 11 374 317L335 624L267 354Q200 88 200 79Q206 46 272 46H282Q288 41 289 37T286 19Q282 3 278 1Q274 0 267 0Q265 0 255 0T221 1T157 2Q127 2 95 1T58 0Q44 0 40 2T35 11Q35 13 38 25T43 40Q45 46 65 46Q135 46 154 86Q158
92 223 354T289 629Z" />
<glyph unicode="N" glyph-name="N" horiz-adv-x="803" d="M46 1Q31 1 31 10Q31 14 34 26T39 40Q41 46 62 46Q130 49 150 85Q154 91 221 362L289 634Q287 635 234 637Q204 637 199 638T192 644Q191 645 191 649Q191 657 194 668T202 682Q204 683 299 683Q376 683
387 683T401 677Q401 676 415 644T456 548T508 425Q614 173 616 168L670 381Q723 592 723 606Q723 633 659 637Q645 637 640 639T635 648Q635 652 637 660Q641 676 643 679T653 683Q656 683 684 682T767 680Q817 680 843 681T873 682Q888 682 888 672Q888 650 880
642Q878 637 858 637Q787 633 769 597L620 7Q618 0 599 0Q585 0 582 2Q579 5 453 305L326 604L261 344Q196 88 196 79Q201 46 268 46H278Q284 41 284 38T282 19Q278 6 272 0H259Q228 2 151 2Q123 2 100 2T63 2T46 1Z" />
<glyph unicode="O" glyph-name="O" horiz-adv-x="763" d="M740 435Q740 320 676 213T511 42T304 -22Q207 -22 138 35T51 201Q50 209 50 244Q50 346 98 438T227 601Q351 704 476 704Q514 704 524 703Q621 689 680 617T740 435ZM637 476Q637 565 591 615T476 665Q396
665 322 605Q242 542 200 428T157 216Q157 126 200 73T314 19Q404 19 485 98T608 313Q637 408 637 476Z" />
<glyph unicode="P" glyph-name="P" horiz-adv-x="642" d="M287 628Q287 635 230 637Q206 637 199 638T192 648Q192 651 194 659Q200 679 203 681T397 683Q587 682 600 680Q664 669 707 631T751 530Q751 453 685 389Q616 321 507 303Q500 302 402 301H307L277 182Q247
66 247 59Q247 55 248 54T255 50T272 48T305 46H336Q342 37 342 35Q342 19 335 5Q330 0 319 0Q316 0 282 1T182 2Q120 2 87 2T51 1Q33 1 33 11Q33 13 36 25Q40 41 44 43T67 46Q94 46 127 49Q141 52 146 61Q149 65 218 339T287 628ZM645 554Q645 567 643 575T634
597T609 619T560 635Q553 636 480 637Q463 637 445 637T416 636T404 636Q391 635 386 627Q384 621 367 550T332 412T314 344Q314 342 395 342Q400 342 407 342Q410 342 418 342T430 342Q463 342 486 344T539 358T590 392Q617 419 631 471T645 554Z" />
<glyph unicode="Q" glyph-name="Q" horiz-adv-x="791" d="M399 -80Q399 -47 400 -30T402 -11V-7L387 -11Q341 -22 303 -22Q208 -22 138 35T51 201Q50 209 50 244Q50 346 98 438T227 601Q351 704 476 704Q514 704 524 703Q621 689 680 617T740 435Q740 255 592
107Q529 47 461 16L444 8V3Q444 2 449 -24T470 -66T516 -82Q551 -82 583 -60T625 -3Q631 11 638 11Q647 11 649 2Q649 -6 639 -34T611 -100T557 -165T481 -194Q399 -194 399 -87Q399 -85 399 -83T399 -80ZM636 468Q636 523 621 564T580 625T530 655T477 665Q429
665 379 640Q277 591 215 464T153 216Q153 110 207 59Q231 38 236 38V46Q236 86 269 120T347 155Q372 155 390 144T417 114T429 82T435 55L448 64Q512 108 557 185T619 334T636 468ZM314 18Q362 18 404 39L403 49Q399 104 366 115Q354 117 347 117Q344 117 341
117T337 118Q317 118 296 98T274 52Q274 18 314 18Z" />
<glyph unicode="R" glyph-name="R" horiz-adv-x="759" d="M287 628Q287 635 230 637Q206 637 201 638T194 644Q193 645 193 649Q193 657 196 668T204 682Q206 683 378 683Q550 682 564 680Q620 672 658 652T712 606T733 563T739 529Q739 484 710 445T643 385T576
351T538 338L545 333Q612 295 612 223Q612 212 607 162T602 80Q602 79 602 76T602 71Q602 53 603 43T614 25T640 16Q668 16 686 38T712 85Q717 99 720 102T735 105Q755 105 755 93Q755 75 731 36Q692 -21 641 -21Q638 -21 635 -21T632 -21Q571 -21 531 4T487 82Q487
109 502 166T517 239Q517 290 474 313Q459 320 449 321T378 323H309L277 193Q244 61 244 59Q244 55 245 54T252 50T269 48T302 46H333Q339 38 339 37T336 19Q332 6 326 0H311Q275 2 180 2Q146 2 117 2T71 2T50 1Q33 1 33 10Q33 12 36 24Q41 43 46 45Q50 46 61 46H67Q94
46 127 49Q141 52 146 61Q149 65 218 339T287 628ZM630 554Q630 586 609 608T523 636Q521 636 500 636T462 637Q458 637 451 637T440 637Q412 637 401 636T386 627Q385 624 352 494T319 361Q319 360 388 360Q466 361 492 367Q556 377 592 426Q608 449 619 486T630
554Z" />
<glyph unicode="S" glyph-name="S" horiz-adv-x="613" d="M308 24Q367 24 416 76T466 197Q466 260 414 284Q308 311 278 321T236 341Q176 383 176 462Q176 523 208 573T273 648Q302 673 343 688T407 704H418Q419 704 421 704T425 704Q521 704 564 640Q565 640
577 653T603 682T623 704Q624 704 627 704T632 705Q645 705 645 698T617 577T585 459T569 456Q549 456 549 465Q549 471 550 475Q550 478 551 494T553 520Q553 554 544 579T526 616T501 641Q465 662 419 662Q362 662 313 616T263 510Q263 480 278 458T319 427Q323
425 389 408T456 390Q490 379 522 342T554 242Q554 216 546 186Q541 164 528 137T492 78T426 18T332 -20Q320 -22 298 -22Q199 -22 144 33L134 44L106 13Q83 -14 78 -18T65 -22Q52 -22 52 -14Q52 -11 110 221Q112 227 130 227H143Q149 221 149 216Q149 214 148
207T144 186T142 153Q144 114 160 87T203 47T255 29T308 24Z" />
<glyph unicode="T" glyph-name="T" horiz-adv-x="584" d="M40 437Q21 437 21 445Q21 450 37 501T71 602L88 651Q93 669 101 677H398H569Q592 677 622 677T659 677Q690 677 697 676T704 667Q704 661 687 553T668 444Q668 437 649 437Q640 437 637 437T631 442L629
445Q629 451 635 490T641 551Q641 586 628 604T573 629Q568 630 515 631Q469 631 457 630T439 622Q438 621 368 343T298 60Q298 48 386 46Q418 46 427 45T436 36Q436 33 433 22Q429 4 424 1L422 0Q419 0 415 0Q410 0 363 1T228 2Q99 2 64 0H49Q43 6 43 9T45 27Q49
40 55 46H83Q84 46 87 46T94 46Q175 46 189 55Q190 56 191 56Q196 59 201 76T241 233Q258 301 269 344Q339 619 339 625Q339 630 310 630H279Q212 630 191 624Q146 614 121 583T67 467Q60 445 57 441T43 437H40Z" />
<glyph unicode="U" glyph-name="U" horiz-adv-x="683" d="M164 628Q164 635 107 637Q83 637 78 638T71 644Q70 645 70 649Q70 657 73 668T81 682Q83 683 98 683Q139 681 234 681Q268 681 297 681T342 682T362 682Q371 682 374 680T378 672Q378 668 376 658Q371
641 366 638H364Q362 638 359 638T352 638T343 637T334 637Q295 636 284 634T266 623Q265 621 238 518T184 302T154 169Q152 155 152 140Q152 87 183 56Q202 37 233 28Q248 24 269 24Q336 24 403 69T501 205L552 406Q599 598 599 606Q599 633 535 637Q521 637 516
639T511 648Q511 652 513 660Q517 676 519 679T529 683Q532 683 561 682T645 680Q696 680 723 681T752 682Q767 682 767 672Q767 650 759 642Q756 637 737 637Q666 633 648 597Q646 592 598 404Q557 235 548 205Q515 105 433 42T263 -22Q171 -22 116 34T60 167Q60
171 60 176T60 183Q60 201 92 330Q106 385 115 421Q164 622 164 628Z" />
<glyph unicode="V" glyph-name="V" horiz-adv-x="583" d="M52 648Q52 670 65 683H76Q118 680 181 680Q299 680 320 683H330Q336 677 336 674T334 656Q329 641 325 637H304Q282 635 274 635Q245 630 242 620Q242 618 271 369T301 118L374 235Q447 352 520 471T595
594Q599 602 599 609Q599 632 555 637Q545 637 541 639T537 648Q537 652 539 661Q542 675 545 679T558 683Q560 683 570 683T604 682T668 681Q737 681 755 683H762Q769 676 769 672Q769 655 760 640Q757 637 743 637Q730 636 719 635T698 630T682 623T670 615T660
608T652 599T645 592L452 282Q272 -9 266 -16Q263 -18 259 -21L241 -22Q240 -22 238 -22T234 -22Q216 -22 216 -15Q213 -9 177 305Q139 623 138 626Q133 637 76 637H59Q52 642 52 648Z" />
<glyph unicode="W" glyph-name="W" horiz-adv-x="944" d="M51 648Q52 671 64 683H76Q118 680 176 680Q301 680 313 683H323Q329 677 329 674T327 656Q322 641 318 637H297Q236 634 232 620Q262 160 266 136L501 550L499 587Q496 629 489 632Q483 636 447 637Q428
637 422 638T416 648Q416 651 418 660Q419 663 420 667T421 672T422 676T424 680T426 682T430 683T436 683T458 682Q492 680 553 680Q604 680 638 681T677 682Q687 682 691 681T695 674Q695 670 692 659Q687 641 683 639T661 637Q636 636 621 632T600 624T597 615Q597
603 613 377T629 138L631 141Q633 144 637 151T649 170T666 200T690 241T720 295T759 362Q863 546 877 572T892 604Q892 619 873 628T831 637Q817 637 817 647Q817 651 819 660Q823 676 825 679T839 682Q842 682 856 682T895 682T949 681Q1015 681 1034 683Q1048
683 1048 672Q1048 666 1045 655T1038 640T1028 637Q1006 637 988 631T958 617T939 600T927 584L923 578L754 282Q586 -14 585 -15Q579 -22 561 -22Q546 -22 542 -17Q539 -14 523 229T506 480L494 462Q472 425 366 239Q222 -13 220 -15T215 -19Q210 -22 197 -22Q178
-22 176 -15Q176 -12 154 304T131 622Q129 631 121 633T82 637H58Q51 644 51 648Z" />
<glyph unicode="X" glyph-name="X" horiz-adv-x="828" d="M42 0Q42 0 42 0T40 0Q26 0 26 11Q26 15 29 27Q33 41 36 43T55 46Q141 49 190 98Q200 108 306 224T411 342Q302 620 297 625Q288 636 234 637H206Q200 643 200 645T202 664Q206 677 212 683H226Q260 681
347 681Q380 681 408 681T453 682T473 682Q483 682 486 680T490 671Q490 667 488 658Q484 643 481 640T465 637Q434 634 411 620L488 426L541 485Q646 598 646 610Q646 627 622 635Q617 635 609 637Q594 637 594 648Q594 654 596 664Q600 677 606 683H618Q619 683
643 683T697 681T738 680Q828 680 837 683H845Q852 676 852 672Q850 647 840 637H824Q790 636 763 628T722 611T698 593L687 584Q687 585 592 480L505 384L507 380Q631 63 638 56Q648 47 699 46Q721 46 727 45T734 37Q734 34 732 23Q728 7 725 4T711 1Q708 1 678
1T589 2Q528 2 496 2T461 1Q444 1 444 10Q444 13 446 25Q448 35 450 39T455 44T464 46T480 47T506 54Q523 62 523 64Q522 64 476 181L429 299Q241 95 236 84Q232 76 232 72Q232 53 261 47Q262 47 267 47T273 46Q277 46 279 46T282 43T284 35Q284 29 282 19Q279
6 276 4T261 1Q258 1 243 1T201 2T142 2Q64 2 42 0Z" />
<glyph unicode="Y" glyph-name="Y" horiz-adv-x="581" d="M66 637Q54 637 49 637T39 638T32 641T30 647T33 664T42 682Q44 683 56 683Q104 680 165 680Q288 680 306 683H316Q322 677 322 674T320 656Q316 643 310 637H298Q242 637 242 624Q242 619 292 477T343
333L346 336Q350 340 358 349T379 373T411 410T454 461Q546 568 561 587T577 618Q577 634 545 637Q528 637 528 647Q528 651 530 661Q533 676 535 679T549 683Q551 683 578 682T657 680Q685 680 714 681T746 682Q756 682 759 680T763 673Q763 669 760 657T755 643Q753
637 734 637Q662 632 617 587Q608 578 477 424L348 273L322 169Q295 62 295 57Q295 46 363 46Q375 46 379 46T386 43T390 35Q390 31 388 23Q384 6 382 4T366 1Q361 1 324 1T232 2Q170 2 138 2T102 1Q92 1 88 2T84 9Q84 13 87 24Q88 27 89 30T90 35T91 39T93 42T96
44T101 45T107 45T116 46T129 46Q168 47 180 50T198 63Q201 68 227 171L252 274L129 623Q128 624 127 625T125 627T122 629T118 631T113 633T105 634T96 635T83 636T66 637Z" />
<glyph unicode="Z" glyph-name="Z" horiz-adv-x="683" d="M58 8Q58 23 64 35Q64 36 329 334T596 635L586 637Q575 637 512 637Q507 637 500 637Q496 637 488 637T476 637Q442 637 420 635T365 624T311 598T266 548T228 469Q227 466 226 463T224 458T223 453T222
450L221 448Q218 443 202 443Q185 443 182 453L214 561Q228 606 241 651Q249 679 253 681Q256 683 487 683H718Q723 678 723 675Q723 673 717 649Q189 54 188 52L185 49H274Q369 50 377 51Q452 60 500 100T579 247Q587 272 590 277T603 282H607Q628 282 628 271Q547
5 541 2Q538 0 300 0Q251 0 193 0T124 0Q98 0 86 0T67 1T59 3T58 8Z" />
<glyph unicode="a" glyph-name="a" horiz-adv-x="529" d="M33 157Q33 258 109 349T280 441Q331 441 370 392Q386 422 416 422Q429 422 439 414T449 394Q449 381 412 234T374 68Q374 43 381 35T402 26Q411 27 422 35Q443 55 463 131Q469 151 473 152Q475 153 483
153H487Q506 153 506 144Q506 138 501 117T481 63T449 13Q436 0 417 -8Q409 -10 393 -10Q359 -10 336 5T306 36L300 51Q299 52 296 50Q294 48 292 46Q233 -10 172 -10Q117 -10 75 30T33 157ZM351 328Q351 334 346 350T323 385T277 405Q242 405 210 374T160 293Q131
214 119 129Q119 126 119 118T118 106Q118 61 136 44T179 26Q217 26 254 59T298 110Q300 114 325 217T351 328Z" />
<glyph unicode="b" glyph-name="b" horiz-adv-x="429" d="M173 -11Q123 -11 82 27T40 150Q40 152 40 155T40 159Q40 180 48 215T97 414Q147 614 147 623Q147 630 141 632Q133 636 101 637H96Q82 637 78 638T73 647Q73 653 76 664Q82 683 89 683Q90 683 99 684T126
686T161 688Q176 689 195 690T223 693T234 694Q246 694 246 685T212 542Q204 508 195 472T180 418L176 399Q176 396 182 402Q231 442 283 442Q345 442 383 396T422 280Q422 169 343 79T173 -11ZM336 325Q336 326 336 327T336 331Q336 405 275 405Q258 405 240 397T207
376T181 352T163 330L157 322L136 236Q114 150 114 114Q114 66 138 42Q154 26 178 26Q211 26 245 58Q270 81 285 114T318 219Q336 291 336 325Z" />
<glyph unicode="c" glyph-name="c" horiz-adv-x="433" d="M34 159Q34 268 120 355T306 442Q362 442 394 418T427 355Q427 326 408 306T360 285Q341 285 330 295T319 325T330 359T352 380T366 386Q367 386 367 386Q367 388 361 392T341 400T306 404Q276 404 249
390Q228 381 206 359Q162 315 142 235T121 119Q121 73 147 50Q169 26 205 26Q206 26 207 26T209 26Q321 26 394 111Q403 121 406 121Q410 121 419 112T429 98T420 83T391 55T346 25T282 0T202 -11Q127 -11 81 37T34 159Z" />
<glyph unicode="d" glyph-name="d" horiz-adv-x="520" d="M424 616Q424 629 417 632T378 637H357Q351 643 351 645T353 664Q358 683 366 683Q367 683 376 684T403 686T438 688Q453 689 472 690T500 693T511 694Q523 694 523 686Q523 679 450 384T375 83T374 68Q374
26 402 26Q411 27 422 35Q443 55 463 131Q469 151 473 152Q475 153 483 153H487Q488 153 489 153T491 153Q499 153 502 152T506 145Q506 140 503 129Q490 79 473 48T445 8T417 -8Q409 -10 393 -10Q359 -10 336 5T306 36L300 51Q299 52 296 50Q294 48 292 46Q233
-10 172 -10Q117 -10 75 30T33 157Q33 205 53 255T101 341Q148 398 195 420T280 442Q336 442 364 400Q369 394 369 396Q370 400 396 505T424 616ZM352 326Q329 405 277 405Q242 405 210 374T160 293Q131 214 119 129Q119 126 119 118T118 106Q118 61 136 44T179
26Q233 26 290 98L298 109L352 326Z" />
<glyph unicode="e" glyph-name="e" horiz-adv-x="466" d="M39 168Q39 225 58 272T107 350T174 402T244 433T307 442H310Q355 442 388 420T421 355Q421 265 310 237Q261 224 176 223Q139 223 138 221Q138 219 132 186T125 128Q125 81 146 54T209 26T302 45T394
111Q403 121 406 121Q410 121 419 112T429 98T420 82T390 55T344 24T281 -1T205 -11Q126 -11 83 42T39 168ZM373 353Q367 405 305 405Q272 405 244 391T199 357T170 316T154 280T149 261Q149 260 169 260Q282 260 327 284T373 353Z" />
<glyph unicode="f" glyph-name="f" horiz-adv-x="490" d="M118 -162Q120 -162 124 -164T135 -167T147 -168Q160 -168 171 -155T187 -126Q197 -99 221 27T267 267T289 382V385H242Q195 385 192 387Q188 389 188 397Q188 402 189 409T193 421L195 425Q197 430 203
430T250 431Q298 431 298 432Q298 434 307 482T319 540Q356 705 465 705Q502 703 526 683T550 630Q550 594 529 578T487 561Q443 561 443 603Q443 622 454 636T478 657L487 662Q471 668 457 668Q445 668 434 658T419 630Q412 601 403 552T387 469T380 433Q380 431
435 431Q480 431 487 430T498 424Q499 420 496 407T491 391Q489 386 482 386T428 385H372L349 263Q301 15 282 -47Q255 -132 212 -173Q175 -205 139 -205Q107 -205 81 -186T55 -132Q55 -95 76 -78T118 -61Q162 -61 162 -103Q162 -122 151 -136T127 -157L118 -162Z"
/>
<glyph unicode="g" glyph-name="g" horiz-adv-x="477" d="M66 160Q66 265 143 353T314 442Q361 442 401 394L404 398Q406 401 409 404T418 412T431 419T447 422Q461 422 470 413T480 394Q480 379 423 152T363 -80Q345 -134 286 -169T151 -205Q10 -205 10 -137Q10
-111 28 -91T74 -71Q89 -71 102 -80T116 -111Q116 -126 110 -138T97 -157T90 -164Q90 -164 91 -164Q101 -167 151 -167Q189 -167 211 -155Q234 -144 254 -122T282 -75Q288 -56 298 -13Q311 35 311 43Q279 14 231 2Q219 0 206 0Q143 0 105 45T66 160ZM384 328L380
339Q377 350 375 354T369 368T359 382T346 393T328 402T306 405Q262 405 221 352Q191 313 171 233T151 117Q151 38 213 38Q269 38 323 108L331 118L384 328Z" />
<glyph unicode="h" glyph-name="h" horiz-adv-x="576" d="M195 616Q195 629 188 632T149 637H128Q122 643 122 645T124 664Q129 683 137 683Q138 683 147 684T174 686T209 688Q224 689 243 690T271 693T282 694Q294 694 294 685Q294 674 258 534Q220 386 220 383Q220
381 227 388Q288 442 357 442Q411 442 444 415T478 336Q478 285 440 178T402 50Q403 36 407 31T422 26Q450 26 474 56T513 138Q516 149 519 151T535 153Q555 153 555 145Q555 144 551 130Q535 71 500 33Q465 -10 419 -10Q418 -10 416 -10T414 -10Q367 -10 346 17T325
74Q325 90 361 192T398 345Q398 404 354 404Q353 404 352 404T349 404Q266 404 205 306L198 293L164 158Q132 28 127 16Q114 -11 83 -11Q69 -11 59 -2T48 16Q48 30 121 320L195 616Z" />
<glyph unicode="i" glyph-name="i" horiz-adv-x="345" d="M184 600Q184 624 203 642T247 661Q265 661 277 649T290 619Q290 596 270 577T226 557Q211 557 198 567T184 600ZM21 287Q21 295 30 318T54 369T98 420T158 442Q197 442 223 419T250 357Q250 340 236 301T196
196T154 83Q149 61 149 51Q149 26 166 26Q175 26 185 29T208 43T235 78T260 137Q263 149 265 151T282 153Q302 153 302 143Q302 135 293 112T268 61T223 11T161 -11Q129 -11 102 10T74 74Q74 91 79 106T122 220Q160 321 166 341T173 380Q173 404 156 404Q155 404
154 404Q124 404 99 371T61 287Q60 286 59 284T58 281T56 279T53 278T49 278T41 278H27Q21 284 21 287Z" />
<glyph unicode="j" glyph-name="j" horiz-adv-x="412" d="M297 596Q297 627 318 644T361 661Q378 661 389 651T403 623Q403 595 384 576T340 557Q322 557 310 567T297 596ZM288 376Q288 405 262 405Q240 405 220 393T185 362T161 325T144 293L137 279Q135 278
121 278H107Q101 284 101 286T105 299Q126 348 164 391T252 441Q253 441 260 441T272 442Q296 441 316 432Q337 420 347 408T366 371Q367 365 367 348V332L318 133Q267 -67 264 -75Q246 -125 194 -164T75 -204Q25 -204 7 -183T-12 -137Q-12 -110 7 -91T53 -71Q70
-71 82 -81T95 -112Q95 -148 63 -167Q69 -168 77 -168Q111 -168 139 -140T182 -74L193 -32Q204 11 219 72T251 197T278 308T289 365Q289 372 288 376Z" />
<glyph unicode="k" glyph-name="k" horiz-adv-x="521" d="M83 -11Q66 -11 57 -1T48 16Q48 26 85 176T158 471L195 616Q196 629 188 632T149 637H144Q130 637 126 638T121 647Q121 653 124 664Q130 683 137 683Q138 683 147 684T174 686T209 688Q224 689 243 690T271
693T282 694Q294 694 294 686Q294 679 244 477Q194 279 194 272Q213 282 223 291Q247 309 292 354T362 415Q402 442 438 442Q468 442 485 423T503 369Q503 344 496 327T477 302T456 291T438 288Q418 288 406 299T394 328Q394 353 410 369T442 390L458 393Q457 394
455 396T452 399T449 401T445 403T440 404T434 405Q432 405 430 405Q398 402 367 380T294 316T228 255Q230 254 243 252T267 246T293 238T320 224T342 206T359 180T365 147Q365 130 360 106T354 66Q354 26 381 26Q429 26 459 145Q461 153 479 153Q480 153 481 153T483
153Q488 153 491 153T496 150T499 144Q499 139 496 130Q455 -11 378 -11Q333 -11 305 15T277 90Q277 108 280 121T283 145Q283 167 269 183T234 206T200 217T182 220H180Q168 178 159 139T145 81T136 44T129 20T122 7T111 -2Q98 -11 83 -11Z" />
<glyph unicode="l" glyph-name="l" horiz-adv-x="298" d="M137 -11Q101 -11 70 11T38 85Q38 97 39 102L104 360Q111 389 118 419T131 470T141 510T150 544T156 570T161 591T164 606T166 617T167 623Q167 630 161 632Q153 636 122 637Q105 637 100 638T94 647Q94
651 96 661Q101 680 107 682T179 688Q194 689 213 690T243 693T254 694Q266 694 266 686Q266 675 193 386T118 83Q118 81 118 75T117 65Q117 64 117 63T117 59Q117 36 131 28Q137 26 142 26Q179 26 205 131Q211 151 215 152Q217 153 225 153H229Q238 153 241 153T246
151T248 144Q247 138 245 128T234 90T214 43T183 6T137 -11Z" />
<glyph unicode="m" glyph-name="m" horiz-adv-x="878" d="M21 287Q22 293 24 303T36 341T56 388T88 425T132 442T175 435T205 417T221 395T229 376L231 369Q231 367 232 367L243 378Q303 442 384 442Q401 442 415 440T441 433T460 423T475 411T485 398T493 385T497
373T500 364T502 357L510 367Q573 442 659 442Q713 442 746 415T780 336Q780 285 742 178T704 50Q705 36 709 31T724 26Q752 26 776 56T815 138Q818 149 821 151T837 153Q857 153 857 145Q857 144 853 130Q845 101 831 73T785 17T716 -10Q669 -10 648 17T627 73Q627
92 663 193T700 345Q700 404 656 404Q655 404 654 404T651 404Q565 404 506 303L499 291L466 157Q433 26 428 16Q415 -11 385 -11Q372 -11 364 -4T353 8T350 18Q350 29 384 161L420 307Q423 322 423 345Q423 404 379 404Q378 404 377 404T374 404Q288 404 229 303L222
291L189 157Q156 26 151 16Q138 -11 108 -11Q95 -11 87 -5T76 7T74 17Q74 30 112 181Q151 335 151 342Q154 357 154 369Q154 405 129 405Q107 405 92 377T69 316T57 280Q55 278 41 278H27Q21 284 21 287Z" />
<glyph unicode="n" glyph-name="n" horiz-adv-x="600" d="M21 287Q22 293 24 303T36 341T56 388T89 425T135 442Q171 442 195 424T225 390T231 369Q231 367 232 367L243 378Q304 442 382 442Q436 442 469 415T503 336T465 179T427 52Q427 39 430 33T444 26Q448
26 453 27Q482 32 505 65T540 145Q542 153 560 153Q580 153 580 145Q580 144 576 130Q568 101 554 73T508 17T439 -10Q392 -10 371 17T350 73Q350 92 386 193T423 345Q423 404 379 404Q378 404 377 404T374 404Q288 404 229 303L222 291L189 157Q156 26 151 16Q138
-11 108 -11Q95 -11 87 -5T76 7T74 17Q74 30 112 180T152 343Q153 348 153 366Q153 405 129 405Q91 405 66 305Q60 285 60 284Q58 278 41 278H27Q21 284 21 287Z" />
<glyph unicode="o" glyph-name="o" horiz-adv-x="485" d="M201 -11Q126 -11 80 38T34 156Q34 221 64 279T146 380Q222 441 301 441Q333 441 341 440Q354 437 367 433T402 417T438 387T464 338T476 268Q476 161 390 75T201 -11ZM121 120Q121 70 147 48T206 26Q250
26 289 58T351 142Q360 163 374 216T388 308Q388 352 370 375Q346 405 306 405Q243 405 195 347Q158 303 140 230T121 120Z" />
<glyph unicode="p" glyph-name="p" horiz-adv-x="503" d="M23 287Q24 290 25 295T30 317T40 348T55 381T75 411T101 433T134 442Q209 442 230 378L240 387Q302 442 358 442Q423 442 460 395T497 281Q497 173 421 82T249 -10Q227 -10 210 -4Q199 1 187 11T168 28L161
36Q160 35 139 -51T118 -138Q118 -144 126 -145T163 -148H188Q194 -155 194 -157T191 -175Q188 -187 185 -190T172 -194Q170 -194 161 -194T127 -193T65 -192Q-5 -192 -24 -194H-32Q-39 -187 -39 -183Q-37 -156 -26 -148H-6Q28 -147 33 -136Q36 -130 94 103T155
350Q156 355 156 364Q156 405 131 405Q109 405 94 377T71 316T59 280Q57 278 43 278H29Q23 284 23 287ZM178 102Q200 26 252 26Q282 26 310 49T356 107Q374 141 392 215T411 325Q411 326 411 327T411 331Q411 405 350 405Q339 405 328 402T306 393T286 380T269
365T254 350T243 336T235 326L232 322Q232 321 229 308T218 264T204 212Q178 106 178 102Z" />
<glyph unicode="q" glyph-name="q" horiz-adv-x="446" d="M33 157Q33 258 109 349T280 441Q340 441 372 389Q373 390 377 395T388 406T404 418Q438 442 450 442Q454 442 457 439T460 434Q460 425 391 149Q320 -135 320 -139Q320 -147 365 -148H390Q396 -156 396
-157T393 -175Q389 -188 383 -194H370Q339 -192 262 -192Q234 -192 211 -192T174 -192T157 -193Q143 -193 143 -185Q143 -181 145 -170Q149 -154 152 -151T172 -148Q220 -148 230 -141Q238 -136 258 -53T279 32Q279 33 272 29Q224 -10 172 -10Q117 -10 75 30T33
157ZM352 326Q329 405 277 405Q242 405 210 374T160 293Q131 214 119 129Q119 126 119 118T118 106Q118 61 136 44T179 26Q233 26 290 98L298 109L352 326Z" />
<glyph unicode="r" glyph-name="r" horiz-adv-x="451" d="M21 287Q22 290 23 295T28 317T38 348T53 381T73 411T99 433T132 442Q161 442 183 430T214 408T225 388Q227 382 228 382T236 389Q284 441 347 441Q347 441 348 441T350 441Q398 441 422 400Q430 381 430
363Q430 333 417 315T391 292T366 288Q346 288 334 299T322 328Q322 376 378 392Q356 405 342 405Q286 405 239 331Q229 315 224 298T190 165Q156 25 151 16Q138 -11 108 -11Q95 -11 87 -5T76 7T74 17Q74 30 114 189T154 366Q154 405 128 405Q107 405 92 377T68
316T57 280Q55 278 41 278H27Q21 284 21 287Z" />
<glyph unicode="s" glyph-name="s" horiz-adv-x="469" d="M131 289Q131 321 147 354T203 415T300 442Q362 442 390 415T419 355Q419 323 402 308T364 292Q351 292 340 300T328 326Q328 342 337 354T354 372T367 378Q368 378 368 379Q368 382 361 388T336 399T297
405Q249 405 227 379T204 326Q204 301 223 291T278 274T330 259Q396 230 396 163Q396 135 385 107T352 51T289 7T195 -10Q118 -10 86 19T53 87Q53 126 74 143T118 160Q133 160 146 151T160 120Q160 94 142 76T111 58Q109 57 108 57T107 55Q108 52 115 47T146 34T201
27Q237 27 263 38T301 66T318 97T323 122Q323 150 302 164T254 181T195 196T148 231Q131 256 131 289Z" />
<glyph unicode="t" glyph-name="t" horiz-adv-x="361" d="M26 385Q19 392 19 395Q19 399 22 411T27 425Q29 430 36 430T87 431H140L159 511Q162 522 166 540T173 566T179 586T187 603T197 615T211 624T229 626Q247 625 254 615T261 596Q261 589 252 549T232 470L222
433Q222 431 272 431H323Q330 424 330 420Q330 398 317 385H210L174 240Q135 80 135 68Q135 26 162 26Q197 26 230 60T283 144Q285 150 288 151T303 153Q304 153 305 153T307 153Q322 153 322 145Q322 141 319 133Q314 117 301 95T267 48T216 6T155 -11Q125 -11
98 4T59 56Q57 64 57 83V101L92 241Q127 382 128 383Q128 385 77 385H26Z" />
<glyph unicode="u" glyph-name="u" horiz-adv-x="572" d="M21 287Q21 295 30 318T55 370T99 420T158 442Q204 442 227 417T250 358Q250 340 216 246T182 105Q182 62 196 45T238 27T291 44T328 78L339 95Q341 99 377 247Q407 367 413 387T427 416Q444 431 463 431Q480
431 488 421T496 402L420 84Q419 79 419 68Q419 43 426 35T447 26Q469 29 482 57T512 145Q514 153 532 153Q551 153 551 144Q550 139 549 130T540 98T523 55T498 17T462 -8Q454 -10 438 -10Q372 -10 347 46Q345 45 336 36T318 21T296 6T267 -6T233 -11Q189 -11
155 7Q103 38 103 113Q103 170 138 262T173 379Q173 389 173 392T169 400T158 404Q156 404 154 404Q131 404 112 385T82 344T65 302T57 280Q55 278 41 278H27Q21 284 21 287Z" />
<glyph unicode="v" glyph-name="v" horiz-adv-x="485" d="M357 383Q357 405 376 424T417 443Q436 443 451 425T467 367Q467 340 455 284T418 159T347 40T241 -11Q177 -11 139 22Q102 54 102 117Q102 148 110 181T151 298Q173 362 173 380Q173 397 165 403Q160
405 154 405Q130 405 104 376T61 287Q60 286 59 284T58 281T56 279T53 278T49 278T41 278H27Q21 284 21 287Q21 294 29 316T53 368T97 419T160 441Q202 441 225 417T249 361Q249 344 246 335Q246 329 231 291T200 202T182 113Q182 86 187 69Q200 26 250 26Q287
26 319 60T369 139T398 222T409 277Q409 300 401 317T383 343T365 361T357 383Z" />
<glyph unicode="w" glyph-name="w" horiz-adv-x="716" d="M580 385Q580 406 599 424T641 443Q659 443 674 425T690 368Q690 339 671 253Q656 197 644 161T609 80T554 12T482 -11Q438 -11 404 5T355 48Q354 47 352 44Q311 -11 252 -11Q226 -11 202 -5T155 14T118
53T104 116Q104 170 138 262T173 379Q173 389 173 392T169 400T158 404Q156 404 154 404Q131 404 112 385T82 344T65 302T57 280Q55 278 41 278H27Q21 284 21 287Q21 293 29 315T52 366T96 418T161 441Q204 441 227 416T250 358Q250 340 217 250T184 111Q184 65
205 46T258 26Q301 26 334 87L339 96V119Q339 122 339 128T340 136T341 143T342 152T345 165T348 182T354 206T362 238T373 281Q402 395 406 404Q419 431 449 431Q468 431 475 421T483 402Q483 389 454 274T422 142Q420 131 420 107Q420 107 420 105T420 100Q420
89 422 79T430 56T450 34T487 26Q558 26 600 148Q609 171 620 213T632 273Q632 306 619 325T593 357T580 385Z" />
<glyph unicode="x" glyph-name="x" horiz-adv-x="572" d="M52 289Q59 331 106 386T222 442Q257 442 286 424T329 379Q371 442 430 442Q467 442 494 420T522 361Q522 332 508 314T481 292T458 288Q439 288 427 299T415 328Q415 374 465 391Q454 404 425 404Q412
404 406 402Q368 386 350 336Q290 115 290 78Q290 50 306 38T341 26Q378 26 414 59T463 140Q466 150 469 151T485 153Q486 153 487 153T489 153Q504 153 504 145Q504 141 502 134Q486 77 440 33T333 -11Q263 -11 227 52Q186 -10 133 -10Q131 -10 129 -10T127 -10Q78
-10 57 16T35 71Q35 103 54 123T99 143Q142 143 142 101Q142 81 130 66T107 46T94 41L91 40Q91 39 97 36T113 29T132 26Q168 26 194 71Q203 87 217 139T245 247T261 313Q266 340 266 352Q266 380 251 392T217 404Q177 404 142 372T93 290Q91 281 88 280T72 278H58Q52
284 52 289Z" />
<glyph unicode="y" glyph-name="y" horiz-adv-x="490" d="M21 287Q21 301 36 335T84 406T158 442Q199 442 224 419T250 355Q248 336 247 334Q247 331 231 288T198 191T182 105Q182 62 196 45T238 27Q261 27 281 38T312 61T339 94Q339 95 344 114T358 173T377 247Q415
397 419 404Q432 431 462 431Q475 431 483 424T494 412T496 403Q496 390 447 193T391 -23Q363 -106 294 -155T156 -205Q111 -205 77 -183T43 -117Q43 -95 50 -80T69 -58T89 -48T106 -45Q150 -45 150 -87Q150 -107 138 -122T115 -142T102 -147L99 -148Q101 -153
118 -160T152 -167H160Q177 -167 186 -165Q219 -156 247 -127T290 -65T313 -9T321 21L315 17Q309 13 296 6T270 -6Q250 -11 231 -11Q185 -11 150 11T104 82Q103 89 103 113Q103 170 138 262T173 379Q173 389 173 392T169 400T158 404Q156 404 154 404Q131 404 112
385T82 344T65 302T57 280Q55 278 41 278H27Q21 284 21 287Z" />
<glyph unicode="z" glyph-name="z" horiz-adv-x="465" d="M347 338Q337 338 294 349T231 360Q211 360 197 356T174 346T162 335T155 324L153 320Q150 317 138 317Q117 317 117 325Q117 329 120 339Q133 378 163 406T229 440Q241 442 246 442Q271 442 291 425T329
392T367 375Q389 375 411 408T434 441Q435 442 449 442H462Q468 436 468 434Q468 430 463 420T449 399T432 377T418 358L411 349Q368 298 275 214T160 106L148 94L163 93Q185 93 227 82T290 71Q328 71 360 90T402 140Q406 149 409 151T424 153Q431 153 434 153T440
150T443 143Q443 139 442 134Q425 72 376 31T278 -11Q252 -11 232 6T193 40T155 57Q111 57 76 -3Q71 -11 59 -11Q59 -11 57 -11T54 -11H41Q35 -5 35 -2Q35 13 93 84Q132 129 225 214T340 322Q352 338 347 338Z" />
<glyph unicode="&#xa0;" glyph-name="uni00A0" horiz-adv-x="250" />
<glyph unicode="&#x393;" glyph-name="Gamma" horiz-adv-x="615" d="M49 1Q31 1 31 10Q31 12 34 24Q39 43 44 45Q48 46 59 46H65Q92 46 125 49Q139 52 144 61Q146 66 215 342T285 622Q285 629 281 629Q273 632 228 634H197Q191 640 191 642T193 661Q197 674 203
680H714Q721 676 721 669Q721 664 708 557T694 447Q692 440 674 440H662Q655 446 655 454Q655 455 658 480T661 534Q661 572 652 592Q638 619 603 626T501 634Q496 634 486 634T471 634Q398 633 393 630Q389 628 386 622Q385 619 315 341T245 60Q245 46 333 46Q334
46 338 46T345 46Q366 46 366 35Q366 33 363 21T358 6Q356 1 339 1Q334 1 292 1T187 2Q122 2 88 2T49 1Z" />
<glyph unicode="&#x394;" glyph-name="increment" horiz-adv-x="833" d="M416 0Q346 0 261 0T157 0Q114 0 94 0T62 1T50 3T48 6Q48 9 305 358T567 711Q572 712 574 715L582 716Q589 716 595 716Q621 716 621 709Q622 707 705 359T788 8L787 6Q783 1 781 0H416ZM599
346L538 602L442 474Q347 345 252 217T157 87T409 86T661 88L654 120Q646 151 629 220T599 346Z" />
<glyph unicode="&#x398;" glyph-name="Theta" horiz-adv-x="763" d="M740 435Q740 320 676 213T511 42T304 -22Q207 -22 138 35T51 201Q50 209 50 244Q50 346 98 438T227 601Q351 704 476 704Q514 704 524 703Q621 689 680 617T740 435ZM640 466Q640 523 625 565T583
628T532 658T479 668Q370 668 273 559T151 255Q150 245 150 213Q150 156 165 116T207 55T259 26T313 17Q385 17 451 63T561 184Q590 234 615 312T640 466ZM227 265Q216 265 214 266T207 274Q207 278 223 345T244 416Q247 419 260 419Q261 419 262 419T263 419Q280
419 280 408Q280 403 278 397L275 386Q275 385 406 385H537L540 399Q543 413 546 416T559 419Q560 419 561 419T563 419Q574 419 576 418T583 410Q583 403 566 339Q549 271 544 267Q542 265 538 265H530Q529 265 528 265T527 265Q510 265 510 276Q510 281 512 287L515
298Q515 299 384 299H253L250 285Q247 271 244 268T231 265Q230 265 229 265T227 265Z" />
<glyph unicode="&#x39b;" glyph-name="Lambda" horiz-adv-x="694" d="M135 2Q114 2 89 2T60 1Q45 1 40 3T35 11Q35 28 42 40Q45 46 55 46Q119 46 151 94Q153 97 325 402T498 709Q505 716 526 716Q543 716 549 710Q550 709 560 548T580 224T591 57Q594 52 595 52Q603
47 638 46H663Q670 39 670 35Q669 12 657 0H644Q613 2 530 2Q497 2 469 2T424 2T405 1Q388 1 388 10Q388 14 391 24Q392 27 393 32T395 38T397 41T401 44T406 45T415 46Q473 46 487 64L472 306Q468 365 465 426T459 518L457 550Q456 550 328 322T198 88Q196 82
196 77Q196 50 243 46Q261 46 261 35Q261 31 259 22Q256 7 254 4T240 0Q237 0 211 1T135 2Z" />
<glyph unicode="&#x39e;" glyph-name="Xi" horiz-adv-x="742" d="M222 668Q222 670 229 677H499H654Q677 677 705 677T740 678Q764 678 770 676T777 667Q777 662 764 594Q761 579 757 559T751 528L749 519Q747 512 729 512H717Q710 519 710 525Q712 532 715 559T719
591Q718 595 711 595Q682 598 486 598Q252 598 246 592Q239 587 228 552L216 517Q214 512 197 512H185Q178 517 178 522Q178 524 198 591T222 668ZM227 262Q218 262 215 262T209 266L207 270L227 356Q231 371 237 394Q245 429 248 436T260 443Q261 443 263 443T267
443H280Q287 438 287 433Q287 430 285 420T280 402L278 393Q278 392 431 392H585L590 415Q595 436 598 439T612 443H615H628Q635 438 635 433Q635 431 615 351T594 268Q592 262 575 262H572Q563 262 560 263T556 271T560 293L565 313H258L252 292Q249 271 245 267T230
262H227ZM60 0Q53 4 53 11Q53 14 68 89T84 169Q88 176 98 176Q99 176 101 176T104 176H116Q123 169 123 163Q122 160 117 127T112 88Q112 83 126 81Q143 80 243 80Q256 80 292 80T351 80H454Q554 80 574 81T597 88V89Q603 100 610 121T622 157T630 174Q633 176
646 176H658Q665 171 665 166Q665 164 643 89T618 7Q615 2 606 1T548 0Q535 0 466 0T335 0H60Z" />
<glyph unicode="&#x3a0;" glyph-name="Pi" horiz-adv-x="831" d="M48 1Q31 1 31 10Q31 12 34 24Q39 43 44 45Q48 46 59 46H65Q92 46 125 49Q139 52 144 61Q146 66 215 342T285 622Q285 629 281 629Q273 632 228 634H197Q191 640 191 642T193 661Q197 674 203 680H541Q621
680 709 680T812 681Q841 681 855 681T877 679T886 676T887 670Q887 663 885 656Q880 637 875 635Q871 634 860 634H854Q827 634 794 631Q780 628 775 619Q773 614 704 338T634 58Q634 51 638 51Q646 48 692 46H723Q729 38 729 37T726 19Q722 6 716 0H701Q664 2
567 2Q533 2 504 2T458 2T437 1Q420 1 420 10Q420 14 423 24Q428 43 433 45Q437 46 448 46H454Q481 46 514 49Q528 52 533 61Q536 67 572 209T642 491T678 632Q678 634 533 634H388Q387 631 316 347T245 59Q245 55 246 54T253 50T270 48T303 46H334Q340 38 340
37T337 19Q333 6 327 0H312Q275 2 178 2Q144 2 115 2T69 2T48 1Z" />
<glyph unicode="&#x3a3;" glyph-name="Sigma" horiz-adv-x="780" d="M65 0Q58 4 58 11Q58 16 87 42Q94 49 114 67Q173 119 222 164L377 304Q378 305 340 386T261 552T218 644Q217 648 219 660Q224 678 228 681Q231 683 515 683H799Q804 678 806 674Q806 667 793
559T778 448Q774 443 759 443Q747 443 743 445T739 456Q739 458 741 477T743 516Q743 552 734 574T710 609T663 627T596 635T502 637Q480 637 469 637H339Q344 627 411 486T478 341V339Q477 337 477 336L457 318Q437 300 398 265T322 196L168 57Q167 56 188 56T258
56Q277 56 310 56T359 56Q414 56 447 57T514 64T569 80T610 110T647 157T680 225Q686 243 689 246T702 250H705Q726 250 726 239Q726 238 683 123T639 5Q637 1 610 1Q577 0 348 0H65Z" />
<glyph unicode="&#x3a5;" glyph-name="Upsilon" horiz-adv-x="583" d="M45 535Q34 535 31 536T28 544Q28 554 39 578T70 631T126 683T206 705Q230 705 251 698T295 671T330 612T344 514Q344 477 342 473Q342 472 342 472Q343 472 347 480T361 509T380 547Q471
704 596 704Q615 704 625 702Q659 692 679 663T700 595Q700 565 696 552T687 537T670 535Q657 535 653 536T649 543Q649 545 649 551T650 562Q650 589 629 605T575 621Q502 621 448 547T365 361Q290 70 290 60Q290 46 379 46H404Q410 40 410 39T408 19Q404 6 398
0H381Q340 2 225 2Q184 2 149 2T94 2T69 1Q59 1 55 2T51 10Q51 15 53 23Q54 25 55 30T56 36T57 40T59 43T62 44T67 46T73 46T82 46Q83 46 85 46T89 46Q144 46 163 49T190 62L198 93Q206 124 217 169T241 262T262 350T274 404Q281 445 281 486Q281 487 281 490T281
494Q281 621 185 621Q147 621 116 601T74 550Q71 539 66 537T45 535Z" />
<glyph unicode="&#x3a6;" glyph-name="Phi" horiz-adv-x="667" d="M356 624Q356 637 267 637H243Q237 642 237 645T239 664Q243 677 249 683H264Q342 681 429 681Q565 681 571 683H583Q589 677 589 674T587 656Q582 641 578 637H540Q516 637 504 637T479 633T463
630T454 623T448 613T443 597T438 576Q436 566 434 556T430 539L428 533Q442 533 472 526T543 502T613 451T642 373Q642 301 567 241T386 158L336 150Q332 150 331 146Q310 66 310 60Q310 46 399 46H424Q430 40 430 39T428 19Q424 6 418 0H401Q360 2 247 2Q207
2 173 2T119 2T95 1Q85 1 81 2T77 10Q77 15 79 23Q80 25 81 30T82 36T83 40T85 43T88 44T93 46T99 46T108 46Q109 46 111 46T115 46Q170 46 189 49T216 62Q220 74 228 107L239 150L223 152Q139 164 82 205T24 311Q24 396 125 462Q207 517 335 533L346 578Q356 619
356 624ZM130 291Q130 203 241 188H249Q249 190 287 342L325 495H324Q313 495 291 491T229 466T168 414Q130 357 130 291ZM536 393Q536 440 507 463T418 496L341 187L351 189Q443 201 487 255Q536 314 536 393Z" />
<glyph unicode="&#x3a8;" glyph-name="Psi" horiz-adv-x="612" d="M333 625Q333 637 244 637H220Q214 642 214 645T216 664Q220 677 226 683H241Q321 681 405 681Q543 681 549 683H560Q566 677 566 674T564 656Q559 641 555 637H517Q448 636 436 628Q429 623 423
600T373 404L320 192Q370 201 419 248Q451 281 469 317T500 400T518 457Q539 512 564 529T621 546Q625 546 632 546T644 546Q649 546 657 546T669 546Q692 546 692 536Q691 509 676 509Q623 509 593 399Q587 377 579 355T552 301T509 244T446 195T359 159Q324 151
314 151Q311 151 310 150T298 106T287 60Q287 46 376 46H401Q407 40 407 39T405 19Q401 6 395 0H378Q337 2 224 2Q184 2 150 2T96 2T72 1Q62 1 58 2T54 10Q54 15 56 23Q57 25 58 30T59 36T60 40T62 43T65 44T70 46T76 46T85 46Q86 46 88 46T92 46Q147 46 166 49T193
62L204 106Q216 149 216 151Q137 162 94 204Q48 252 48 329Q48 361 56 403T65 458Q65 482 58 494T43 507T28 510T21 520Q21 528 23 534T29 544L32 546H72Q76 546 83 546T94 546Q126 546 142 533T159 476V465Q159 445 149 399T138 314Q142 229 197 201Q223 187 226
190L233 218Q240 246 253 300T280 407Q333 619 333 625Z" />
<glyph unicode="&#x3a9;" glyph-name="Omega" horiz-adv-x="772" d="M125 84Q127 78 194 76H243V78Q243 122 208 215T165 350Q164 359 162 389Q162 522 272 610Q328 656 396 680T525 704Q628 704 698 661Q734 637 755 601T781 544T786 504Q786 439 747 374T635
226T537 109Q518 81 518 77Q537 76 557 76Q608 76 620 78T640 92Q646 100 656 119T673 155T683 172Q683 172 684 172Q692 173 698 173Q718 173 718 162Q718 161 681 82T642 2Q639 0 550 0H461Q455 5 455 9T458 28Q472 78 510 149T584 276T648 402T677 525Q677 594
636 631T530 668Q476 668 423 641T335 568Q284 499 271 400Q270 388 270 348Q270 298 277 228T285 115Q285 82 280 49T271 6Q269 1 258 1T175 0H87Q83 3 80 7V18Q80 22 82 98Q84 156 85 163T91 172Q94 173 104 173T119 172Q124 169 124 126Q125 104 125 84Z" />
<glyph unicode="&#x3b1;" glyph-name="alpha" horiz-adv-x="640" d="M34 156Q34 270 120 356T309 442Q379 442 421 402T478 304Q484 275 485 237V208Q534 282 560 374Q564 388 566 390T582 393Q603 393 603 385Q603 376 594 346T558 261T497 161L486 147L487 123Q489
67 495 47T514 26Q528 28 540 37T557 60Q559 67 562 68T577 70Q597 70 597 62Q597 56 591 43Q579 19 556 5T512 -10H505Q438 -10 414 62L411 69L400 61Q390 53 370 41T325 18T267 -2T203 -11Q124 -11 79 39T34 156ZM208 26Q257 26 306 47T379 90L403 112Q401 255
396 290Q382 405 304 405Q235 405 183 332Q156 292 139 224T121 120Q121 71 146 49T208 26Z" />
<glyph unicode="&#x3b2;" glyph-name="beta" horiz-adv-x="566" d="M29 -194Q23 -188 23 -186Q23 -183 102 134T186 465Q208 533 243 584T309 658Q365 705 429 705H431Q493 705 533 667T573 570Q573 465 469 396L482 383Q533 332 533 252Q533 139 448 65T257 -10Q227
-10 203 -2T165 17T143 40T131 59T126 65L62 -188Q60 -194 42 -194H29ZM353 431Q392 431 427 419L432 422Q436 426 439 429T449 439T461 453T472 471T484 495T493 524T501 560Q503 569 503 593Q503 611 502 616Q487 667 426 667Q384 667 347 643T286 582T247 514T224
455Q219 439 186 308T152 168Q151 163 151 147Q151 99 173 68Q204 26 260 26Q302 26 349 51T425 137Q441 171 449 214T457 279Q457 337 422 372Q381 358 347 358Q345 358 342 358T337 358Q258 358 258 389Q258 395 261 403Q275 431 353 431Z" />
<glyph unicode="&#x3b3;" glyph-name="gamma" horiz-adv-x="518" d="M31 249Q11 249 11 258Q11 275 26 304T66 365T129 418T206 441Q233 441 239 440Q287 429 318 386T371 255Q385 195 385 170Q385 166 386 166L398 193Q418 244 443 300T486 391T508 430Q510 431
524 431H537Q543 425 543 422Q543 418 522 378T463 251T391 71Q385 55 378 6T357 -100Q341 -165 330 -190T303 -216Q286 -216 286 -188Q286 -138 340 32L346 51L347 69Q348 79 348 100Q348 257 291 317Q251 355 196 355Q148 355 108 329T51 260Q49 251 47 251Q45
249 31 249Z" />
<glyph unicode="&#x3b4;" glyph-name="delta" d="M195 609Q195 656 227 686T302 717Q319 716 351 709T407 697T433 690Q451 682 451 662Q451 644 438 628T403 612Q382 612 348 641T288 671T249 657T235 628Q235 584 334 463Q401 379 401 292Q401 169 340 80T205
-10H198Q127 -10 83 36T36 153Q36 286 151 382Q191 413 252 434Q252 435 245 449T230 481T214 521T201 566T195 609ZM112 130Q112 83 136 55T204 27Q233 27 256 51T291 111T309 178T316 232Q316 267 309 298T295 344T269 400L259 396Q215 381 183 342T137 256T118
179T112 130Z" />
<glyph unicode="&#x3b5;" glyph-name="epsilon" horiz-adv-x="466" d="M76 304Q76 364 144 408T290 452Q292 452 296 452T302 452Q359 452 405 421Q428 405 428 392Q428 381 417 369T391 356Q382 356 371 365T338 383T283 392Q217 392 167 368T116 308Q116 289
133 272Q142 263 145 262T157 264Q188 278 238 278H243Q256 278 265 278T285 274T302 265T308 247Q308 206 223 206Q177 206 142 219L132 212Q68 169 68 112Q68 62 130 46Q158 39 201 39Q253 39 286 49T328 72T345 94T362 105Q376 103 376 88Q376 79 365 62T334
26T275 -8T190 -22Q137 -22 99 -2Q69 11 48 39T27 107Q27 174 97 232L107 239L99 248Q76 273 76 304Z" />
<glyph unicode="&#x3b6;" glyph-name="zeta" horiz-adv-x="438" d="M296 643Q298 704 324 704Q342 704 342 687Q342 682 339 664T336 633Q336 623 337 618T338 611Q339 612 341 612Q343 614 354 616T374 618L384 619Q386 619 389 619T394 619Q410 619 420 618T444
614T464 604T471 586Q467 548 386 546Q385 546 380 546T372 546Q338 546 320 564L311 558Q235 506 175 398T114 190Q114 171 116 155T125 127T137 104T153 86T171 72T192 61T213 53T235 46T256 39L322 16Q389 -10 389 -80Q389 -119 364 -154T300 -202Q292 -204
274 -204Q247 -204 225 -196Q210 -192 193 -182T172 -167Q167 -159 173 -148Q180 -139 191 -139Q195 -139 221 -153T283 -168Q298 -166 310 -152T322 -117Q322 -91 302 -75T250 -51T183 -29T116 4T65 62T44 160Q44 287 121 410T293 590L302 595Q296 613 296 643Z"
/>
<glyph unicode="&#x3b7;" glyph-name="eta" horiz-adv-x="497" d="M21 287Q22 290 23 295T28 317T38 348T53 381T73 411T99 433T132 442Q156 442 175 435T205 417T221 395T229 376L231 369Q231 367 232 367L243 378Q304 442 382 442Q436 442 469 415T503 336Q503
334 503 331T503 326Q503 303 439 53Q381 -182 377 -189Q364 -216 332 -216Q319 -216 310 -208T299 -186Q299 -177 358 57L420 307Q423 322 423 345Q423 404 379 404Q378 404 377 404T374 404Q288 404 229 303L222 291L189 157Q156 26 151 16Q138 -11 108 -11Q95
-11 87 -5T76 7T74 17Q74 30 114 189T154 366Q154 405 128 405Q107 405 92 377T68 316T57 280Q55 278 41 278H27Q21 284 21 287Z" />
<glyph unicode="&#x3b8;" glyph-name="theta" horiz-adv-x="469" d="M35 200Q35 302 74 415T180 610T319 704Q320 704 327 704T339 705Q393 701 423 656Q462 596 462 495Q462 380 417 261T302 66T168 -10H161Q125 -10 99 10T60 63T41 130T35 200ZM383 566Q383
668 330 668Q294 668 260 623T204 521T170 421T157 371Q206 370 254 370L351 371Q352 372 359 404T375 484T383 566ZM113 132Q113 26 166 26Q181 26 198 36T239 74T287 161T335 307L340 324H145Q145 321 136 286T120 208T113 132Z" />
<glyph unicode="&#x3b9;" glyph-name="iota" horiz-adv-x="354" d="M139 -10Q111 -10 92 0T64 25T52 52T48 74Q48 89 55 109T85 199T135 375L137 384Q139 394 140 397T145 409T151 422T160 431T173 439T190 442Q202 442 213 435T225 410Q225 404 214 358T181 238T137
107Q126 74 126 54Q126 43 126 39T130 31T142 27Q144 27 147 27Q206 27 255 78Q272 98 281 114T290 138T295 149T313 153Q321 153 324 153T329 152T332 149T332 143Q332 106 276 48T145 -10H139Z" />
<glyph unicode="&#x3ba;" glyph-name="kappa" horiz-adv-x="576" d="M83 -11Q70 -11 62 -4T51 8T49 17Q49 30 96 217T147 414Q160 442 193 442Q205 441 213 435T223 422T225 412Q225 401 208 337L192 270Q193 269 208 277T235 292Q252 304 306 349T396 412T467
431Q489 431 500 420T512 391Q512 366 494 347T449 327Q430 327 418 338T405 368Q405 370 407 380L397 375Q368 360 315 315L253 266L240 257H245Q262 257 300 251T366 230Q422 203 422 150Q422 140 417 114T411 67Q411 26 437 26Q484 26 513 137Q516 149 519 151T535
153Q554 153 554 144Q554 121 527 64T457 -7Q447 -10 431 -10Q386 -10 360 17T333 90Q333 108 336 122T339 146Q339 170 320 186T271 209T222 218T185 221Q180 221 180 221L155 122Q129 22 126 16Q113 -11 83 -11Z" />
<glyph unicode="&#x3bb;" glyph-name="lambda" horiz-adv-x="583" d="M83 -12Q47 -12 47 20Q47 37 61 52T199 187Q229 216 266 252T321 306L338 322Q338 323 288 462T234 612Q214 657 183 657Q175 657 171 662T166 673Q166 686 177 691L183 694H202Q292 691 316
644Q322 629 373 486T474 207T524 67Q531 47 537 34T546 15T551 6T555 2T556 -2T550 -11H482Q457 3 450 18T399 152L354 277L340 262Q327 246 293 207T236 141Q211 112 174 69Q123 9 111 -1T83 -12Z" />
<glyph unicode="&#x3bc;" glyph-name="mu" horiz-adv-x="603" d="M58 -216Q44 -216 34 -208T23 -186Q23 -176 96 116T173 414Q186 442 219 442Q231 441 239 435T249 423T251 413Q251 401 220 279T187 142Q185 131 185 107Q185 107 185 104T185 99Q185 26 252 26Q269
26 287 32Q307 39 325 55T349 78T372 110L408 253Q444 395 448 404Q461 431 491 431Q504 431 512 424T523 412T525 402L449 84Q448 79 448 68Q448 43 455 35T476 26Q485 27 496 35Q517 55 537 131Q543 151 547 152Q549 153 557 153H561Q580 153 580 144Q580 138
575 117T555 63T523 13Q510 0 491 -8Q483 -10 467 -10Q446 -10 429 -4T402 11T385 29T376 44T374 51L368 45Q362 39 350 30T324 12T288 -4T246 -11Q199 -11 153 12L129 -85Q108 -167 104 -180T92 -202Q76 -216 58 -216Z" />
<glyph unicode="&#x3bd;" glyph-name="nu" horiz-adv-x="494" d="M71 -2Q66 -2 59 -1T51 1Q45 5 45 11Q45 13 88 188L132 364Q133 377 125 380T86 385H65Q59 391 59 393T61 412Q65 431 74 431Q75 431 84 432T111 434T146 436Q161 437 180 438T208 441T219 442Q231
442 231 434Q231 428 185 241L137 51H140L150 55Q161 59 177 67T214 86T261 119T312 165Q410 264 445 394Q458 442 496 442Q509 442 519 434T530 411Q530 390 516 352T469 262T388 162T267 70T106 5Q81 -2 71 -2Z" />
<glyph unicode="&#x3be;" glyph-name="xi" horiz-adv-x="438" d="M268 632Q268 704 296 704Q314 704 314 687Q314 682 311 664T308 635Q308 624 309 620V616H315Q342 619 360 619Q443 619 443 586Q439 548 358 546Q355 546 351 546T344 546Q327 546 317 549T290
566Q257 550 226 505T195 405Q195 381 201 364T211 342T218 337Q266 347 298 347Q375 347 375 314Q374 297 359 288T327 277T280 275Q234 275 208 283L195 286Q149 260 119 214T88 130Q88 116 90 108Q101 79 129 63T229 20Q238 17 243 15Q337 -21 354 -33Q383 -53
383 -94Q383 -137 351 -171T273 -205Q240 -205 202 -190T158 -167Q156 -163 156 -159Q156 -151 161 -146T176 -140Q182 -140 189 -143Q233 -168 274 -168Q286 -168 292 -165Q313 -151 313 -129Q313 -112 301 -104T232 -75Q214 -68 204 -64Q198 -62 171 -52T136
-38T107 -24T78 -8T56 12T36 37T26 66T21 103Q21 149 55 206T145 301L154 307L148 313Q141 319 136 323T124 338T111 358T103 382T99 413Q99 471 143 524T259 602L271 607Q268 618 268 632Z" />
<glyph unicode="&#x3bf;" glyph-name="omicron" horiz-adv-x="485" d="M201 -11Q126 -11 80 38T34 156Q34 221 64 279T146 380Q222 441 301 441Q333 441 341 440Q354 437 367 433T402 417T438 387T464 338T476 268Q476 161 390 75T201 -11ZM121 120Q121 70 147
48T206 26Q250 26 289 58T351 142Q360 163 374 216T388 308Q388 352 370 375Q346 405 306 405Q243 405 195 347Q158 303 140 230T121 120Z" />
<glyph unicode="&#x3c0;" glyph-name="pi" horiz-adv-x="570" d="M132 -11Q98 -11 98 22V33L111 61Q186 219 220 334L228 358H196Q158 358 142 355T103 336Q92 329 81 318T62 297T53 285Q51 284 38 284Q19 284 19 294Q19 300 38 329T93 391T164 429Q171 431 389
431Q549 431 553 430Q573 423 573 402Q573 371 541 360Q535 358 472 358H408L405 341Q393 269 393 222Q393 170 402 129T421 65T431 37Q431 20 417 5T381 -10Q370 -10 363 -7T347 17T331 77Q330 86 330 121Q330 170 339 226T357 318T367 358H269L268 354Q268 351
249 275T206 114T175 17Q164 -11 132 -11Z" />
<glyph unicode="&#x3c1;" glyph-name="rho" horiz-adv-x="517" d="M58 -216Q25 -216 23 -186Q23 -176 73 26T127 234Q143 289 182 341Q252 427 341 441Q343 441 349 441T359 442Q432 442 471 394T510 276Q510 219 486 165T425 74T345 13T266 -10H255Q255 -10 254
-10Q251 -10 248 -10Q197 -10 165 35L160 41L133 -71Q108 -168 104 -181T92 -202Q76 -216 58 -216ZM424 322Q424 359 407 382T357 405Q322 405 287 376T231 300Q217 269 193 170L176 102Q193 26 260 26Q298 26 334 62Q367 92 389 158T418 266T424 322Z" />
<glyph unicode="&#x3c2;" glyph-name="sigma1" horiz-adv-x="363" d="M31 207Q31 306 115 374T302 442Q341 442 373 430T405 400Q405 392 399 383T379 374Q373 375 348 390T296 405Q222 405 160 357T98 249Q98 232 103 218T112 195T132 175T154 159T186 141T219
122Q234 114 255 102T286 85T299 78L302 74Q306 71 308 69T315 61T322 51T328 40T332 25T334 8Q334 -31 305 -69T224 -107Q194 -107 163 -92Q156 -88 156 -80Q156 -73 162 -67T178 -61Q184 -61 190 -63Q210 -71 224 -71Q245 -71 254 -59T263 -30Q263 -25 263 -21T260
-12T255 -4T248 3T239 9T227 17T213 25T195 34T174 46Q170 48 150 58T122 74T97 90T70 112T51 137T36 169T31 207Z" />
<glyph unicode="&#x3c3;" glyph-name="sigma" horiz-adv-x="571" d="M184 -11Q116 -11 74 34T31 147Q31 247 104 333T274 430Q275 431 414 431H552Q553 430 555 429T559 427T562 425T565 422T567 420T569 416T570 412T571 407T572 401Q572 357 507 357Q500 357
490 357T476 358H416L421 348Q439 310 439 263Q439 153 359 71T184 -11ZM361 278Q361 358 276 358Q152 358 115 184Q114 180 114 178Q106 141 106 117Q106 67 131 47T188 26Q242 26 287 73Q316 103 334 153T356 233T361 278Z" />
<glyph unicode="&#x3c4;" glyph-name="tau" horiz-adv-x="437" d="M39 284Q18 284 18 294Q18 301 45 338T99 398Q134 425 164 429Q170 431 332 431Q492 431 497 429Q517 424 517 402Q517 388 508 376T485 360Q479 358 389 358T299 356Q298 355 283 274T251 109T233
20Q228 5 215 -4T186 -13Q153 -13 153 20V30L203 192Q214 228 227 272T248 336L254 357Q254 358 208 358Q206 358 198 358T183 359Q105 359 61 295Q56 287 53 286T39 284Z" />
<glyph unicode="&#x3c5;" glyph-name="upsilon" horiz-adv-x="540" d="M413 384Q413 406 432 424T473 443Q492 443 507 425T523 367Q523 334 508 270T468 153Q424 63 373 27T282 -10H268Q220 -10 186 2T135 36T111 78T104 121Q104 170 138 262T173 379Q173 389
173 392T169 400T158 404Q156 404 154 404Q131 404 112 385T82 344T65 302T57 280Q55 278 41 278H27Q21 284 21 287Q21 299 34 333T82 404T161 441Q200 441 225 419T250 355Q248 336 247 334Q247 331 232 291T201 199T185 118Q185 68 211 47T275 26Q317 26 355
57T416 132T452 216T465 277Q465 301 457 318T439 343T421 361T413 384Z" />
<glyph unicode="&#x3c6;" glyph-name="phi" horiz-adv-x="654" d="M92 210Q92 176 106 149T142 108T185 85T220 72L235 70L237 71L250 112Q268 170 283 211T322 299T370 375T429 423T502 442Q547 442 582 410T618 302Q618 224 575 152T457 35T299 -10Q273 -10
273 -12L266 -48Q260 -83 252 -125T241 -179Q236 -203 215 -212Q204 -218 190 -218Q159 -215 159 -185Q159 -182 159 -179Q162 -165 214 -2Q215 -1 212 0Q209 1 205 2Q145 20 98 67T50 190Q50 238 76 311T149 431H162Q183 431 183 423Q183 418 175 409Q134 361
114 300T92 210ZM574 278Q574 320 550 344T486 369Q437 369 394 329T323 218Q309 184 295 109L286 64Q304 62 306 62Q423 62 498 131T574 278Z" />
<glyph unicode="&#x3c7;" glyph-name="chi" horiz-adv-x="626" d="M48 361Q48 369 56 386T89 423T148 442Q224 442 258 400Q276 375 297 320T330 222L341 180Q344 180 455 303T573 429Q577 431 582 431Q589 431 594 427T600 414Q600 407 587 392T477 270Q356 138
353 134L362 102Q392 -10 428 -89T490 -168Q504 -168 517 -156T536 -126Q539 -116 543 -115T557 -114T571 -115Q576 -118 576 -125Q576 -140 558 -163T518 -196Q502 -204 487 -204H476Q394 -204 363 -157Q334 -114 293 26L284 59Q283 58 248 19T170 -66T92 -151T53
-191Q48 -194 43 -194Q36 -194 31 -189T25 -177T38 -154T151 -30L272 102L265 131Q189 405 135 405Q104 405 87 358Q86 351 68 351Q48 351 48 361Z" />
<glyph unicode="&#x3c8;" glyph-name="psi" horiz-adv-x="651" d="M161 441Q202 441 226 417T250 358Q250 338 218 252T187 127Q190 85 214 61Q235 43 257 37Q275 29 288 29H289L371 360Q455 691 456 692Q459 694 472 694Q492 694 492 687Q492 678 411 356Q329
28 329 27T335 26Q421 26 498 114T576 278Q576 302 568 319T550 343T532 361T524 384Q524 405 541 424T583 443Q602 443 618 425T634 366Q634 337 623 288T605 220Q573 125 492 57T329 -11H319L296 -104Q272 -198 272 -199Q270 -205 252 -205H239Q233 -199 233
-197Q233 -192 256 -102T279 -9Q272 -8 265 -8Q106 14 106 139Q106 174 139 264T173 379Q173 389 173 392T169 400T158 404Q156 404 154 404Q131 404 112 385T82 344T65 302T57 280Q55 278 41 278H27Q21 284 21 287Q21 299 34 333T82 404T161 441Z" />
<glyph unicode="&#x3c9;" glyph-name="omega" horiz-adv-x="622" d="M495 384Q495 406 514 424T555 443Q574 443 589 425T604 364Q604 334 592 278T555 155T483 38T377 -11Q297 -11 267 66Q266 68 260 61Q201 -11 125 -11Q15 -11 15 139Q15 230 56 325T123 434Q135
441 147 436Q160 429 160 418Q160 408 147 388T118 346T85 287T62 208Q61 202 61 187Q61 124 85 100T143 76Q201 76 245 129L253 137V156Q258 297 317 297Q348 297 348 261Q348 243 338 213T318 158L308 135Q309 133 310 129T318 115T334 97T358 83T393 76Q456
76 501 148T546 274Q546 305 533 325T508 357T495 384Z" />
<glyph unicode="&#x3d1;" glyph-name="theta1" horiz-adv-x="591" d="M265 520Q265 590 312 647T417 705Q463 705 491 670T528 592T537 500Q537 448 524 385Q522 373 521 368T521 362Q558 355 561 351Q563 349 563 345Q563 321 552 318Q542 318 521 323L510 326Q496
261 459 187T362 51T241 -11Q100 -11 100 105Q100 139 127 242T154 366Q154 405 128 405Q107 405 92 377T68 316T57 280Q55 278 41 278H27Q21 284 21 287Q21 291 27 313T47 368T79 418Q103 442 134 442Q169 442 201 419T233 344Q232 330 206 228T180 98Q180 26
247 26Q292 26 332 90T404 260L427 349Q422 349 398 359T339 392T289 440Q265 476 265 520ZM464 564Q464 668 413 668Q373 668 339 622T304 522Q304 494 317 470T349 431T388 406T421 391T435 387H436L443 415Q450 443 457 485T464 564Z" />
<glyph unicode="&#x3d5;" glyph-name="phi1" horiz-adv-x="596" d="M409 688Q412 694 421 694Q422 694 424 694T429 694H442Q448 688 448 686Q448 679 418 563Q411 535 404 504T392 458L388 442Q388 441 397 441T429 435T477 418Q521 397 550 357T579 260T548
151T471 65T374 11T279 -10H275L251 -105Q245 -131 237 -164Q230 -193 227 -199T215 -205Q215 -205 213 -205T209 -205Q189 -205 189 -198Q189 -193 211 -103L234 -11Q234 -10 226 -10Q221 -10 206 -8T161 6T107 36T62 89T43 171Q43 231 76 284T157 370T254 422T342
441Q347 441 348 445L378 567Q409 686 409 688ZM122 150Q122 116 134 91T167 53T203 35T237 27H244L337 404Q333 404 326 403T297 395T255 379T211 350T170 304Q152 276 137 237Q122 191 122 150ZM500 282Q500 320 484 347T444 385T405 400T381 404H378L332 217L284
29Q284 27 285 27Q293 27 317 33T357 47Q400 66 431 100T475 170T494 234T500 282Z" />
<glyph unicode="&#x3d6;" glyph-name="omega1" horiz-adv-x="828" d="M206 -10Q158 -10 136 24T114 110Q114 233 199 349L205 358H184Q144 358 121 347Q108 340 95 330T75 312T61 295T53 285Q51 284 38 284Q19 284 19 294Q19 300 38 329T93 391T164 429Q171 431
532 431Q799 431 803 430Q823 423 823 402Q823 377 801 364Q790 358 766 358Q748 358 748 357Q748 355 749 348T752 327T754 297Q754 258 738 207T693 107T618 24T520 -10Q488 -10 466 2T432 36T416 77T411 120Q411 128 410 128T404 122Q373 71 323 31T206 -10ZM714
296Q714 316 707 358H251Q250 357 244 348T230 328T212 301T193 267T176 229T164 187T159 144Q159 62 222 62Q290 62 349 127T432 285Q433 286 434 288T435 291T437 293T440 294T444 294T452 294H466Q472 288 472 286Q472 285 464 244T456 170Q456 62 534 62Q604
62 659 139T714 296Z" />
<glyph unicode="&#x3f1;" glyph-name="uni03F1" horiz-adv-x="517" d="M205 -174Q136 -174 102 -153T67 -76Q67 -25 91 85T127 234Q143 289 182 341Q252 427 341 441Q343 441 349 441T359 442Q432 442 471 394T510 276Q510 169 431 80T253 -10Q226 -10 204 -2T169
19T146 44T132 64L128 73Q128 72 124 53T116 5T112 -44Q112 -68 117 -78T150 -95T236 -102Q327 -102 356 -111T386 -154Q386 -166 384 -178Q381 -190 378 -192T361 -194H348Q345 -191 344 -190T343 -188T342 -185T342 -183T342 -179Q342 -173 337 -171T315 -169Q294
-169 264 -171T205 -174ZM424 322Q424 359 407 382T357 405Q322 405 287 376T231 300Q221 276 204 217Q188 152 188 116Q188 68 210 47T259 26Q297 26 334 62Q367 92 389 158T418 266T424 322Z" />
<glyph unicode="&#x3f5;" glyph-name="uni03F5" horiz-adv-x="406" d="M227 -11Q149 -11 95 41T40 174Q40 262 87 322Q121 367 173 396T287 430Q289 431 329 431H367Q382 425 382 411Q382 385 341 385Q337 385 332 385T325 385Q323 385 319 385T312 385Q191 385
154 277L150 265H327Q340 256 340 246Q340 228 320 219H138V217Q128 187 128 143Q128 77 160 52T231 26Q258 26 284 36T326 57T343 68Q350 68 354 58T358 39Q358 36 357 35Q354 31 337 21T289 0T227 -11Z" />
<glyph unicode="&#xeffd;" glyph-name="uniEFFD" horiz-adv-x="700" d="M0 0V100H100V0H0ZM600 0V100H700V0H600Z" />
<glyph unicode="&#xeffe;" glyph-name="uniEFFE" horiz-adv-x="300" d="M0 0V100H100V0H0ZM200 0V100H300V0H200Z" />
<glyph unicode="&#xefff;" glyph-name="uniEFFF" horiz-adv-x="100" d="M0 0V100H100V0H0Z" />
</font>
</defs>
</svg>
