<?xml version="1.0" standalone="no"?> <!DOCTYPE svg PUBLIC "-//W3C//DTD SVG 1.0//EN" "http://www.w3.org/TR/2001/REC-SVG-20010904/DTD/svg10.dtd" > <svg xmlns="http://www.w3.org/2000/svg" width="100%" height="100%">
<defs >
<font id="MathJax_Math-BoldItalic" horiz-adv-x="515" ><font-face
    font-family="MathJax_Math"
    units-per-em="1000"
    panose-1="0 0 0 0 0 0 0 0 0 0"
    ascent="992"
    descent="-416"
    alphabetic="0" />
<missing-glyph horiz-adv-x="250" d="M50 0V533H200V0H50ZM100 50H150V483H100V50Z" />
<glyph unicode=" " glyph-name="space" horiz-adv-x="250" />
<glyph unicode="/" glyph-name="slash" horiz-adv-x="894" d="M189 -210Q179 -210 170 -203T160 -179Q160 -171 162 -166Q164 -163 420 266T679 698Q686 711 704 711Q714 711 723 704T733 681Q733 672 730 667Q723 654 469 228T211 -201Q202 -210 189 -210Z" />
<glyph unicode="A" glyph-name="A" horiz-adv-x="869" d="M65 0Q45 0 45 18Q48 52 61 60Q65 62 81 62Q155 62 165 74Q166 74 265 228T465 539T569 699Q576 707 583 709T611 711T637 710T649 700Q650 697 695 380L741 63L784 62H827Q839 50 839 45L835 29Q831 9
827 5T806 0Q803 0 790 0T743 1T657 2Q585 2 547 1T504 0Q481 0 481 17Q484 54 497 60Q501 62 541 62Q580 62 580 63Q580 68 573 121T564 179V181H308L271 124Q236 69 236 67T283 62Q283 62 284 62T287 62Q316 62 316 46Q316 26 307 8Q302 3 295 0L262 1Q242 2
168 2Q119 2 93 1T65 0ZM537 372Q533 402 528 435T521 486T518 504V505Q517 505 433 375L348 244L451 243Q555 243 555 244L537 372Z" />
<glyph unicode="B" glyph-name="B" horiz-adv-x="866" d="M258 624Q253 624 245 624T235 624Q214 624 209 626T199 639Q203 678 216 684Q220 686 449 686Q463 686 477 686Q499 686 535 686T586 686Q684 686 733 677T817 634Q853 598 853 547Q853 499 826 460T761
401T695 371T654 360Q653 360 653 360T661 359T683 353T712 344T745 327T774 303T795 269T804 224Q804 148 732 79T533 1Q524 0 288 0H58Q47 5 43 15Q47 54 60 60Q64 62 113 62H162L302 623Q302 624 258 624ZM703 550Q703 571 695 586T675 609T656 619T643 623L545
624H447L417 504Q386 384 386 383T470 382Q554 383 565 385Q632 397 667 447T703 550ZM651 240Q651 265 645 282T626 309T608 322T592 329Q587 330 479 331H373L340 198Q307 65 306 64Q306 62 406 62L507 63L519 65Q565 76 596 107T639 171T651 240Z" />
<glyph unicode="C" glyph-name="C" horiz-adv-x="817" d="M380 -17Q335 -17 293 -10T207 16T130 65T76 144T55 256Q55 306 70 361T122 476T211 582T345 663T525 702H545Q673 702 731 634L777 668Q783 672 789 677T800 685T808 691T814 695T818 698T822 700T825
702T828 703T830 703T833 703Q855 703 855 690Q855 686 823 558T789 426Q786 421 782 420T756 419Q734 420 729 422T724 432Q724 434 725 447T726 472Q726 552 678 604Q640 640 586 640Q582 640 578 640T574 640Q533 640 494 632T409 604T324 541T260 437Q243 397
227 333T210 219Q210 152 237 117Q255 90 299 68T420 46H429Q506 46 580 100T678 234Q683 249 687 251T712 254Q713 254 716 254T723 254Q743 254 743 240Q743 232 736 213T710 162T663 100T586 40T477 -5Q433 -17 380 -17Z" />
<glyph unicode="D" glyph-name="D" horiz-adv-x="938" d="M258 624Q253 624 245 624T235 624Q214 624 209 626T199 639Q203 678 216 684Q220 686 437 686Q659 686 668 685Q727 680 772 662T842 621T883 568T905 517T913 475Q914 466 914 434Q914 373 892 307T828
179T712 69T548 7Q517 2 494 2T279 0H58Q47 5 43 15Q47 54 60 60Q64 62 113 62H162L302 623Q302 624 258 624ZM768 475Q768 515 753 544T718 588T666 612T614 622T563 624Q558 624 550 624T538 624Q535 624 532 624H452L382 344Q311 64 311 63T363 62Q370 62 384
62T405 62Q491 62 545 76T656 142Q696 185 724 265T760 399T768 475Z" />
<glyph unicode="E" glyph-name="E" horiz-adv-x="810" d="M257 618Q252 618 244 618T231 618Q198 618 198 636Q202 672 214 678L219 680H811Q817 677 820 673T824 666L825 664Q825 659 814 549T799 433Q793 424 771 424Q752 424 746 427T740 441Q740 444 742 465T744
505Q744 561 722 585T646 616Q639 617 545 618H456Q456 617 427 502T398 385Q398 384 435 384Q461 385 471 385T499 391T526 405T545 433T562 478Q566 494 571 497T595 501Q596 501 599 501T604 501Q621 501 626 486Q626 482 593 349T557 213Q552 205 530 205Q512
205 506 208T499 219Q499 222 503 242T508 281Q508 308 491 314T429 322Q425 322 423 322H382L381 318L317 64Q317 62 390 62Q460 62 493 64T569 80T640 124Q665 149 686 187T719 253T733 283Q739 289 760 289Q791 289 791 274Q791 267 763 201T706 71L678 8Q676
4 667 0H58Q47 5 43 15Q47 54 60 60Q64 62 113 62H162L163 66Q163 67 231 341T301 616Q301 618 257 618Z" />
<glyph unicode="F" glyph-name="F" horiz-adv-x="689" d="M257 618Q252 618 244 618T231 618Q198 618 198 636Q202 672 214 678L219 680H795Q801 677 804 673T808 666L809 664Q809 659 798 549T783 433Q777 424 755 424Q736 424 730 427T724 444Q724 447 725 468T727
507V524Q727 541 724 554T713 577T698 594T676 605T653 612T625 616T597 617T566 618T538 618H456L455 614Q455 611 424 491L394 371H429Q454 372 463 372T491 378T517 392T536 419T552 464Q556 481 561 484T586 488Q603 488 607 486Q616 482 616 473Q616 467 584
337T549 201Q542 192 521 192Q504 192 497 195T490 209Q490 215 492 224Q499 251 499 269Q499 288 489 296T465 306T417 308L379 309L348 188Q341 161 334 129T322 80L318 65L317 62H375Q382 62 393 62T409 62Q430 62 438 59T447 45Q444 8 431 2L426 0L377 1Q347
2 231 2Q152 2 111 1T65 0Q48 0 43 15Q47 54 60 60Q64 62 113 62H162L163 66Q163 67 231 341T301 616Q301 618 257 618Z" />
<glyph unicode="G" glyph-name="G" horiz-adv-x="887" d="M379 -16Q233 -16 145 52T56 255Q56 310 73 368T127 483T216 586T347 663T518 702H540Q562 702 582 700T616 696T644 689T667 681T686 670T702 659T717 647T731 635L776 668Q782 672 788 677T799 685T807
691T813 695T817 698T821 700T824 702T827 703T829 703T832 703Q854 703 854 690Q854 686 822 558T788 426Q785 421 781 420T755 419Q734 420 729 422T723 432Q723 434 724 446T725 469Q725 531 702 571T642 628Q616 640 575 640Q468 640 390 593T272 464Q247 415
229 340T210 214Q210 166 228 132T277 79T343 54T419 46Q445 46 465 50T500 59T526 76T544 96T557 123T566 150T574 182T581 214H519Q511 214 498 214T479 213Q460 213 452 216T443 230Q443 250 452 268Q457 273 464 276L514 275Q546 274 657 274Q735 274 768 275T803
276Q826 276 826 258Q823 224 810 216Q806 214 771 214H736Q736 211 710 109T683 5Q678 0 671 0Q666 0 637 14T597 36Q593 38 590 40T585 44T582 44T576 40Q511 -16 379 -16Z" />
<glyph unicode="H" glyph-name="H" horiz-adv-x="982" d="M258 624Q253 624 245 624T235 624Q214 624 209 626T199 639Q203 678 216 684Q220 686 239 686Q290 684 403 684Q475 684 512 685T553 686Q576 686 576 668Q572 632 560 626Q555 624 506 624H457L399 389Q399
388 547 388H695L753 623Q753 624 709 624Q704 624 696 624T686 624Q665 624 660 626T650 639Q653 678 668 684Q672 686 681 686Q685 686 726 685T847 684Q902 684 937 684T986 685T1004 686Q1027 686 1027 668Q1023 632 1011 626Q1006 624 957 624H908L839 344Q768
64 768 63T812 62Q817 62 826 62T839 62Q871 62 871 44Q867 6 854 2L850 0L808 1Q782 2 675 2Q600 2 560 1T516 0Q499 0 494 15Q498 54 511 60Q515 62 564 62H613L614 66L679 324Q679 326 531 326H383L382 322L317 64Q317 62 361 62Q366 62 375 62T388 62Q420 62
420 44Q416 6 403 2L399 0L357 1Q331 2 224 2Q149 2 109 1T65 0Q48 0 43 15Q47 54 60 60Q64 62 113 62H162L302 623Q302 624 258 624Z" />
<glyph unicode="I" glyph-name="I" horiz-adv-x="511" d="M247 624Q242 624 233 624T220 623Q186 623 186 640Q186 647 190 664T202 684Q206 686 226 686Q277 684 393 684Q435 684 471 684T528 685T553 686Q573 686 573 670Q573 650 564 632Q564 632 563 631Q558
626 555 625T537 624Q534 624 522 624T501 624H449L380 344Q309 64 309 63T356 62Q361 62 370 62T384 63Q417 63 417 46Q417 26 408 8Q403 3 396 0L352 1Q325 2 216 2T82 1L45 0Q30 7 30 16Q33 51 46 60Q51 62 102 62H154L294 623Q294 624 247 624Z" />
<glyph unicode="J" glyph-name="J" horiz-adv-x="631" d="M205 131Q205 105 192 84T165 54L152 45Q152 44 160 42T182 37T213 35Q213 35 214 35T216 35Q255 35 289 65Q314 90 329 129Q331 136 392 378T453 623Q453 624 393 624H332Q318 631 318 640Q318 647 322
664T334 684Q338 686 359 686Q413 684 533 684Q566 684 605 685T652 686Q677 686 685 683T694 669Q694 664 691 652Q686 631 681 628T647 624H638H602L542 380Q531 336 518 285T500 212T487 161T475 122T463 97T448 74T429 55Q351 -17 213 -17Q142 -17 99 7T43
70Q42 75 42 93Q42 143 73 168T139 194Q168 194 186 177T205 131Z" />
<glyph unicode="K" glyph-name="K" horiz-adv-x="971" d="M258 624Q253 624 245 624T235 624Q214 624 209 626T199 639Q203 678 216 684Q220 686 239 686Q290 684 403 684Q475 684 512 685T553 686Q576 686 576 668Q572 632 560 626Q555 624 506 624H457L422 481Q386
339 386 337L785 621Q779 624 749 624Q726 624 726 641Q726 648 730 659Q734 675 736 679T747 686L786 685Q812 684 888 684Q908 684 934 685T968 686Q987 686 995 683T1003 669Q1003 646 991 629Q985 624 967 624Q918 624 888 617Q884 617 874 613L865 609Q864
608 732 515T599 420Q599 418 686 242T775 65Q784 62 829 62Q847 62 850 61T860 54Q862 51 862 43Q862 31 858 18T845 1Q844 1 842 1T836 0T797 1T694 2Q599 2 573 1L536 0Q529 3 524 8Q522 12 522 18Q522 38 533 57Q539 62 557 62Q595 62 601 65L472 330L365 255L342
160Q318 65 317 64Q317 62 361 62Q366 62 375 62T388 62Q420 62 420 44Q416 6 403 2L399 0L357 1Q331 2 224 2Q149 2 109 1T65 0Q48 0 43 15Q47 54 60 60Q64 62 113 62H162L302 623Q302 624 258 624Z" />
<glyph unicode="L" glyph-name="L" horiz-adv-x="756" d="M258 624Q253 624 245 624T235 624Q214 624 209 626T199 639Q203 678 216 684Q220 686 239 686Q290 684 409 684Q454 684 492 684T552 685T579 686Q603 686 603 668Q599 632 587 626Q583 624 520 624H457L388
344Q317 64 317 63T353 62Q358 62 370 62T390 62Q418 62 440 64T492 78T547 110T598 169T643 261Q651 282 655 285T680 289Q696 289 700 288T709 279Q711 274 711 269Q710 265 663 138T613 8Q611 4 602 0H58Q47 5 43 15Q47 54 60 60Q64 62 113 62H162L302 623Q302
624 258 624Z" />
<glyph unicode="M" glyph-name="M" horiz-adv-x="1142" d="M258 624Q252 624 244 624T231 624Q215 624 209 626T199 639Q203 678 216 684Q220 686 347 686H473Q474 685 478 682T484 677Q487 673 535 413L584 153L608 187Q631 221 672 281T761 410Q935 663 943
671Q949 678 962 686H1082Q1103 686 1131 686T1166 686Q1201 686 1210 683T1219 668Q1215 632 1203 626Q1199 624 1149 624H1100L1031 344Q960 64 960 63T1004 62Q1009 62 1018 62T1031 62Q1063 62 1063 44Q1060 7 1046 2Q1042 0 1034 0Q1030 0 990 1T875 2Q804
2 767 1T725 0Q725 0 724 0T723 0Q708 0 703 15Q707 54 720 60Q724 62 773 62H822Q961 618 961 619L754 318Q546 15 543 12Q531 0 510 0Q500 0 495 0T484 5T477 19Q477 20 421 315L367 604L299 335Q234 72 234 68Q234 62 302 62Q334 62 334 46Q332 8 317 2Q313
0 306 0Q301 0 267 1T181 2Q125 2 96 1T63 0Q48 0 43 15Q43 19 47 35Q52 55 57 58T94 62Q147 64 164 69L233 345Q302 619 302 622Q302 624 258 624Z" />
<glyph unicode="N" glyph-name="N" horiz-adv-x="950" d="M258 624Q253 624 245 624T235 624Q214 624 209 626T199 639Q203 678 216 684Q220 686 344 686Q369 686 398 686T434 686Q442 686 447 686T456 686T462 686T466 685T470 684T473 682T477 680Q480 677 607
454Q738 227 739 227Q742 227 789 418T836 618Q836 620 835 620L821 622Q811 622 779 624Q755 624 749 625T740 632Q737 636 737 644Q737 656 742 669T754 685Q755 685 757 685T763 686Q768 686 803 685T890 684Q925 684 951 684T990 685T1006 686Q1013 686 1016
684Q1027 679 1027 668Q1023 632 1011 626Q1007 624 978 624Q912 622 907 617Q907 616 831 314T753 8Q749 0 723 0Q721 0 717 0T712 0Q699 0 692 7Q692 8 671 44T607 155T526 296L361 580L296 323Q234 74 234 68T302 62Q303 62 304 62T307 62Q315 62 320 61T329
56T334 44Q330 6 317 2L313 0L280 1Q260 2 181 2Q125 2 96 1T63 0Q48 0 43 15Q43 19 47 35Q52 55 57 58T94 62Q147 64 164 69L233 345Q302 619 302 622Q302 624 258 624Z" />
<glyph unicode="O" glyph-name="O" horiz-adv-x="837" d="M53 245Q53 297 70 356T125 478T216 590T349 671T523 703Q656 703 735 637T815 445Q815 378 791 307Q727 104 527 17Q437 -17 344 -17Q289 -17 242 -5T150 35T79 116T53 245ZM664 489Q664 575 618 611T511
648Q463 648 416 627T334 570Q297 531 270 472T230 355T213 261T208 206Q208 177 215 151T237 98T284 56T358 40Q440 40 510 98T618 270Q664 400 664 489Z" />
<glyph unicode="P" glyph-name="P" horiz-adv-x="723" d="M162 62L302 623Q302 624 258 624Q253 624 245 624T234 624Q214 624 209 626T200 638Q200 677 217 684Q220 686 439 686Q667 685 684 682Q686 681 693 680Q713 677 733 671T782 649T829 602T847 528Q847
450 784 382T604 293Q571 288 469 287H373L346 176Q340 151 333 122T321 78L317 64Q317 62 361 62Q366 62 374 62T387 62Q420 62 420 44Q417 10 404 2L399 0L357 1Q331 2 224 2Q149 2 109 1T65 0Q43 0 43 17Q43 21 47 33Q52 54 57 58T89 62Q92 62 100 62T113 62H162ZM692
558Q692 611 617 622Q610 623 529 624H452L381 343H458Q462 343 473 343T492 343Q603 343 641 389Q662 414 677 471T692 558Z" />
<glyph unicode="Q" glyph-name="Q" horiz-adv-x="869" d="M53 245Q53 297 70 356T125 478T216 590T349 671T523 703Q656 703 735 637T815 445Q815 410 808 370T781 277T729 178T643 87T519 14L525 4Q540 -19 553 -25T592 -32Q632 -32 654 -24T680 -7T689 10T704
18Q713 18 717 12T722 0Q722 -8 711 -36T681 -101T624 -166T541 -194Q513 -194 494 -183T465 -157T450 -118T444 -79T443 -41V-7L433 -9Q391 -17 344 -17Q301 -17 263 -10T185 15T118 62T71 138T53 245ZM666 482Q666 529 652 563T614 615T565 640T512 648Q412 648
335 573Q268 506 235 389T201 202Q201 164 210 136T230 95T259 66L262 76Q269 109 302 135T382 162Q401 162 415 159T449 140T484 92L491 78L496 82Q502 86 505 88T515 97T528 107T541 120T555 137T570 156T585 179T599 205T612 235Q629 278 647 351T666 482ZM439
56Q439 58 439 62T435 75T426 92T410 106T383 112Q353 112 332 96T311 63Q311 38 355 38Q357 38 360 38T366 38Q391 39 415 45T439 56Z" />
<glyph unicode="R" glyph-name="R" horiz-adv-x="872" d="M258 624Q253 624 245 624T235 624Q214 624 209 626T199 639Q203 678 216 684Q220 686 422 686Q433 686 446 686Q460 686 486 686T525 686Q634 686 698 674T806 620Q843 583 843 535Q843 505 833 478T805
432T768 396T728 370T690 352T662 342L651 338L654 336Q658 334 667 327T688 310Q719 278 719 237Q719 222 710 165T701 94Q701 35 748 35Q775 35 793 57T819 101Q822 112 826 114T843 117Q844 117 846 117T849 117Q881 117 881 99Q881 78 852 39T781 -11Q765 -17
728 -17Q537 -13 537 94Q537 110 552 169T567 243Q567 292 529 309Q517 316 508 316T441 318H375L374 314Q374 312 343 189T311 64Q311 62 355 62Q360 62 369 62T382 62Q414 62 414 44Q410 6 397 2L393 0L351 1Q325 2 221 2Q147 2 108 1T65 0Q48 0 43 15Q47 54
60 60Q64 62 113 62H162L302 623Q302 624 258 624ZM687 555Q687 617 589 623Q581 624 513 624H451L420 498Q413 468 405 436T392 388L388 371Q388 369 458 369Q464 369 485 369T515 369T541 372T570 377T596 386T624 400Q649 417 664 457T683 522T687 555Z" />
<glyph unicode="S" glyph-name="S" horiz-adv-x="693" d="M354 45Q429 45 467 91T506 184Q506 225 477 250Q461 262 384 279T294 300Q238 318 210 362T182 452Q182 493 202 540T257 623Q338 702 449 702Q491 702 501 701Q571 690 610 654Q614 649 617 650Q618
650 650 675T683 702Q685 703 692 703Q714 703 714 690Q714 686 687 578T658 466Q653 458 629 458Q606 458 602 463Q600 465 599 466Q598 469 598 473Q598 475 599 487T600 511Q600 584 557 614T454 645Q386 645 347 606T308 520Q308 506 311 496T323 477T338 464T360
454T384 446T413 439T441 433Q523 416 549 401Q581 384 602 352Q631 309 631 254Q631 214 615 170T567 83T478 12T347 -16Q322 -16 300 -14T261 -8T230 0T205 10T187 20T172 30L162 37L130 11Q125 7 119 3T110 -4T104 -9T100 -13T96 -15T93 -16T91 -17T88 -17Q87
-17 85 -17T82 -17Q76 -17 73 -16T69 -14T66 -10T63 -5L90 107Q97 135 107 173Q116 212 120 220T136 228Q137 228 141 228T148 228Q167 228 173 226T179 218Q179 216 176 200T173 168Q173 102 227 74T354 45Z" />
<glyph unicode="T" glyph-name="T" horiz-adv-x="637" d="M52 419Q22 419 22 434Q22 440 41 498T80 611L100 666Q105 673 111 675H434Q758 675 762 673Q772 668 772 657Q772 655 756 549T738 434Q735 419 711 419Q711 419 710 419T707 419Q690 419 686 421Q677
425 677 434Q676 436 678 449T683 485T686 529Q686 553 679 569T662 594T631 607T593 612T544 613H502L433 340Q418 279 400 207T374 100L365 65L364 62H498Q503 60 509 54Q511 51 511 43Q511 31 507 18T494 1L490 0Q487 0 482 0T424 1T271 2Q201 2 157 2T94 1T72
0Q72 0 71 0T70 0Q46 0 46 17Q49 54 62 60L66 62H137Q208 62 209 63L218 98Q227 134 244 203T278 339L347 613H300Q262 612 246 611T198 599T146 564Q128 545 114 512T91 454T79 425Q73 419 52 419Z" />
<glyph unicode="U" glyph-name="U" horiz-adv-x="800" d="M123 624Q117 624 109 624T96 624Q80 624 74 626T64 639Q68 678 81 684Q85 686 104 686Q155 684 268 684Q340 684 377 685T418 686Q441 686 441 668Q437 632 425 626Q421 624 371 624H322L270 415Q224
232 217 198T209 141Q209 45 336 45Q372 45 406 52T475 77T540 128T585 211Q586 214 593 241T614 322T639 420Q686 607 686 618Q686 620 685 620H683Q681 621 678 621T671 622Q660 622 630 624Q616 624 610 624T598 626T589 630T587 640Q587 647 590 659Q594 677
598 681T613 686Q618 686 653 685T740 684Q775 684 801 684T840 685T856 686Q863 686 866 684Q877 679 877 668Q877 663 873 649T867 631Q861 624 828 624Q762 622 757 617Q757 613 705 409T651 200Q620 112 540 48T328 -16Q251 -16 196 2T113 51T75 112T63 176Q63
202 70 232T117 422Q129 469 141 520T160 598L167 623Q167 624 123 624Z" />
<glyph unicode="V" glyph-name="V" horiz-adv-x="678" d="M116 624Q112 624 105 624T94 624Q62 624 62 642Q66 678 78 684Q82 686 99 686Q144 684 246 684Q330 684 368 685L401 686Q408 683 413 678Q415 674 415 668Q415 648 404 629Q398 624 356 624Q318 624
318 623Q318 620 337 508T377 284L397 174L472 285Q548 396 623 507T699 620Q698 621 652 624Q639 624 634 625T624 629T619 641Q619 647 622 658Q627 677 631 681T650 686Q654 686 686 685T766 684Q794 684 823 684T858 685Q873 685 878 683T886 671Q886 667 882
651Q877 632 873 628T850 624Q800 624 779 617Q774 617 770 613Q767 610 560 304T350 -5Q346 -9 332 -16H306Q304 -16 299 -16T291 -16Q270 -16 267 -2Q267 -1 260 37T238 161T210 313L156 624H116Z" />
<glyph unicode="W" glyph-name="W" horiz-adv-x="1093" d="M111 624Q108 624 102 624T91 623Q61 623 61 640Q61 660 70 678Q78 686 98 686Q140 684 239 684Q277 684 309 684T360 685T383 686H385Q407 686 407 668Q404 634 391 626Q387 624 348 624Q307 624 307
622Q307 618 332 409Q359 198 359 195L570 532L564 576L558 622V624H522Q519 624 513 624T504 624Q472 624 472 641Q475 678 488 684L493 686L529 685Q551 684 645 684Q716 684 753 685T795 686Q818 686 818 669Q815 632 802 626Q798 624 759 624Q718 624 718 622Q718
615 743 410Q770 199 770 196Q770 195 806 253T903 406Q1035 618 1035 619Q1025 624 968 624Q943 624 943 641Q943 648 946 659Q950 675 952 679T963 686L998 685Q1020 684 1093 684Q1113 684 1139 685T1173 686Q1192 686 1199 683T1207 669Q1207 664 1204 652Q1199
631 1194 628T1164 624Q1113 622 1101 615Q1098 612 905 305Q715 -1 709 -7Q699 -17 673 -17Q645 -17 639 -8L581 441Q581 444 442 221Q331 44 314 18T288 -14Q279 -17 263 -17Q262 -17 259 -17T254 -17Q229 -17 227 -5Q225 2 186 311L147 620V624H111Z" />
<glyph unicode="X" glyph-name="X" horiz-adv-x="947" d="M53 0Q38 6 38 17Q38 40 50 57Q56 62 78 62Q169 62 188 75Q194 77 435 324L444 334L439 347Q437 351 373 492L313 624H268Q263 624 256 624T246 624Q227 624 223 625T212 632Q210 635 210 642Q210 655
215 668T227 684Q230 686 247 686Q295 684 398 684Q438 684 472 684T527 685T551 686Q567 686 572 671Q572 667 568 651Q563 631 558 628T523 624T492 623H488L526 540Q563 457 564 457Q564 456 574 466T604 496T645 537L724 619Q716 622 677 624Q677 624 676 624T673
624Q645 624 645 640Q645 660 654 678Q659 683 666 686L704 685Q728 684 813 684Q847 684 873 684T913 685T931 686Q940 686 944 684Q953 680 953 670Q953 650 944 632Q938 626 936 625T924 624Q923 624 920 624T914 624Q823 624 803 611Q800 609 696 503T591 396Q591
394 667 229L743 62H787Q792 62 801 62T814 62Q846 62 846 44Q843 7 829 2Q825 0 817 0Q813 0 775 1T664 2Q590 2 551 1T508 0Q508 0 507 0Q484 0 484 18Q484 19 488 37Q492 56 497 58T534 62L566 63Q567 64 520 169T471 274Q469 274 369 172T268 67L315 62Q320
62 328 62L335 61Q347 58 347 44Q344 10 331 2L326 0L287 1Q263 2 177 2Q95 2 78 1L53 0Z" />
<glyph unicode="Y" glyph-name="Y" horiz-adv-x="675" d="M97 624Q93 624 85 624T73 624Q40 624 40 640Q40 660 49 678Q57 686 77 686Q122 684 228 684Q269 684 304 684T360 685T385 686Q406 686 406 668Q406 662 403 653Q398 631 393 628T361 624H353Q321 624
321 623T376 491T432 360L448 377Q465 394 493 424T553 490L673 620Q662 624 630 624Q606 624 606 640Q608 678 623 684Q627 686 634 686Q638 686 671 685T755 684Q777 684 805 685T841 686Q861 686 868 683T876 669Q876 664 873 652Q868 631 863 628T829 624Q764
622 747 611Q727 590 590 441L437 275L411 170Q385 65 384 64Q384 62 429 62Q434 62 442 62T453 62Q473 62 478 60T487 48Q488 44 484 29Q479 6 473 3Q468 0 454 0Q450 0 436 0T386 1T294 2Q220 2 181 1T138 0Q121 0 116 15Q120 54 133 60Q137 62 187 62H236L289
275L142 624H97Z" />
<glyph unicode="Z" glyph-name="Z" horiz-adv-x="773" d="M223 430Q192 430 192 448Q192 450 225 561T261 677Q265 683 270 684Q273 686 534 686Q796 686 797 685Q805 682 805 673Q805 668 804 661T800 648T798 641Q796 637 531 352L266 67L329 66Q334 66 346
66T364 66Q399 66 425 68T484 79T545 107T596 157Q617 186 630 220T649 273T663 297Q667 299 684 299Q685 299 686 299T688 299Q697 299 701 298T710 293T715 281Q715 278 673 145T628 8Q626 4 617 0H348Q289 0 221 0T139 -1Q112 -1 99 -1T78 1T69 5T68 12Q68 16
71 31T77 49L84 57Q91 65 104 79T133 110T170 151T213 196L610 624H540Q533 624 514 624T488 624T467 623T443 620T422 616T398 609T373 600Q292 560 255 449Q251 436 246 433T223 430Z" />
<glyph unicode="a" glyph-name="a" horiz-adv-x="633" d="M222 -8Q140 -8 89 34T38 158Q38 191 48 227Q72 329 151 390T327 452Q361 452 386 443T422 425T433 416T434 416L441 421Q448 426 460 430T486 435Q509 435 523 422T538 386Q538 380 522 315T488 179T467
93Q466 87 466 72Q466 42 483 42Q493 42 503 51T521 75Q531 94 541 134Q546 155 550 158T571 162H576Q577 162 580 162T587 162Q607 162 607 148Q606 142 604 132T590 94T566 47T528 9T474 -8Q396 -8 358 40Q295 -8 222 -8ZM404 351Q383 401 324 401Q300 401 270
385T221 330Q206 296 186 220Q166 136 166 106Q166 72 184 58T228 43Q256 43 284 57T328 84T343 103Q343 106 374 228L404 351Z" />
<glyph unicode="b" glyph-name="b" horiz-adv-x="521" d="M220 -8Q142 -8 94 35T45 155Q45 157 45 161T45 167Q45 187 52 217T104 426L153 622H149Q148 622 144 622T134 623T122 624T111 624T101 624T96 625Q84 628 84 642Q84 647 88 661T94 679Q98 684 109 685T185
690Q258 694 272 694Q289 694 293 679Q293 676 263 553L232 429L244 434Q256 440 281 446T331 452Q417 452 465 407T513 285Q513 235 494 184T439 90T346 20T220 -8ZM385 337Q385 400 318 400Q269 400 226 360Q214 349 211 341T191 268Q162 149 162 113Q162 44
226 44Q308 44 345 155Q351 173 365 226Q385 303 385 337Z" />
<glyph unicode="c" glyph-name="c" horiz-adv-x="513" d="M40 167Q40 280 129 365T352 451Q390 451 396 450Q448 441 473 416T499 358Q499 327 477 302T421 274H417Q393 274 378 288T362 325Q362 365 393 388Q401 394 399 394Q396 401 355 401Q276 401 231 338Q207
301 189 230T170 122Q170 43 264 43Q392 43 457 105Q472 120 480 117Q486 114 497 102T509 83Q509 79 502 70T477 47T432 21T360 1T259 -8Q194 -8 148 9T80 54T49 109T40 167Z" />
<glyph unicode="d" glyph-name="d" horiz-adv-x="610" d="M222 -8Q140 -8 89 34T38 158Q38 220 68 285T151 391Q230 452 329 452Q382 452 416 428L422 424Q423 424 447 523L472 622H468Q467 622 463 622T453 623T441 624T430 624T420 624T415 625Q403 628 403
642Q403 647 407 661T413 679Q417 684 428 685T504 690Q577 694 591 694Q608 694 612 679L467 91Q466 87 466 72Q466 43 483 43Q518 43 541 134Q546 155 550 158T571 162H576Q577 162 580 162T587 162Q607 162 607 148Q606 142 604 132T590 94T566 47T528 9T474
-8Q396 -8 358 40Q295 -8 222 -8ZM404 351Q383 401 324 401Q300 401 270 385T221 330Q206 296 186 220Q166 136 166 106Q166 72 184 58T228 43Q256 43 284 57T328 84T343 103Q343 106 374 228L404 351Z" />
<glyph unicode="e" glyph-name="e" horiz-adv-x="554" d="M260 -8Q196 -8 151 9T83 54T52 111T42 169Q42 188 44 210Q50 240 58 266Q127 434 335 451L338 452Q342 452 345 452Q347 452 353 452T363 451Q426 451 464 424T502 352Q502 289 442 250Q381 211 222 211H184Q184
210 181 196T175 162T171 126Q171 43 264 43Q391 43 457 105Q472 120 480 117Q486 114 497 102T509 83Q509 79 502 70T477 47T432 21T360 1T260 -8ZM427 349Q427 368 409 384T354 401Q316 401 287 388T242 354T216 314T202 278L197 263Q197 262 237 262H252Q267
263 273 263T295 264T320 267T344 272T369 279T390 290T409 304Q427 324 427 349Z" />
<glyph unicode="f" glyph-name="f" horiz-adv-x="568" d="M247 382Q240 382 228 382T210 382Q191 382 182 385T173 400Q177 436 189 442Q193 444 256 444H318L319 446Q337 565 355 602Q373 640 404 664T458 694T503 701Q569 701 596 676T624 617Q624 581 599 557T544
533Q520 533 504 547T488 585Q488 596 491 606T499 624T508 637T516 646L520 650Q515 650 509 651Q499 651 494 649Q459 630 459 564Q459 561 459 558T459 554L458 518L452 484Q446 448 445 447V444H584Q589 442 595 436Q597 432 597 426Q597 406 586 387Q580 382
505 382H434V380Q432 378 421 314T395 162T368 30Q324 -164 203 -199Q194 -201 175 -201Q123 -201 94 -177T64 -117T88 -58T145 -33Q169 -33 184 -47T200 -84Q200 -122 166 -150L174 -151H185Q202 -148 217 -112Q222 -94 240 9Q246 40 262 132T293 303T307 382H247Z"
/>
<glyph unicode="g" glyph-name="g" horiz-adv-x="545" d="M227 0Q142 0 93 43T43 166Q43 207 58 252T104 341T188 414T310 451L313 452Q316 452 319 452Q321 452 326 452T335 451Q367 451 390 443T425 425L436 416L443 421Q450 426 462 430T488 435Q511 435 525
422T540 386Q540 378 483 151T424 -82Q401 -139 335 -170T167 -202Q72 -202 36 -183T0 -125Q0 -90 24 -67T81 -43Q103 -43 119 -56T136 -99Q133 -124 114 -149L123 -150H164H183Q222 -150 254 -127T299 -74Q300 -71 306 -47T318 -1T324 23Q323 23 310 18T274 6T227
0ZM407 353Q406 354 404 358T400 365T395 371T388 379T381 385T371 391T360 396T346 400T329 401Q300 401 277 389T240 355T219 317T205 280Q171 148 171 109Q171 77 190 64T235 51T296 67Q322 82 337 98L345 106L407 353Z" />
<glyph unicode="h" glyph-name="h" horiz-adv-x="668" d="M99 -8Q70 -8 58 9T45 39Q45 51 116 336L188 622H184Q183 622 179 622T169 623T157 624T146 624T136 624T131 625Q119 628 119 642Q119 647 123 661T129 679Q133 684 144 685T220 690Q293 694 307 694Q324
694 328 679Q328 672 294 540Q286 507 278 473T264 420L260 403Q260 400 269 408Q327 451 393 451Q395 451 397 451T401 451T405 451T410 451Q425 451 439 450T476 442T515 424T544 391T556 337Q556 298 536 238T497 125T477 56Q477 48 480 45Q482 43 490 43Q522
45 544 75T577 140Q582 156 585 159T605 162H611Q612 162 615 162T622 162Q642 162 642 148Q642 138 632 114T602 62T550 13T478 -8Q429 -8 394 17T358 83Q358 95 395 199T433 350Q433 400 394 400Q392 400 390 400T388 400Q388 400 387 400Q385 400 383 400Q334
400 291 363Q256 332 236 298Q233 293 202 170T169 40Q160 18 141 5T99 -8Z" />
<glyph unicode="i" glyph-name="i" horiz-adv-x="405" d="M205 615Q205 646 229 670T283 694Q310 694 324 679T339 641Q339 610 315 586T258 562Q235 562 220 577T205 615ZM24 296Q24 305 34 328T63 380T115 430T187 452Q205 452 223 448T262 435T295 406T308
360Q308 345 287 290T240 170T207 87Q202 67 202 57Q202 42 215 42Q224 42 237 49T257 64Q288 92 302 140Q307 156 310 159T330 162H336Q337 162 340 162T347 162Q367 162 367 148Q367 140 357 117T329 65T276 14T201 -8Q158 -8 121 15T83 84Q83 104 133 229T184
358Q189 376 189 388Q189 402 177 402Q168 402 155 395T134 380Q103 352 89 304Q84 288 81 285T61 282H55Q54 282 51 282T44 282Q24 282 24 296Z" />
<glyph unicode="j" glyph-name="j" horiz-adv-x="471" d="M321 616Q321 648 346 671T400 694Q425 694 440 680T456 640Q456 609 431 586T376 562Q353 562 337 577T321 616ZM297 373Q297 386 294 392T287 400T278 401H276Q241 399 210 372T158 303Q151 287 148
285T129 282H123Q122 282 120 282T116 282Q102 282 97 284T92 298Q96 331 153 391T279 451Q357 451 388 422T420 354V339L371 142Q363 111 353 71T339 13T329 -30T318 -64T308 -88T296 -109T283 -125T264 -142Q190 -202 88 -202Q44 -202 16 -181T-12 -125Q-12 -93
11 -68T68 -43Q92 -43 108 -58T124 -93Q124 -121 106 -144Q101 -150 103 -150Q120 -150 147 -128T191 -64Q194 -57 242 136T294 345Q297 360 297 373Z" />
<glyph unicode="k" glyph-name="k" horiz-adv-x="604" d="M99 -8Q71 -8 58 9T45 39Q45 51 116 336L188 622H184Q183 622 179 622T169 623T157 624T146 624T136 624T131 625Q119 628 119 642Q119 647 123 661T129 679Q133 684 144 685T220 690Q293 694 307 694Q324
694 328 679Q328 674 280 482Q231 290 231 287Q231 285 234 286Q259 302 294 334T356 390T420 433T493 452Q528 452 546 427T564 364Q564 308 538 282T480 256Q456 256 441 269T425 308Q425 339 444 359T483 384L502 389Q502 395 496 398Q493 400 483 400Q465 400
449 395T409 374T373 347T323 305T268 257Q274 256 282 256Q312 251 329 247T371 232T411 202Q431 181 431 146Q431 132 427 110T422 73Q422 44 440 44Q441 44 442 44Q462 44 478 64T502 102T514 141Q518 157 522 159T547 162Q548 162 551 162T558 162Q578 162
578 148Q578 118 537 56T440 -7H432Q374 -7 337 21T299 94Q299 103 301 116T304 139Q304 164 281 181T235 202L212 206H211Q176 47 160 24Q137 -8 99 -8Z" />
<glyph unicode="l" glyph-name="l" horiz-adv-x="348" d="M157 -8Q138 -8 118 -4T77 11T41 42T27 91V106L156 622H152Q151 622 147 622T137 623T125 624T114 624T104 624T99 625Q87 628 87 642Q87 647 91 661T97 679Q101 684 112 685T188 690Q261 694 275 694Q292
694 296 679L151 91Q150 85 150 71Q150 42 167 42Q187 42 205 75Q216 96 225 134Q230 155 234 158T255 162H260Q261 162 264 162T271 162Q291 162 291 148Q290 145 289 140T283 118T271 87T254 54T229 23T197 1T157 -8Z" />
<glyph unicode="m" glyph-name="m" horiz-adv-x="1032" d="M24 296Q25 302 27 312T41 350T65 397T104 435T159 452Q203 452 234 435Q268 419 285 384L295 392Q305 401 317 410T349 429T389 445Q411 451 446 451Q560 451 592 383Q593 380 594 379L595 375L604 384Q675
452 762 452Q893 452 916 367Q918 356 918 334Q918 285 881 183T841 66Q838 43 849 43Q876 43 901 69T940 138Q945 156 949 159T969 162H975Q976 162 979 162T986 162Q1006 162 1006 148Q1006 138 996 115T966 63T914 13T841 -8Q794 -8 758 16T721 82Q721 96 758
199T796 351Q796 401 753 401Q740 401 728 398Q686 392 652 361T599 298Q597 294 567 172T533 40Q525 22 506 7T462 -8Q435 -8 422 8T409 39Q409 48 425 114T458 248T476 320Q478 330 478 348T474 377T462 393T449 399T433 400Q433 400 432 400Q430 400 428 400Q379
400 336 363Q301 332 281 298Q278 293 247 170T214 40Q206 22 187 7T143 -8T104 7T90 39Q90 47 108 124T146 274L164 347Q166 355 166 372Q166 401 149 401Q147 401 145 401Q112 397 89 306Q84 288 80 285T55 282Q54 282 51 282T44 282Q24 282 24 296Z" />
<glyph unicode="n" glyph-name="n" horiz-adv-x="713" d="M24 296Q25 302 27 312T41 350T65 397T104 435T159 452Q203 452 234 435Q268 419 285 384L293 391Q363 452 454 452Q575 446 597 367Q599 356 599 334Q599 285 562 183T522 66Q519 43 530 43Q557 43 582
69T621 138Q626 156 630 159T650 162H656Q657 162 660 162T667 162Q687 162 687 148Q687 138 677 115T647 63T595 13T522 -8Q475 -8 439 16T402 82Q402 96 439 199T477 351Q477 401 434 401Q421 401 409 398Q341 388 285 305L278 295L247 170Q216 46 214 40Q206
22 187 7T143 -8T104 7T90 39Q90 47 108 124T146 274L164 347Q166 355 166 372Q166 401 149 401Q147 401 145 401Q112 397 89 306Q84 288 80 285T55 282Q54 282 51 282T44 282Q24 282 24 296Z" />
<glyph unicode="o" glyph-name="o" horiz-adv-x="585" d="M254 -8Q191 -8 146 9T80 54T49 111T39 169Q39 206 53 247T96 329T176 402T292 446Q317 451 336 451L344 452Q353 452 359 452Q457 452 516 408T576 279Q576 169 488 81T254 -8ZM349 400Q321 400 287 385T231
338Q206 301 188 228T170 126Q170 99 178 83Q198 44 260 44Q367 44 409 157Q419 185 432 238T445 317Q445 336 443 348Q435 372 416 384T384 398T349 400Z" />
<glyph unicode="p" glyph-name="p" horiz-adv-x="601" d="M24 296Q25 302 27 312T41 350T65 397T103 435T157 452Q235 452 273 404Q336 452 409 452Q434 452 458 448T507 432T550 402T581 354T593 285Q593 221 564 159T480 53Q401 -8 302 -8Q290 -8 279 -7T259
-3T242 3T228 9T218 14T212 18L209 20Q208 19 190 -55T171 -131T198 -132Q200 -132 205 -132T213 -132Q225 -132 232 -135T240 -150Q237 -187 223 -192Q219 -194 212 -194Q208 -194 176 -193T95 -192Q48 -192 24 -193T-3 -194Q-11 -194 -16 -190T-22 -182T-23 -176Q-20
-142 -7 -134Q-3 -132 20 -132H44L164 354Q165 357 165 372Q165 401 148 401Q113 401 90 310Q85 289 82 286T60 282H55Q54 282 51 282T44 282Q24 282 24 296ZM465 339Q465 373 447 387T403 401Q375 401 347 387T303 360T288 341Q288 338 257 216L227 93Q248 43
306 43Q332 43 361 59T410 115Q425 147 445 224Q465 309 465 339Z" />
<glyph unicode="q" glyph-name="q" horiz-adv-x="542" d="M38 159Q38 209 58 260T113 355T205 425T327 452Q338 452 348 451T366 449T382 444T394 440T405 434T414 429T422 423T429 418Q440 429 481 440T533 452Q540 452 545 447T550 437Q550 432 481 152Q410
-130 410 -131T437 -132Q439 -132 444 -132T452 -132Q479 -132 479 -150Q476 -187 462 -192Q458 -194 451 -194Q447 -194 414 -193T330 -192Q277 -192 249 -193T217 -194Q202 -194 197 -179Q197 -175 201 -159Q206 -139 211 -136T243 -132H251H283L319 15L307 10Q295
4 270 -2T220 -8Q134 -8 86 37T38 159ZM402 353Q402 358 395 368T369 390T324 401Q301 401 282 394T249 369T226 338T208 297T196 258T186 218Q166 141 166 107Q166 44 229 44Q265 44 294 61T337 95Q341 100 371 222T402 353Z" />
<glyph unicode="r" glyph-name="r" horiz-adv-x="529" d="M24 296Q24 298 28 313T42 352T67 398T104 436T154 452Q198 452 230 437T273 404L282 411Q334 452 393 452Q441 452 470 423T500 350Q500 301 473 279T418 256Q395 256 379 270T363 308Q363 366 424 386Q424
388 420 391T405 398T385 401Q363 401 343 390Q321 380 289 341L252 192Q214 42 212 39Q190 -8 142 -8Q117 -8 103 7T89 39Q89 52 127 202T165 369Q165 402 148 402Q139 402 128 393T110 369Q100 348 90 310Q85 289 82 286T60 282H55Q54 282 51 282T44 282Q24 282
24 296Z" />
<glyph unicode="s" glyph-name="s" horiz-adv-x="531" d="M140 290Q140 311 148 336T176 388T235 433T326 451Q326 451 329 451T336 451Q350 451 364 450T399 444T437 430T464 404T476 363Q476 333 456 311T406 289Q384 289 371 302T357 335Q357 351 364 364T379
384L386 391Q386 392 381 394T362 398T330 400Q299 400 278 393T247 373T235 352T232 335Q232 322 242 312Q258 299 315 290T403 260Q457 224 457 167Q457 152 453 134T435 90T397 43T330 7T229 -8Q133 -8 95 22T57 91Q57 127 81 152T139 177Q161 177 177 164T194
121Q189 80 153 56Q179 43 236 43Q275 43 303 52T343 75T361 101T366 124Q366 148 338 161T272 180T232 186Q187 198 164 227T140 290Z" />
<glyph unicode="t" glyph-name="t" horiz-adv-x="415" d="M82 382Q77 382 68 382T55 382Q21 382 21 399Q21 422 33 439Q39 444 93 444H144L162 517Q163 522 167 541T174 567T181 589T192 611T206 627T226 639T253 643Q276 643 291 630T306 594Q306 586 288 514Q284
499 280 481T273 454L271 445Q271 444 317 444Q322 444 331 444T345 445Q377 445 377 428Q377 408 368 390Q366 388 365 387T362 384T358 383T352 382T341 382Q339 382 327 382T306 382H255Q182 86 182 75Q182 61 185 54T192 45T201 43Q202 43 203 43T204 43Q242
46 279 81Q298 101 309 119T323 145T330 157T350 162H356Q357 162 359 162T363 162Q377 162 382 160T387 146Q385 136 372 114T337 64T275 14T192 -7Q131 -7 95 19T59 90V105L128 381Q128 382 82 382Z" />
<glyph unicode="u" glyph-name="u" horiz-adv-x="681" d="M24 296Q24 307 35 331T65 383T117 431T187 452Q237 452 272 427T308 362Q308 347 273 254T238 111Q238 43 291 43Q319 43 344 58T380 86T391 103T426 247T464 396Q472 414 491 429T535 444T574 429T588
397Q588 390 570 315T534 168L516 97Q514 89 514 72Q514 42 531 42Q545 42 556 56Q574 76 589 134Q594 155 598 158T619 162H624Q625 162 628 162T635 162Q655 162 655 148Q654 142 652 132T638 94T614 47T575 9T520 -8Q509 -8 498 -7T478 -3T461 2T446 8T434 16T424
23T416 29T410 35T406 39L405 41L397 34Q347 -7 288 -7Q287 -7 285 -7T281 -7Q148 -7 122 78Q116 95 116 125V136Q116 175 152 273T189 389Q189 396 186 399Q184 401 176 401Q150 399 126 372T89 304Q84 288 81 285T61 282H55Q54 282 51 282T44 282Q24 282 24 296Z"
/>
<glyph unicode="v" glyph-name="v" horiz-adv-x="567" d="M380 367Q380 397 406 425T465 453Q493 453 516 430T540 357Q540 314 524 250T467 115T373 13Q338 -8 292 -8Q218 -8 167 23T116 129Q116 166 134 222T171 325T189 388Q189 396 186 399Q184 401 176 401Q148
398 125 372T89 304Q84 288 81 285T61 282H55Q54 282 51 282T44 282Q24 282 24 296Q24 306 34 330T64 382T116 431T189 452Q231 452 269 429T308 362Q308 346 273 255T238 114Q238 43 306 43Q336 43 363 65T407 118T437 182T456 239T462 268Q462 290 417 315Q380
335 380 367Z" />
<glyph unicode="w" glyph-name="w" horiz-adv-x="831" d="M636 367Q636 400 664 426T719 453Q748 453 772 431T796 357Q796 321 782 256T727 112T633 6Q604 -8 567 -8Q466 -8 415 43Q414 42 410 38T403 31T396 25T388 18T378 11T367 5T355 0T340 -4T324 -7T306
-8Q249 -8 209 5T151 40T125 84T117 129Q117 165 135 221T172 324T190 388Q190 396 187 399Q181 405 158 396Q112 376 90 306Q85 288 81 285T61 282H55Q54 282 51 282T44 282Q24 282 24 296Q24 305 34 328T63 380T114 430T187 452Q240 452 274 427T309 362Q309
346 275 255T240 117Q240 43 317 43Q325 43 333 45T347 50T359 57T369 66T377 75T383 83T388 90L390 95Q390 99 389 110T387 129Q387 139 391 167Q393 177 419 282T448 396Q456 414 475 429T519 444Q546 444 559 428T572 397Q572 384 542 265T511 114Q511 43 579
43Q608 43 633 66T673 122T699 188T714 244L718 267Q718 291 673 315Q636 335 636 367Z" />
<glyph unicode="x" glyph-name="x" horiz-adv-x="659" d="M74 282Q73 282 70 282T63 282Q43 282 43 296Q43 298 45 307T56 332T76 365T110 401T159 433Q200 451 233 451Q234 451 235 451T236 451Q273 451 282 450Q358 437 382 400L392 410Q434 452 483 452Q538
452 568 421T599 346Q599 303 573 280T517 256Q494 256 478 270T462 308Q462 343 488 367Q501 377 520 385Q520 386 516 389T502 396T480 400T462 398Q429 383 415 341Q354 116 354 80T405 44Q449 44 485 74T535 142Q539 157 542 159T562 162Q562 162 564 162T568
162Q569 162 572 162T579 162Q599 162 599 148Q599 135 586 111T550 60T485 12T397 -8Q313 -8 266 35L258 44Q215 -7 161 -7H156Q99 -7 71 25T43 95Q43 143 70 165T125 188Q148 188 164 174T180 136Q180 101 154 77Q141 67 122 59Q124 54 136 49T161 43Q183 43
200 61T226 103Q287 328 287 364T236 400Q200 400 164 377T107 302Q103 287 100 285T80 282Q80 282 78 282T74 282Z" />
<glyph unicode="y" glyph-name="y" horiz-adv-x="590" d="M206 -150Q240 -150 268 -134T314 -95T344 -48T362 -7T367 14Q339 -7 280 -7Q230 -7 195 5T144 39T122 79T115 122Q115 162 133 219T170 324T189 388Q189 396 186 399Q184 401 176 401Q148 398 125 372T89
304Q84 288 81 285T61 282H55Q54 282 51 282T44 282Q24 282 24 296Q24 306 34 329T64 381T116 431T188 452Q239 452 273 427T308 361Q308 347 273 253T237 109Q237 43 291 43T388 98Q388 99 425 246T463 396Q471 414 490 429T534 444T573 430T587 399Q587 386 537
186T483 -25Q461 -84 410 -126T296 -188Q277 -194 243 -200Q225 -202 204 -202Q127 -202 96 -175T64 -114Q64 -82 86 -57T144 -31Q169 -31 184 -45T199 -83Q199 -89 198 -94T196 -104T193 -113T189 -120T184 -128T179 -134T173 -141T168 -147Q189 -150 206 -150Z"
/>
<glyph unicode="z" glyph-name="z" horiz-adv-x="555" d="M66 -8Q65 -8 63 -8T60 -8Q34 -8 34 5Q34 9 42 22T70 59T115 110Q162 156 255 229T381 332L389 339H381Q348 332 298 329T212 325T172 321Q168 318 151 318Q150 318 148 318T146 318Q135 318 130 318T120
322T116 332Q116 336 118 342Q128 374 154 402Q205 452 265 452Q304 452 352 422T426 392Q441 392 462 421T485 451T508 452Q509 452 512 452T518 452Q539 452 539 438Q539 431 516 401T458 334Q412 289 312 210Q229 146 191 111L183 103H195Q203 103 213 104T240
107T268 110Q301 114 337 116T391 119T428 123T455 134T469 157Q473 166 495 166Q521 166 525 161Q532 156 528 141Q510 81 456 37T337 -7Q297 -7 251 22T177 52Q154 52 134 38T100 8L88 -7Q86 -8 66 -8Z" />
<glyph unicode="&#xa0;" glyph-name="uni00A0" horiz-adv-x="250" />
<glyph unicode="&#x393;" glyph-name="Gamma" horiz-adv-x="657" d="M257 618Q252 618 244 618T231 618Q198 618 198 636Q202 672 214 678L219 680H763Q769 677 772 673T776 666L777 664Q777 659 766 549T751 433Q745 424 723 424Q704 424 699 427T693 441Q693
444 695 467T697 513Q697 535 693 551T683 578T665 597T642 609T611 615T576 617T534 618H516H456L455 614Q455 613 387 339T317 64Q317 62 375 62Q382 62 394 62T411 62Q430 62 438 59T447 44Q444 7 430 2Q426 0 416 0Q409 0 359 1T231 2Q152 2 111 1T65 0Q48
0 43 15Q47 54 60 60Q64 62 113 62H162L163 66Q163 67 231 341T301 616Q301 618 257 618Z" />
<glyph unicode="&#x394;" glyph-name="increment" horiz-adv-x="958" d="M65 0Q59 6 59 9T61 16Q64 20 334 357T608 698Q616 706 629 710Q630 710 634 710T644 710T656 711H662Q674 711 680 710T691 705T700 693Q706 674 805 345T904 14Q904 7 894 1L479 0H65ZM630
342L567 551L232 134L462 133H693Q693 137 630 342Z" />
<glyph unicode="&#x398;" glyph-name="Theta" horiz-adv-x="867" d="M358 -17Q218 -17 136 49T54 243Q54 298 70 356T123 474T211 582T338 663T504 702H527Q578 702 590 701Q709 688 776 622T844 441Q844 379 825 315T765 192T668 86T532 11T358 -17ZM700 474Q700
525 685 561T642 616T587 643T528 652Q390 652 301 534Q252 472 225 373T198 210Q198 160 214 125T256 71T311 44T372 36Q484 36 571 119Q639 189 669 299T700 474ZM283 346Q288 364 294 391Q304 430 308 437T326 445Q328 445 330 445T334 445Q334 445 335 445T338
445Q366 445 366 428Q366 424 364 419L362 411H466L570 412L573 422Q576 437 581 441T604 445Q620 445 623 444Q636 440 636 429Q636 423 616 340T593 253Q586 243 572 243Q571 243 569 243T566 243Q545 243 539 249Q536 251 535 253T534 258T534 263T535 270T537
277H329L326 266Q323 251 318 247T295 243Q279 243 276 244Q263 248 263 259Q263 265 283 346Z" />
<glyph unicode="&#x39b;" glyph-name="Lambda" horiz-adv-x="806" d="M159 2Q133 2 105 2T72 1Q57 1 52 3T44 15Q44 19 48 35Q53 55 58 58T89 62Q142 64 151 73Q154 76 345 387T538 699Q550 711 570 711Q572 711 575 711T580 711Q582 711 586 711T592 711Q613
711 618 695Q619 692 654 379T690 63Q690 62 726 62Q729 62 736 62T746 62Q776 62 776 44Q773 7 759 2Q755 0 747 0Q743 0 707 1T600 2Q502 2 476 1L439 0Q432 3 427 8Q425 12 425 18Q425 38 436 57Q442 62 485 62Q525 62 525 64L478 483Q478 484 465 463T422 394T350
277Q222 69 222 68Q223 67 224 67Q229 64 271 62Q284 62 290 61T300 57T305 45Q305 38 302 28Q297 9 293 5T274 0Q270 0 238 1T159 2Z" />
<glyph unicode="&#x39e;" glyph-name="Xi" horiz-adv-x="841" d="M206 466Q175 466 175 484Q175 487 201 574T230 666Q235 673 241 675H547Q853 675 857 673Q867 668 867 657Q867 655 850 569T832 478Q826 466 808 466Q807 466 805 466T802 466Q802 466 800 466T795
466Q773 466 771 481Q771 486 775 508T779 541V549H774Q755 552 505 552Q281 551 267 548Q262 548 255 533T242 496T233 472Q228 466 206 466ZM259 255Q259 255 257 255T252 255Q231 255 228 270Q228 275 248 355T270 439Q277 448 288 448Q290 448 293 448T298
448Q321 448 326 440Q331 434 326 414Q326 413 486 413H647L650 424Q653 441 658 444T678 448H683Q685 448 688 448T693 448Q702 448 705 446T714 432L694 348Q691 336 686 316Q675 272 671 264T652 255Q651 255 648 255T643 255Q622 255 617 261Q613 265 613 272T613
283T616 289Q616 290 456 290H295L294 286Q291 263 281 257Q278 255 259 255ZM150 131Q150 126 161 125Q172 124 390 123Q640 123 664 126Q668 127 675 127Q686 131 704 198Q709 213 714 216T733 220Q734 220 735 220T738 220Q755 220 759 218Q768 213 768 203Q768
198 741 105T710 8Q708 4 699 0H388Q77 0 73 2Q62 7 62 18Q62 27 81 115Q84 132 89 158Q98 203 102 211T120 220Q122 220 124 220T129 220Q140 220 145 220T155 215T160 202Q160 198 159 192Q150 145 150 131Z" />
<glyph unicode="&#x3a0;" glyph-name="Pi" horiz-adv-x="982" d="M257 618Q252 618 244 618T231 618Q198 618 198 636Q202 672 214 678L219 680H1011Q1022 675 1026 665Q1022 626 1009 620Q1005 618 956 618H907L906 614Q906 613 838 339T768 64Q768 62 812 62Q817
62 826 62T839 62Q871 62 871 44Q867 6 854 2L850 0L808 1Q782 2 675 2Q600 2 560 1T516 0Q499 0 494 15Q498 54 511 60Q515 62 564 62H613L614 66Q614 67 682 341T752 616Q752 618 604 618H456L455 614Q455 613 387 339T317 64Q317 62 361 62Q366 62 375 62T388
62Q420 62 420 44Q416 6 403 2L399 0L357 1Q331 2 224 2Q149 2 109 1T65 0Q48 0 43 15Q47 54 60 60Q64 62 113 62H162L163 66Q163 67 231 341T301 616Q301 618 257 618Z" />
<glyph unicode="&#x3a3;" glyph-name="Sigma" horiz-adv-x="885" d="M847 430Q828 430 823 434T817 450Q817 453 817 465T818 487Q818 515 813 535T801 571T777 595T746 611T703 620T652 623T590 624Q580 624 560 624T528 624H430L513 487Q594 351 596 345Q596
335 590 330Q583 323 418 204L250 81L363 80Q533 80 591 89T694 142Q739 185 765 252Q772 268 776 271T799 274Q816 274 820 272Q832 266 830 254Q829 250 784 130T736 7Q732 3 725 0H405Q84 0 80 2Q69 7 69 18Q69 26 75 32Q76 32 98 48T168 100T255 164L432 293Q429
300 329 465T225 637Q223 675 245 686H888Q900 680 902 671Q902 667 890 556T876 441Q871 430 847 430Z" />
<glyph unicode="&#x3a5;" glyph-name="Upsilon" horiz-adv-x="671" d="M32 544Q32 586 91 644T229 703Q277 703 311 683T363 628T389 560T397 491V478L404 491Q455 589 526 646T677 703Q730 703 766 671T802 584Q802 561 797 549T785 534T766 531Q765 531 762
531T757 531L736 532L732 535L729 539V549Q731 569 715 575T658 581Q657 581 654 581T650 581Q545 581 477 443Q453 392 443 351Q441 345 424 273T389 133T371 64Q371 62 428 62Q435 62 446 62T461 62Q483 62 492 59T501 44Q498 10 485 2L480 0L431 1Q401 2 278
2T127 1L85 0Q71 6 71 17Q71 22 74 33Q79 54 84 58T118 62Q122 62 134 62T154 62H216Q232 126 249 193T273 287T287 345T296 388T299 416T300 452Q294 581 198 581Q154 581 132 575T106 562T99 546T86 533Q82 531 60 531L39 532Q32 537 32 544Z" />
<glyph unicode="&#x3a6;" glyph-name="Phi" horiz-adv-x="767" d="M323 624Q317 624 307 624T293 624Q268 624 262 626T251 639Q255 678 268 684Q272 686 293 686Q348 684 475 684Q557 684 600 685T647 686H648Q671 686 671 668Q667 632 655 626Q650 624 588 624H525L500
520Q500 519 520 518T579 507T656 480Q737 440 737 372Q737 294 648 237Q562 180 426 169L412 168L399 118Q386 66 386 65L385 62H443Q450 62 462 62T479 62Q498 62 506 59T515 44Q511 8 499 2L494 0L447 1Q417 2 298 2Q212 2 167 1T118 0Q100 0 95 15Q99 54 112
60Q116 62 179 62H241Q242 64 254 114T266 167Q266 168 262 168Q256 168 237 170T180 181T110 205T54 249T29 316Q29 391 112 446T327 516Q345 518 349 518Q351 518 353 518L355 519Q356 520 368 570T381 623Q381 624 323 624ZM342 466Q341 467 339 467Q320 467
283 455T225 420Q181 361 181 296Q181 273 193 257T222 233T254 222T277 219L280 220Q281 220 311 342T342 466ZM583 389Q583 409 576 423T557 444T533 456T509 463T492 467H486L455 343Q444 300 437 271T428 231T426 219Q430 219 445 222T483 232T521 250Q551
269 567 310T583 389Z" />
<glyph unicode="&#x3a8;" glyph-name="Psi" horiz-adv-x="714" d="M205 471Q205 445 196 403T186 333Q186 303 194 281T218 248T240 233T262 224L361 623Q361 624 303 624Q295 624 283 624T266 623Q248 623 240 626T232 641Q232 647 235 657Q240 678 244 682T268
686H273Q329 684 457 684Q502 684 540 684T599 685T626 686H628Q651 686 651 668Q649 633 631 624H505L407 227Q410 228 416 229T439 239T472 259T507 294T539 345Q549 365 563 416T597 498T649 538Q657 540 717 540Q725 540 738 540T755 541Q774 541 782 538T790
524Q790 512 784 497Q780 491 767 490T742 477Q736 471 731 463T722 449T715 433T710 419T705 403T701 389Q686 340 658 302T599 240T530 201T463 179T404 169L391 168L379 116Q365 67 365 63Q365 62 422 62Q429 62 440 62T455 62Q477 62 486 59T495 44Q492 10
479 2L474 0L427 1Q397 2 278 2T131 1L90 0Q76 6 76 17Q76 22 79 33Q84 54 89 58T123 62Q127 62 139 62T159 62H221Q247 162 247 168H244Q241 169 239 169Q202 176 178 182T123 207T74 252Q46 291 46 351Q46 375 52 404T59 454Q59 489 40 489Q32 489 27 494T22
507Q22 535 37 538Q40 540 99 540Q104 540 114 540T128 540Q168 540 186 528T205 471Z" />
<glyph unicode="&#x3a9;" glyph-name="Omega" horiz-adv-x="879" d="M162 119Q181 115 235 115L273 116Q273 133 231 222T180 345Q173 368 173 391V406Q173 406 173 408T173 414Q173 477 214 540Q255 600 315 635Q353 661 423 682T585 703Q656 703 711 690T799
656T851 608T879 555T886 503Q886 449 860 401Q840 359 810 322T725 230T643 146Q619 117 619 116T650 115Q707 115 722 120Q730 123 750 165T775 210Q779 212 796 212Q828 212 828 196Q828 191 807 144T764 52L743 7Q743 7 742 6T740 4T738 3T736 2T733 2T728
1T722 1T713 0T701 0T686 0Q680 0 662 0T632 0Q618 0 599 0T573 0Q535 0 526 2T517 17Q517 44 544 103T617 243T671 341Q729 454 729 535Q729 599 686 625T583 652Q549 652 517 645T450 616T388 561T344 470T327 340Q327 304 331 237T336 135Q336 93 330 50T313
2Q308 0 208 0Q192 0 170 0T142 0Q107 0 100 4T93 25Q93 28 93 41T95 77T96 118L100 199Q105 208 109 210T131 212Q147 212 151 210T161 199V180V160Q161 131 162 125V119Z" />
<glyph unicode="&#x3b1;" glyph-name="alpha" horiz-adv-x="761" d="M39 166Q39 213 59 261T117 353T219 424T362 452Q420 452 466 433T536 384T573 325T586 269V265Q593 272 609 308T636 381Q640 397 644 399T669 402Q670 402 673 402T680 402Q700 402 700 388Q700
379 691 351T659 276T604 188L593 173L595 153Q600 79 612 43H618Q634 45 642 51T653 64T658 71Q661 73 684 73Q712 73 712 59Q712 39 685 16T603 -7Q588 -7 575 -5T551 2T532 12T516 24T503 37T494 49T487 60T481 69L469 61Q362 -8 251 -8Q159 -8 99 36T39 166ZM260
43Q310 43 361 63T438 101T465 124Q458 240 453 277Q435 401 354 401Q291 401 245 355Q230 337 217 313Q201 279 186 216T170 126Q170 72 208 54Q230 43 260 43Z" />
<glyph unicode="&#x3b2;" glyph-name="beta" horiz-adv-x="660" d="M59 -194Q58 -194 55 -194T49 -194Q31 -194 28 -182Q28 -178 107 139T192 473Q212 533 248 580T324 652T395 689T450 701H461Q514 701 551 688T605 652T630 607T637 561Q637 546 634 526T611
465T556 393Q572 382 590 347T608 262Q608 146 522 69T299 -8Q279 -8 261 -6T228 2T204 13T183 26T169 37T157 48L150 56L120 -64Q113 -92 103 -131Q93 -176 89 -185T73 -194Q72 -194 67 -194T59 -194ZM531 592Q531 651 463 651Q399 651 341 600T253 466Q250 458
217 327T182 185Q180 176 180 159Q180 108 212 76T301 44Q330 44 354 51T393 65T423 91T444 118T459 151T468 179T475 206Q490 264 491 296Q491 313 489 326T484 345L482 350Q481 350 477 348T464 344T444 340T413 335T372 333T334 334T301 340T274 355T265 380Q265
444 397 444Q425 444 445 441T476 436L485 433Q489 433 499 458Q509 482 520 527T531 592ZM424 390Q424 393 389 393Q383 393 374 393T362 392Q348 392 333 388Q345 384 379 384Q424 384 424 390Z" />
<glyph unicode="&#x3b3;" glyph-name="gamma" horiz-adv-x="590" d="M5 269Q5 285 19 312T57 368T124 421T215 451H231H241Q274 451 303 439T353 406T389 361T416 311T432 266T442 232L444 220L446 216L450 226Q473 278 513 357T561 441Q566 444 584 444Q586 444
589 444T594 444Q617 444 617 430Q617 426 596 389T536 273T462 110L452 84L451 70Q447 12 427 -76T388 -192Q375 -211 355 -211Q339 -211 332 -198T325 -171Q325 -114 386 64L393 84V98Q393 181 371 241Q360 280 319 303T210 327Q158 327 126 317T84 296T68 272T59
258Q55 256 36 256Q23 256 18 256T9 260T5 269Z" />
<glyph unicode="&#x3b4;" glyph-name="delta" horiz-adv-x="522" d="M216 610Q216 640 229 664T262 700T299 719T327 725Q330 725 406 709T487 690Q513 681 513 651Q513 627 494 607T450 587Q417 587 378 631Q346 663 314 663Q286 663 272 639Q271 637 271 634Q271
609 344 536L397 484Q438 448 458 410T478 313Q478 234 443 147T338 18Q298 -8 249 -8Q214 -8 180 0T113 26T60 81T39 168Q39 200 50 237T87 316T160 391T272 442L260 465Q216 553 216 610ZM348 235Q348 274 336 313T310 372L298 392Q295 391 290 390T269 380T241
359T212 323T185 267Q157 168 157 130Q157 83 186 63T255 43Q280 43 300 67Q317 89 332 138T348 235Z" />
<glyph unicode="&#x3b5;" glyph-name="epsilon" horiz-adv-x="529" d="M224 -17Q126 -17 81 22T36 112Q36 178 84 226L93 236L88 246Q79 264 79 289Q79 341 124 388Q201 461 333 461Q402 461 455 425Q480 409 481 390Q481 365 464 350T428 334Q415 334 387 352T313
370Q141 370 141 293Q141 275 146 270Q147 270 148 270T155 272Q202 291 263 291Q264 291 266 291T270 291Q349 291 349 244Q349 195 281 183Q274 182 239 182Q201 182 184 185T137 200Q123 188 112 168T100 129Q100 113 109 103T131 87T164 78T199 75T237 74Q238
74 240 74T243 74Q244 74 247 74T251 74Q288 74 310 75T359 86T398 112Q405 124 417 124Q426 124 432 117T439 100Q439 88 427 70T390 32T322 -3T224 -17ZM286 238Q286 240 253 240Q245 240 234 239T216 237T209 235Q209 232 250 232Q286 232 286 238Z" />
<glyph unicode="&#x3b6;" glyph-name="zeta" horiz-adv-x="508" d="M317 612Q319 638 320 649T325 678T338 703T361 711Q371 711 379 705T388 689Q389 685 389 683Q389 680 388 675T383 655T376 618V612H379Q385 618 429 618Q521 618 521 572Q521 551 506 534Q483
510 415 507Q385 507 371 511T336 536L326 528Q254 472 204 381T154 209Q154 190 157 177Q159 165 162 154T170 135T182 119T195 106T212 95T229 86T249 78T269 72T290 66T311 60Q385 37 388 36Q437 14 454 -36Q456 -46 456 -64Q456 -83 455 -90Q445 -132 413 -167T333
-202Q300 -202 257 -191T206 -169Q203 -164 203 -158Q203 -148 210 -140T231 -130Q239 -130 263 -139T326 -151Q326 -151 327 -151T329 -151Q337 -151 342 -150T352 -143T357 -123Q356 -117 355 -113T350 -104T344 -96T335 -90T324 -85T310 -80T294 -74T275 -68T254
-62Q253 -62 231 -56T205 -48T179 -39T150 -26T125 -10T100 11T80 37T62 70T53 109T48 157Q48 281 123 396T317 586V612ZM454 564Q445 567 424 567Q407 567 398 565T387 563Q387 558 411 558Q434 558 450 562L454 564Z" />
<glyph unicode="&#x3b7;" glyph-name="eta" horiz-adv-x="600" d="M24 296Q25 302 27 312T41 350T65 397T103 435T157 452Q202 452 233 435Q267 419 284 384L294 392Q304 401 316 410T348 429T388 445Q410 451 445 451Q446 451 448 451T453 451Q468 451 482 450T519
443T558 425T587 391T600 337Q600 335 600 332T600 327Q600 314 594 289T559 146Q546 95 538 64Q484 -158 478 -168Q457 -211 409 -211Q386 -211 372 -197T357 -161Q357 -158 415 80Q476 330 477 348Q477 366 473 377T461 393T448 399T432 400Q432 400 431 400Q429
400 427 400Q378 400 335 363Q300 332 280 298Q277 293 246 170T213 40Q205 22 186 7T142 -8T103 7T89 39Q89 49 106 117T142 260T164 351Q166 363 166 372Q166 402 148 402Q139 402 128 393T110 369Q100 350 90 310Q85 289 82 286T60 282H55Q54 282 51 282T44
282Q24 282 24 296Z" />
<glyph unicode="&#x3b8;" glyph-name="theta" horiz-adv-x="562" d="M213 -8Q130 -8 85 50T40 200Q40 201 40 203T40 207Q40 304 83 428Q122 535 189 608Q279 702 381 702Q410 702 437 693T492 661T537 593T554 486Q554 428 539 362T495 230T425 111T330 25T213
-8ZM433 562Q433 600 419 625T377 651Q363 651 348 644T311 619T268 557T229 453Q225 441 217 411T208 378H401Q433 500 433 562ZM161 140Q161 43 217 43Q249 43 280 74Q310 103 332 150T378 287Q385 313 385 315Q385 316 289 316H192Q191 308 183 275T169 205T161
140Z" />
<glyph unicode="&#x3b9;" glyph-name="iota" horiz-adv-x="412" d="M161 -8Q111 -8 75 16T38 85Q38 95 48 121T80 214T123 368L124 374Q126 381 127 386T132 399T139 414T149 428T162 440T180 448T203 452Q226 452 241 439T257 404Q257 386 230 290T171 111Q157
76 157 57Q157 43 166 43Q209 43 258 69T322 144Q326 157 330 159T348 162Q349 162 351 162T355 162Q356 162 359 162T366 162Q386 162 386 148Q386 143 383 132T367 100T335 61Q301 27 253 10T161 -8Z" />
<glyph unicode="&#x3ba;" glyph-name="kappa" horiz-adv-x="668" d="M123 -8T98 -8T59 7T45 39Q45 48 67 139T112 317L134 404Q148 439 187 450Q199 452 204 452Q226 452 242 440T258 405Q258 392 244 336Q230 284 230 281Q230 280 238 284T270 306T330 349Q365
377 389 394T450 427T519 444Q545 444 559 430T574 391Q574 360 551 336T491 312Q469 312 454 326T439 364Q439 372 438 372Q433 372 395 344T320 289T283 260H285Q287 260 290 260T297 259Q495 248 495 146Q495 132 491 110T486 74Q486 43 505 43Q520 43 531 53Q559
72 578 141Q582 157 586 159T611 162Q612 162 615 162T622 162Q642 162 642 148Q642 134 627 100T578 29T504 -7H495Q435 -7 399 22T363 96Q363 111 366 122T369 142Q369 155 364 165T347 182T326 193T298 200T269 204T238 207T212 210L211 206L190 123L169 40Q161
22 142 7Z" />
<glyph unicode="&#x3bb;" glyph-name="lambda" horiz-adv-x="671" d="M95 -13Q70 -13 55 4T40 41Q40 65 61 88Q65 92 210 207T357 322L235 602Q217 640 185 643Q182 643 178 644T173 645Q161 651 161 666Q161 677 167 684T181 692Q189 694 212 694Q335 694 358
660Q362 653 500 340T647 18Q652 10 652 6Q652 -3 646 -5T622 -8Q618 -8 607 -8T589 -8H538L526 -5Q506 1 500 8Q494 16 444 128Q442 133 440 138L387 259L265 134Q156 20 137 4T95 -13Z" />
<glyph unicode="&#x3bc;" glyph-name="mu" horiz-adv-x="708" d="M294 -8Q265 -8 244 -5T213 1T201 4Q200 4 192 -32T172 -111T155 -168Q134 -211 86 -211Q62 -211 48 -196T34 -158Q37 -144 103 123T174 404Q188 439 227 450Q239 452 244 452Q271 452 284 436T298
404Q298 392 267 269T235 114Q235 43 305 43Q342 43 375 68T418 110Q420 112 455 253T492 397Q514 444 562 444Q587 444 601 429T615 397Q615 387 599 320T563 178T542 93Q540 81 540 72Q540 42 558 42Q567 42 578 51T596 75Q606 94 616 134Q621 155 624 158T646
162H651Q652 162 655 162T662 162Q682 162 682 148Q681 142 679 132T665 94T641 47T602 9T548 -8Q523 -8 502 -3T468 11T446 27T432 40L429 46Q367 -8 294 -8Z" />
<glyph unicode="&#x3bd;" glyph-name="nu" horiz-adv-x="577" d="M78 -2Q38 -2 38 15Q38 22 82 198L127 379Q124 382 88 382Q67 382 62 390Q59 393 59 402Q59 415 64 427T78 443Q79 444 157 448T247 452Q256 452 261 448T266 440L267 437Q267 432 223 252L177
71L192 77Q293 117 371 199T480 388Q489 424 511 438T556 452Q579 452 593 438T608 402Q608 378 593 340T540 251T446 152T299 62T96 -1Q91 -2 78 -2Z" />
<glyph unicode="&#x3be;" glyph-name="xi" horiz-adv-x="508" d="M287 648Q291 671 293 680T305 700T329 711Q341 711 348 703T356 687Q356 680 351 653T345 619Q345 615 346 615Q358 618 398 618Q490 618 490 572Q490 553 476 536T434 512Q411 508 378 508Q376
508 372 508T366 508Q332 508 306 534L298 525Q271 496 254 456T237 375Q237 336 244 336Q271 346 319 346Q320 346 322 346T325 346Q354 346 372 344T406 331T422 300Q422 252 350 238Q332 236 303 236Q286 236 269 238T240 242T218 247T202 252T196 254Q193 254
176 238T142 193T124 139Q124 108 151 92T267 46Q285 40 295 37Q308 33 332 25T366 13T392 3T415 -8T432 -20T445 -36T451 -55T454 -80Q454 -118 427 -153T358 -199Q349 -201 327 -201Q313 -201 298 -200T271 -196T246 -191T226 -185T210 -180T200 -176L196 -174Q187
-170 187 -158T196 -138T216 -130Q217 -130 254 -140T329 -151Q349 -151 349 -135Q349 -127 340 -122T293 -104Q260 -93 238 -85Q130 -48 115 -41Q71 -19 47 15T23 88Q23 126 48 179T130 277L144 288L136 297Q99 336 99 390Q99 456 148 514T285 602V619Q285 624
286 635T287 648ZM355 563Q362 560 376 558Q424 558 423 564Q405 567 390 567Q369 567 355 563ZM279 292Q297 287 315 287Q328 287 338 288T351 290T355 293Q355 296 321 296Q316 296 308 296L301 295Q295 295 289 294L279 292Z" />
<glyph unicode="&#x3bf;" glyph-name="omicron" horiz-adv-x="585" d="M254 -8Q191 -8 146 9T80 54T49 111T39 169Q39 206 53 247T96 329T176 402T292 446Q317 451 336 451L344 452Q353 452 359 452Q457 452 516 408T576 279Q576 169 488 81T254 -8ZM349 400Q321
400 287 385T231 338Q206 301 188 228T170 126Q170 99 178 83Q198 44 260 44Q367 44 409 157Q419 185 432 238T445 317Q445 336 443 348Q435 372 416 384T384 398T349 400Z" />
<glyph unicode="&#x3c0;" glyph-name="pi" horiz-adv-x="682" d="M55 289Q54 289 50 289T43 289Q23 289 23 303Q23 308 33 322Q116 434 199 443Q200 444 418 444Q591 444 617 444T652 439Q674 426 674 400Q674 378 661 360T625 335Q621 334 549 333H479L477 321Q476
312 476 279Q476 219 491 174T521 104T536 65Q536 38 511 15T457 -8Q403 -8 386 94Q384 110 384 139Q384 181 391 229T406 304L413 331Q413 333 365 333H316L315 329Q315 328 312 314T301 272T288 220Q274 167 258 103Q244 49 240 38T228 18Q225 16 224 14Q200
-8 172 -8Q146 -8 132 7T118 44Q118 53 121 61Q122 65 142 102T190 195T235 293Q250 329 250 333Q177 333 166 332Q115 328 88 301L77 290L55 289Z" />
<glyph unicode="&#x3c1;" glyph-name="rho" horiz-adv-x="612" d="M307 -8Q277 -8 251 0T215 14L205 20Q203 18 193 -25T171 -114T155 -168Q134 -211 87 -211Q64 -211 49 -198T34 -162Q34 -158 137 254Q153 299 179 334T232 390T277 419T311 434Q357 451 403 451Q435
451 455 449T506 435T560 400Q603 357 603 285Q603 172 520 82T307 -8ZM474 343Q474 364 458 382T409 400Q409 400 408 400T406 400Q340 400 299 341Q281 313 264 257Q261 248 242 170T222 89Q222 84 230 74T260 54T308 43Q334 43 365 57T417 110Q437 145 456 228Q474
298 474 332V343Z" />
<glyph unicode="&#x3c2;" glyph-name="sigma1" horiz-adv-x="424" d="M33 209Q33 277 80 334T195 421T330 451Q332 451 337 451T344 451Q409 451 439 429Q457 417 457 402Q457 386 445 375T420 363Q415 363 406 368T383 383T354 398Q347 400 330 400Q256 400 196
361T135 265Q135 263 135 261T135 257Q135 246 144 229Q156 210 174 199L358 107Q400 77 400 28T362 -63T271 -105Q254 -105 229 -99T195 -86Q188 -82 188 -71Q188 -56 197 -50T216 -44Q225 -44 237 -48T270 -53H282Q293 -44 293 -31Q293 -19 283 -10Q278 -4 200
33T115 76Q77 98 55 133T33 209Z" />
<glyph unicode="&#x3c3;" glyph-name="sigma" horiz-adv-x="686" d="M35 151Q35 190 51 236T99 327T184 404T306 443Q307 443 316 443T342 443T378 444T425 444T476 444Q606 444 626 444T655 439Q677 426 677 400Q677 358 639 340Q625 333 563 333Q510 333 510
331Q518 319 518 272Q518 155 437 74T226 -8Q123 -8 79 41T35 151ZM396 278Q396 314 375 323T305 332Q249 332 222 310T180 243Q171 219 162 178T153 116Q153 116 153 114T153 110Q153 101 155 92T165 71T189 51T234 43Q347 43 382 199Q383 203 383 204Q396 255
396 278Z" />
<glyph unicode="&#x3c4;" glyph-name="tau" horiz-adv-x="521" d="M55 289Q54 289 50 289T43 289Q23 289 23 303Q23 308 33 322Q116 434 199 443Q200 444 386 444Q571 444 577 442Q588 441 599 432T610 402Q610 359 572 340Q561 335 547 334T452 333H353V331Q352
330 342 261T320 119T306 40Q300 18 281 3Q257 -13 233 -13Q210 -13 196 0T181 35Q181 44 182 48Q183 53 229 187T279 331Q279 333 228 333Q225 333 219 333T209 333Q162 333 136 328T88 301L77 290L55 289Z" />
<glyph unicode="&#x3c5;" glyph-name="upsilon" horiz-adv-x="631" d="M444 367Q444 400 471 426T529 453Q555 453 579 431T604 358Q604 327 592 271T557 172Q550 157 541 142T510 97T464 47T404 9T328 -8Q264 -8 219 5T154 41T125 85T117 131Q117 170 135 225T171
326T189 388Q189 396 186 399Q184 401 176 401Q144 399 122 369T89 304Q84 288 81 285T61 282H55Q54 282 51 282T44 282Q24 282 24 296Q24 306 34 330T64 382T116 431T188 452Q232 452 270 430T308 361Q308 345 275 258T241 123Q241 44 336 44H344Q380 44 415 73T474
140T511 214T526 267Q526 280 513 292Q505 301 486 311T456 333T444 367Z" />
<glyph unicode="&#x3c6;" glyph-name="phi" horiz-adv-x="747" d="M238 4Q230 5 218 8T174 26T118 58T73 112T53 190Q53 219 60 246Q77 313 103 362T143 426T163 443Q165 444 186 444Q210 444 214 438Q216 435 216 431Q216 428 215 425T210 418T204 410T196 402T188
392Q157 351 137 291T116 206Q116 127 263 109L276 107L288 139Q347 304 414 378T566 452Q621 449 662 412T703 286Q698 167 598 82T357 -8H332V-11Q332 -12 327 -46T317 -116T310 -157Q306 -180 286 -198T234 -216Q211 -216 197 -203T183 -168Q183 -162 184 -155Q184
-152 198 -112T225 -34T238 4ZM637 260Q637 303 607 322T541 341Q502 341 466 319T405 264Q368 218 356 159Q348 111 348 104Q348 103 361 103Q502 103 569 152T637 260Z" />
<glyph unicode="&#x3c7;" glyph-name="chi" horiz-adv-x="718" d="M58 -194Q32 -194 32 -164Q32 -153 46 -139L175 -13Q296 104 296 106Q271 232 226 308Q165 401 141 401Q128 401 117 390T100 365Q94 350 91 349T69 346H45Q35 348 35 359Q35 380 62 411T133 450Q143
452 165 452Q286 452 329 402Q347 379 366 333T394 254T404 215Q404 213 405 213Q405 212 420 227T463 268T520 324Q637 437 640 438Q647 444 661 444Q667 444 676 438T685 419Q685 405 670 389T549 271L420 145Q433 85 444 53Q466 -25 509 -88T575 -151Q590 -151
600 -140T617 -114T626 -98Q629 -96 650 -96Q651 -96 652 -96T655 -96Q665 -96 669 -96T677 -99T681 -108Q681 -112 679 -119Q670 -148 646 -169T591 -199Q581 -201 550 -201Q422 -201 381 -143Q345 -88 316 20L311 39L230 -40Q144 -126 114 -153Q85 -182 77 -188T58
-194Z" />
<glyph unicode="&#x3c8;" glyph-name="psi" horiz-adv-x="758" d="M244 141Q244 117 254 98T277 70T305 55T329 48T342 47L344 48L424 366Q501 678 505 686Q508 691 512 692T533 694T555 693T562 688T565 683Q565 678 486 362T406 45Q406 43 415 43Q467 49 514
78T590 143T636 213T653 266Q653 282 641 293T613 311T585 332T572 367Q572 397 598 425T657 453Q684 453 708 430T732 358Q732 330 723 287T706 225Q671 124 578 58T401 -8H393L370 -101Q346 -196 345 -197Q340 -202 316 -202Q315 -202 312 -202T306 -202Q286
-202 286 -188Q286 -187 296 -144T318 -57T331 -8Q331 -6 328 -6Q290 -6 233 11T148 62Q119 97 119 146Q119 182 154 276T190 388Q190 401 181 401Q154 401 129 375T90 306Q85 288 81 285T61 282H55Q54 282 51 282T44 282Q24 282 24 296Q24 306 34 329T64 381T116
431T189 452Q237 452 273 428T309 362Q309 343 277 260T244 141Z" />
<glyph unicode="&#x3c9;" glyph-name="omega" horiz-adv-x="718" d="M532 367Q532 399 559 426T618 453Q645 453 668 430T691 357Q691 319 677 261T649 171Q640 149 626 125T586 68T521 14T438 -7Q401 -7 372 7T333 30T311 57Q246 -8 165 -8Q119 -8 82 19T30 102Q24
126 24 163V178Q24 210 37 255Q61 346 118 424Q141 451 161 451Q174 451 184 443T194 419Q194 402 179 387Q91 273 91 206Q91 159 122 138T189 117T281 145V173Q283 223 294 253Q304 276 323 289T364 303Q386 303 400 287T415 250Q415 219 385 157L378 144Q378
142 388 136T419 124T462 117Q522 117 566 165T610 255Q610 288 561 320Q532 337 532 367Z" />
<glyph unicode="&#x3d1;" glyph-name="theta1" horiz-adv-x="692" d="M294 528Q294 606 350 653T464 701Q536 701 579 659Q634 601 634 491Q634 468 630 438T623 388L620 370Q624 370 631 369T647 364T656 352Q656 347 653 335Q652 333 651 330Q648 321 646 318T637
315Q631 315 619 317Q606 319 605 316Q605 315 603 308Q587 248 550 177T457 57Q379 -8 293 -8Q192 -8 153 23T114 116Q114 120 114 125T114 132Q114 151 140 254Q147 282 153 307T162 340T165 355T166 372Q166 402 148 402Q139 402 128 393T110 369Q100 350 90
310Q85 289 82 286T60 282H55Q54 282 51 282T44 282Q24 282 24 296Q25 302 27 312T41 350T65 397T104 435T158 452Q184 452 211 445T263 414T288 354V339L265 245Q237 134 237 118Q237 117 237 113T237 107Q237 106 237 105T237 102Q237 91 238 84T245 66T265 50T300
43Q395 43 455 254Q479 346 479 347L460 354Q294 408 294 528ZM519 566Q519 600 507 625T464 651Q425 651 391 617T356 529Q356 501 370 478T404 441T443 417T477 404L491 400Q493 400 499 428T512 497T519 566Z" />
<glyph unicode="&#x3d5;" glyph-name="phi1" horiz-adv-x="712" d="M274 -7Q232 -4 195 7T125 38T71 94T51 176V190Q51 213 60 242T95 307T156 373T255 425T393 451L397 452L427 568Q434 596 443 634Q452 677 456 685T472 694Q474 694 478 694T486 694Q487 694
490 694T495 694Q517 694 517 680L514 665Q510 650 503 621T489 564L460 451H469Q527 447 574 430T657 370T693 266Q693 163 599 82T350 -7H346L322 -100Q320 -110 316 -127Q303 -180 299 -191T283 -202Q282 -202 277 -202T269 -202Q268 -202 265 -202T258 -202Q238
-202 238 -188Q238 -186 260 -96L283 -7H274ZM449 400Q448 400 404 225T359 47T366 45Q464 55 516 119Q542 149 558 199T575 295Q575 387 462 398L449 400ZM384 398Q384 399 381 399Q350 399 298 378T214 308Q168 236 168 149Q168 68 259 49Q282 44 294 44H295L384
398Z" />
<glyph unicode="&#x3d6;" glyph-name="omega1" horiz-adv-x="975" d="M55 289Q54 289 50 289T43 289Q23 289 23 303Q23 308 33 322Q116 434 199 443Q200 444 562 444Q922 444 928 442Q961 434 961 400Q961 376 944 355T886 333H870Q872 322 872 295V279Q872 230
842 165T751 46T618 -8Q581 -8 554 6T513 45T494 84T484 119Q484 121 478 114Q477 113 476 111Q384 -7 268 -7Q268 -7 267 -7T265 -7Q255 -7 245 -6T215 3T183 24T158 66T147 132Q147 149 149 166T155 198T165 229T176 256T189 281T200 301T211 319T220 333H199Q120
333 88 301L77 290L55 289ZM639 103Q674 103 712 122T780 188T811 295Q811 318 808 330V333H289Q274 318 244 263T214 169Q214 133 236 118T288 103Q351 103 412 153T494 278Q497 290 502 292T529 295Q545 295 550 293T556 283Q556 281 553 260T550 218Q550 153
576 128T639 103Z" />
<glyph unicode="&#x3f1;" glyph-name="uni03F1" horiz-adv-x="612" d="M371 -168Q357 -168 323 -171T245 -175Q143 -175 109 -150T75 -66Q75 -5 100 108T137 254Q153 299 179 334T232 390T277 419T311 434Q357 451 403 451Q435 451 455 449T506 435T560 400Q603
357 603 282Q603 213 569 148T465 38T304 -8Q273 -8 247 -2T204 14T176 31T159 46T152 53Q152 52 148 27T144 -16Q144 -36 150 -44T189 -58T293 -64Q405 -65 432 -75Q466 -88 466 -127Q466 -140 459 -172Q455 -188 451 -191T426 -194Q425 -194 423 -194T420 -194Q404
-194 400 -191T395 -176Q396 -170 394 -169T378 -168Q373 -168 371 -168ZM236 116Q236 77 258 60T311 43Q369 43 407 94Q429 123 451 206T474 331Q474 400 409 400Q409 400 408 400T406 400Q340 400 299 341Q276 305 256 227T236 116Z" />
<glyph unicode="&#x3f5;" glyph-name="uni03F5" horiz-adv-x="483" d="M281 -7Q216 -7 168 10T94 54T56 110T44 167V181Q44 262 94 329Q104 343 119 357T162 391T234 425T327 443Q328 443 348 443T383 444Q434 444 442 438Q450 430 450 416Q446 392 424 383L376
382Q306 381 278 369Q230 349 208 294Q199 274 199 268Q199 267 291 267Q305 267 325 267T353 268Q383 268 394 263T406 241Q406 214 380 206Q375 205 279 205T183 203Q174 176 174 140Q174 87 208 65T292 43Q295 43 300 43T307 44Q337 49 372 69T415 89Q419 89
421 88Q425 85 430 71T436 46Q436 41 434 39Q432 36 420 29T380 11T322 -5Q311 -7 281 -7Z" />
<glyph unicode="&#xeffd;" glyph-name="uniEFFD" horiz-adv-x="900" d="M0 0V100H100V0H0ZM800 0V100H900V0H800Z" />
<glyph unicode="&#xeffe;" glyph-name="uniEFFE" horiz-adv-x="300" d="M0 0V100H100V0H0ZM200 0V100H300V0H200Z" />
<glyph unicode="&#xefff;" glyph-name="uniEFFF" horiz-adv-x="100" d="M0 0V100H100V0H0Z" />
</font>
</defs>
</svg>
