<?xml version="1.0" standalone="no"?> <!DOCTYPE svg PUBLIC "-//W3C//DTD SVG 1.0//EN" "http://www.w3.org/TR/2001/REC-SVG-20010904/DTD/svg10.dtd" > <svg xmlns="http://www.w3.org/2000/svg" width="100%" height="100%">
<defs >
<font id="MathJax_Math-BoldItalic" horiz-adv-x="515" ><font-face
    font-family="MathJax_Math"
    units-per-em="1000"
    panose-1="0 0 0 0 0 0 0 0 0 0"
    ascent="992"
    descent="-416"
    alphabetic="0" />
<missing-glyph horiz-adv-x="250" d="M50 0V533H200V0H50ZM100 50H150V483H100V50Z" />
<glyph unicode=" " glyph-name="space" horiz-adv-x="250" />
<glyph unicode="/" glyph-name="slash" horiz-adv-x="894" d="M189 -210Q177 -210 169 -201T160 -179Q160 -171 162 -166Q164 -163 420 266T679 698Q686 711 704 711Q716 711 724 703T733 681Q733 672 730 667Q723 654 469 228T211 -201Q202 -210 189 -210Z" />
<glyph unicode="A" glyph-name="A" horiz-adv-x="869" d="M65 0Q45 0 45 18Q45 35 54 53Q58 60 62 61T81 62Q108 62 142 66Q160 68 165 74Q166 74 265 228T465 539T569 699Q576 707 583 709T611 711H620Q640 711 649 700Q650 697 695 380L741 63L784 62H827Q839
50 839 45L835 29Q831 9 827 5T806 0Q788 0 741 1T657 2Q621 2 572 1T504 0Q481 0 481 17Q481 36 490 54Q499 63 506 63Q507 63 518 63T541 62H569Q580 62 580 63Q580 68 573 121T564 179V181H308L271 124Q236 69 236 67T283 62Q299 62 307 60Q316 56 316 46Q316
26 307 8Q302 3 295 0L262 1Q242 2 168 2Q142 2 109 1T65 0ZM537 372Q533 402 528 435T521 486T518 504V505Q517 505 433 375L348 244L451 243Q555 243 555 244L537 372Z" />
<glyph unicode="B" glyph-name="B" horiz-adv-x="866" d="M162 62Q163 68 198 208T267 485T302 623T258 624T209 626Q202 629 199 639Q199 643 203 659Q209 681 216 684Q220 686 449 686Q647 685 671 685T720 679Q853 653 853 547Q853 511 838 481Q793 394 670
363Q667 363 663 362T656 360H654H653L662 358Q670 357 683 354T712 344T744 327T774 303T795 269T804 224Q804 187 787 152Q755 86 689 47T533 1Q524 0 288 0H58Q47 4 43 15Q43 19 47 35Q53 57 60 60Q64 62 113 62H162ZM703 550Q703 606 643 623L545 624H447L417
504Q386 384 386 383T470 382Q554 383 565 385Q656 402 692 491Q703 524 703 550ZM651 240Q651 309 592 329Q587 330 479 331H373L340 198Q307 65 306 64Q306 62 406 62L507 63L519 65Q571 78 604 115T648 209Q651 226 651 240Z" />
<glyph unicode="C" glyph-name="C" horiz-adv-x="817" d="M833 703Q855 703 855 690Q855 686 823 558T789 426Q786 421 782 420T756 419Q735 420 731 421T725 427Q723 431 724 440Q726 458 726 472Q726 551 678 604Q651 630 609 639Q600 640 574 640Q421 640 329
545Q287 503 260 437Q243 399 229 343T211 244Q210 237 210 219Q210 151 237 117Q251 96 273 83Q328 46 420 46H429Q473 46 516 64Q572 87 617 133T678 234Q683 249 687 251T712 254T736 252Q743 248 743 240Q743 236 740 227Q717 146 646 83T477 -5Q433 -17 380
-17Q280 -17 204 17T90 115Q55 172 55 256Q55 343 99 434Q155 550 265 621T525 702H545Q589 702 596 701Q688 686 731 634L777 668Q822 701 825 702Q827 703 833 703Z" />
<glyph unicode="D" glyph-name="D" horiz-adv-x="938" d="M162 62Q163 68 198 208T267 485T302 623T258 624T209 626Q202 629 199 639Q199 643 203 659Q209 681 216 684Q220 686 437 686Q659 686 668 685Q774 677 837 625T913 475Q914 466 914 434Q914 413 913
406Q897 248 797 140T548 7Q517 2 494 2T279 0H58Q47 4 43 15Q43 19 47 35Q53 57 60 60Q64 62 113 62H162ZM768 475Q768 543 731 577T624 622Q616 623 532 624H452L382 344Q311 64 311 63T363 62Q465 62 487 64Q561 74 616 109Q634 121 656 142Q707 196 733 294Q747
340 758 395Q768 447 768 475Z" />
<glyph unicode="E" glyph-name="E" horiz-adv-x="810" d="M163 66Q163 67 231 341T301 616Q301 618 257 618Q212 618 209 620Q198 625 198 636Q198 641 202 655T208 673Q211 676 219 680H811Q825 675 825 664Q825 659 814 549T799 433Q793 424 771 424Q748 424
743 432Q739 438 741 459Q744 484 744 505Q744 561 722 584T646 616Q639 617 545 618H456Q398 400 398 385Q398 384 435 384Q486 385 503 392Q526 401 539 420T562 478Q566 494 571 497T595 501Q612 501 617 499T626 486Q626 482 593 349T557 213Q552 205 530 205Q512
205 506 208T499 221Q499 227 502 238Q508 265 508 281Q508 310 484 317Q473 321 423 322H382L317 64Q317 62 390 62Q478 62 509 66Q591 75 640 124Q680 164 723 262Q726 267 728 273T732 281T736 285T745 288T760 289Q782 289 788 281Q791 275 791 274Q791 267
763 201T706 71L678 8Q676 4 667 0H58Q47 4 43 15Q43 19 47 35Q53 57 60 60Q64 62 113 62H162L163 66Z" />
<glyph unicode="F" glyph-name="F" horiz-adv-x="689" d="M163 66Q163 67 231 341T301 616Q301 618 257 618Q212 618 209 620Q198 625 198 636Q198 641 202 655T208 673Q211 676 219 680H795Q809 675 809 664Q809 659 798 549T783 433Q777 424 755 424Q732 424
727 432Q723 438 725 459Q727 473 727 507V524Q727 598 655 612Q632 617 538 618H456L455 614Q455 611 424 491L394 371H429Q475 372 491 378Q535 392 552 464Q556 481 561 484T586 488Q603 488 607 486Q616 480 616 473Q616 467 584 337T549 201Q545 194 541 193T521
192Q498 192 493 200Q489 208 492 224Q499 251 499 269Q499 296 479 303Q467 308 417 308L379 309L348 188Q341 161 334 129T322 80L318 65L317 62H375Q433 62 436 60Q447 55 447 45Q447 26 438 8Q433 3 426 0L377 1Q347 2 231 2Q189 2 137 1T65 0Q48 0 43 15Q43
19 47 35Q53 57 60 60Q64 62 113 62H162L163 66Z" />
<glyph unicode="G" glyph-name="G" horiz-adv-x="887" d="M803 276Q826 276 826 258Q826 241 817 223Q814 219 810 216Q806 214 771 214H736Q736 211 710 109T683 5Q678 0 671 0Q665 0 636 14T597 36Q593 38 590 40T586 44T583 44T576 40Q509 -16 379 -16Q241
-16 156 44T57 217Q56 225 56 255T57 294Q81 469 208 579T518 702H540Q586 702 595 701Q675 689 726 639L731 635L776 668Q821 701 824 702Q826 703 832 703Q854 703 854 690Q854 686 822 558T788 426Q785 421 781 420T755 419Q734 420 730 421T724 427Q722 433
722 437Q722 442 723 453T725 469Q725 590 642 628Q616 640 575 640Q467 640 390 593T272 464Q232 384 215 273Q210 236 210 214Q210 128 266 87T419 46Q504 46 543 93Q554 108 569 164L581 214H519Q457 214 452 216Q443 220 443 230Q443 250 452 268Q457 273 464
276L514 275Q546 274 657 274Q697 274 742 275T803 276Z" />
<glyph unicode="H" glyph-name="H" horiz-adv-x="982" d="M162 62Q163 68 198 208T267 485T302 623T258 624T209 626Q202 629 199 639Q199 643 203 659Q209 681 216 684Q220 686 239 686Q290 684 403 684Q432 684 481 685T553 686T576 668Q576 663 572 649T566
631Q562 627 560 626Q555 624 506 624H457L399 389Q399 388 547 388H695L753 623Q753 624 709 624T660 626Q653 629 650 639Q650 643 654 659Q658 673 659 677T665 683T681 686Q702 686 755 685T847 684Q885 684 935 685T1004 686Q1027 686 1027 668Q1027 663 1023
649T1017 631Q1013 627 1011 626Q1006 624 957 624H908L839 344Q768 64 768 63T812 62Q857 62 861 60Q871 55 871 44Q871 39 867 25T861 7Q858 4 850 0L808 1Q782 2 675 2Q636 2 586 1T516 0Q499 0 494 15Q494 19 498 35Q504 57 511 60Q515 62 564 62H613L614 66L679
324Q679 326 531 326H383L382 322L317 64Q317 62 361 62Q406 62 410 60Q420 55 420 44Q420 39 416 25T410 7Q407 4 399 0L357 1Q331 2 224 2Q185 2 135 1T65 0Q48 0 43 15Q43 19 47 35Q53 57 60 60Q64 62 113 62H162Z" />
<glyph unicode="I" glyph-name="I" horiz-adv-x="511" d="M154 62Q155 68 190 208T259 485T294 623T247 624T196 626Q186 632 186 640Q186 650 191 666T202 684Q206 686 226 686Q277 684 393 684Q423 684 476 685T553 686Q573 686 573 670Q573 650 564 632Q559
627 557 626Q553 624 501 624H449L380 344Q309 64 309 63T356 62T408 60Q417 56 417 46Q417 26 408 8Q403 3 396 0L352 1Q325 2 216 2T82 1L45 0Q30 6 30 16Q30 27 35 41T46 60Q51 62 102 62H154Z" />
<glyph unicode="J" glyph-name="J" horiz-adv-x="631" d="M677 686Q683 686 688 681T694 669Q694 664 691 652Q686 631 681 628T647 624H602L542 380Q479 130 478 129Q462 79 417 44T312 -5Q267 -17 213 -17Q171 -17 139 -8Q60 11 43 70Q42 75 42 93Q42 133 63
158T119 192Q125 194 139 194Q170 194 187 176T205 131Q205 103 190 79T152 45Q152 42 176 39T213 35Q254 35 289 65Q314 90 329 129Q331 136 392 378T453 623Q453 624 393 624H332Q318 631 318 640Q318 650 323 666T334 684Q338 686 359 686Q413 684 533 684Q564
684 611 685T677 686Z" />
<glyph unicode="K" glyph-name="K" horiz-adv-x="971" d="M986 686Q992 686 997 681T1003 669Q1003 664 1000 654T995 637T991 629Q985 624 967 624Q918 624 888 617Q884 617 876 613T865 609Q864 608 732 515T599 420Q599 418 686 242T775 65Q784 62 829 62H840Q852
62 860 54Q865 47 860 28Q859 25 858 19T855 10T852 5T846 1T836 0Q818 0 774 1T694 2Q599 2 573 1L536 0Q529 3 524 8Q519 15 524 34Q529 52 533 57Q539 62 557 62Q595 62 601 65L472 330L365 255L342 160Q318 65 317 64Q317 62 361 62Q406 62 410 60Q420 55 420
44Q420 39 416 25T410 7Q407 4 399 0L357 1Q331 2 224 2Q185 2 135 1T65 0Q48 0 43 15Q43 19 47 35Q53 57 60 60Q64 62 113 62H162Q163 68 198 208T267 485T302 623T258 624T209 626Q202 629 199 639Q199 643 203 659Q209 681 216 684Q220 686 239 686Q290 684
403 684Q432 684 481 685T553 686T576 668Q576 663 572 649T566 631Q562 627 560 626Q555 624 506 624H457L422 481Q386 339 386 337L785 621Q779 624 749 624Q734 624 728 634Q724 640 730 659Q734 675 736 679T747 686L786 685Q812 684 888 684Q915 684 945 685T986
686Z" />
<glyph unicode="L" glyph-name="L" horiz-adv-x="756" d="M162 62Q163 68 198 208T267 485T302 623T258 624T209 626Q202 629 199 639Q199 643 203 659Q209 681 216 684Q220 686 239 686Q290 684 409 684Q439 684 496 685T579 686Q603 686 603 668Q603 663 599
649T593 631Q592 628 587 626Q583 624 520 624H457L388 344Q317 64 317 63T353 62Q423 62 441 64Q581 87 643 261Q651 282 655 285T680 289Q696 289 700 288T709 279Q711 274 711 269Q710 265 663 138T613 8Q611 4 602 0H58Q47 4 43 15Q43 19 47 35Q53 57 60 60Q64
62 113 62H162Z" />
<glyph unicode="M" glyph-name="M" horiz-adv-x="1142" d="M78 0T63 0T43 15Q43 19 47 35Q52 55 57 58T94 62Q146 64 164 69L233 345Q302 619 302 622Q302 624 258 624Q213 624 209 626Q202 629 199 639Q199 643 203 659Q209 681 216 684Q220 686 347 686H473Q483
680 484 677Q487 673 535 413L584 153L608 187Q631 221 672 281T761 410Q940 670 943 673Q948 678 962 686H1082Q1204 686 1206 685Q1219 682 1219 668Q1219 663 1215 649T1209 631Q1208 628 1203 626Q1199 624 1149 624H1100L1031 344Q960 64 960 63T1004 62Q1049
62 1053 60Q1063 55 1063 44Q1063 39 1059 25T1053 7Q1050 0 1034 0Q1013 0 963 1T875 2T791 1T725 0Q708 0 703 15Q703 19 707 35Q713 57 720 60Q724 62 773 62H822Q828 84 894 350T961 619L754 318Q546 15 543 12Q531 0 510 0Q493 0 486 3T477 19Q477 20 421
315L367 604L299 335Q234 72 234 68Q234 62 302 62Q324 62 330 56Q334 50 334 46Q334 45 330 25Q326 8 323 4T306 0Q290 0 250 1T181 2T115 1Z" />
<glyph unicode="N" glyph-name="N" horiz-adv-x="950" d="M78 0T63 0T43 15Q43 19 47 35Q52 55 57 58T94 62Q145 64 164 69L233 345Q302 619 302 622Q302 624 258 624T209 626Q202 629 199 639Q199 643 203 659Q209 681 216 684Q220 686 344 686H432Q464 686 477
680Q478 679 543 566T673 340T739 227Q742 227 789 418T836 618Q836 620 835 620L821 622Q811 622 779 624Q755 624 749 625T740 632Q734 639 740 659Q746 682 752 684Q755 686 763 686Q779 686 819 685T890 684Q968 684 986 685Q1013 686 1016 684Q1027 679 1027
668Q1027 663 1023 649T1017 631Q1010 624 1000 624H978Q912 622 907 617Q907 616 831 314T753 8Q748 0 733 0H723H711Q699 0 692 7Q692 8 671 44T607 155T526 296L361 580L296 323Q234 74 234 68T302 62Q320 62 324 60Q334 55 334 44Q334 39 330 25T324 7Q321
4 313 0L280 1Q260 2 181 2Q152 2 115 1Z" />
<glyph unicode="O" glyph-name="O" horiz-adv-x="837" d="M344 -17Q207 -17 130 50T53 245Q53 264 54 270Q67 408 151 519Q213 603 308 653T523 703Q641 703 714 653T808 511Q815 474 815 445Q815 378 791 307Q737 136 592 50Q485 -17 344 -17ZM664 489Q664 564
624 606T511 648Q463 648 416 627T334 570Q274 507 241 392Q208 271 208 206Q208 129 247 85T358 40Q428 40 490 83Q574 141 618 270Q645 347 657 423Q664 465 664 489Z" />
<glyph unicode="P" glyph-name="P" horiz-adv-x="723" d="M162 62Q163 68 198 208T267 485T302 623T258 624T209 626Q199 630 199 640Q199 643 203 657Q207 673 209 677T217 684Q220 686 439 686Q667 685 684 682Q686 681 693 680Q762 670 804 632T847 528Q847
463 803 404Q737 317 604 293Q571 288 469 287H373L346 176Q340 151 333 122T321 78L317 64Q317 62 361 62Q409 62 414 57Q420 53 420 44Q420 27 411 9Q407 3 399 0L357 1Q331 2 224 2Q185 2 135 1T65 0Q43 0 43 17Q43 21 47 33Q51 49 53 53T61 60Q64 62 113 62H162ZM617
622Q610 623 529 624H452L381 343H458Q544 344 568 349Q618 361 641 389Q662 413 679 480Q692 535 692 558Q692 582 676 597Q657 616 617 622Z" />
<glyph unicode="Q" glyph-name="Q" horiz-adv-x="869" d="M704 18Q712 18 717 13T722 0Q722 -7 710 -41Q700 -70 680 -103Q621 -194 541 -194Q463 -194 448 -109Q444 -86 443 -41V-7L433 -9Q391 -17 344 -17Q208 -17 131 50T53 245Q53 264 54 270Q67 408 151 519Q213
603 308 653T523 703Q641 703 714 653T808 511Q815 474 815 445Q815 378 791 307Q724 96 519 14L525 4Q541 -20 561 -29Q573 -32 592 -32Q674 -32 686 3Q692 18 704 18ZM666 482Q666 561 626 604T512 648Q412 648 335 573Q261 499 220 332Q201 255 201 202Q201
114 252 72L259 66L262 76Q269 108 296 130T359 161Q365 162 382 162Q404 162 410 160Q456 147 484 92L491 78L498 83Q572 134 612 235Q653 334 665 447Q666 455 666 482ZM383 112Q359 112 335 98T311 63Q311 50 324 42Q332 38 366 38Q397 39 429 49Q439 53 439
56Q439 57 438 61Q437 64 437 67Q425 112 383 112Z" />
<glyph unicode="R" glyph-name="R" horiz-adv-x="872" d="M162 62Q163 68 198 208T267 485T302 623T258 624T209 626Q202 629 199 639Q199 643 203 659Q209 681 216 684Q220 686 422 686Q629 685 664 680Q756 668 806 620Q843 583 843 535Q843 513 840 501Q823
427 742 378Q723 366 700 356T664 342L651 338Q664 332 688 310Q719 277 719 237Q719 231 710 166T701 94Q701 64 711 50T748 35Q761 35 765 37Q782 43 797 61T819 101Q822 111 828 115Q831 117 849 117Q871 117 876 111Q881 104 881 99Q881 83 858 46Q826 0 781
-11Q765 -17 728 -17Q537 -13 537 94Q537 111 552 170Q567 230 567 243Q567 292 529 309Q517 316 508 316T441 318H375L374 314Q374 312 343 189T311 64Q311 62 355 62Q400 62 404 60Q414 55 414 44Q414 39 410 25T404 7Q401 4 393 0L351 1Q325 2 221 2Q183 2 134
1T65 0Q48 0 43 15Q43 19 47 35Q53 57 60 60Q64 62 113 62H162ZM687 555Q687 586 666 602T619 621T548 624H513H451L420 498Q413 468 405 436T392 388L388 371Q388 369 458 369Q533 370 540 371Q591 378 624 400Q658 423 676 492Q687 534 687 555Z" />
<glyph unicode="S" glyph-name="S" horiz-adv-x="693" d="M618 458Q607 458 603 461T598 476Q598 482 599 494T600 511Q600 577 562 611T454 645Q400 645 361 617T310 541Q308 535 308 520Q308 468 363 452Q368 450 438 434T519 415Q568 399 599 356T631 254Q631
228 624 199Q603 114 542 57T392 -14Q379 -16 347 -16Q261 -16 202 12Q189 18 162 37L130 11Q123 5 114 -1T100 -12L95 -16Q93 -17 82 -17Q75 -17 72 -15T68 -12T63 -5L90 107L120 221Q124 228 148 228T177 222Q181 217 177 202Q173 178 173 168Q173 103 223 74T354
45Q390 45 427 61Q489 93 505 165Q506 170 506 184Q506 224 477 250Q461 262 384 279T294 300Q218 324 192 398Q182 422 182 452Q182 477 189 501Q208 572 257 623Q327 692 431 702H449Q491 702 501 701Q571 690 610 654Q614 649 617 650Q618 650 650 675T683 702Q685
703 692 703Q714 703 714 690Q714 686 687 578T658 466Q653 458 644 458H629H618Z" />
<glyph unicode="T" glyph-name="T" horiz-adv-x="637" d="M72 0Q46 0 46 17Q46 36 55 54Q60 59 66 62H137Q208 62 209 63L218 98Q227 134 244 203T278 339L347 613H300Q243 612 217 606Q172 595 146 564Q119 534 89 449Q87 444 85 437T81 427T77 423T68 420T52
419Q30 419 24 427Q22 431 22 434Q22 440 41 498T80 611L100 666Q105 673 111 675H434Q758 675 762 673Q772 668 772 657Q772 655 756 549T738 434Q737 424 731 422T707 419T686 421Q677 425 677 434Q676 436 678 450Q686 501 686 529Q686 563 675 579T638 605Q615
613 544 613H502L433 340Q418 279 400 207T374 100L365 65L364 62H498Q504 59 509 54Q514 47 509 28Q508 25 507 19T504 10T501 5T494 1T482 0Q455 0 388 1T271 2Q222 2 159 1T72 0Z" />
<glyph unicode="U" glyph-name="U" horiz-adv-x="800" d="M328 -16Q210 -16 137 32T63 176Q63 191 65 209Q66 219 91 321T142 523T167 623T123 624Q78 624 74 626Q67 629 64 639Q64 643 68 659Q74 681 81 684Q85 686 104 686Q155 684 268 684Q296 684 346 685T418
686Q441 686 441 668Q441 663 437 649T431 631Q430 628 425 626Q421 624 371 624H322L270 415Q215 193 212 173Q209 156 209 141Q209 45 336 45Q529 45 585 211L590 229Q594 247 601 274T617 336T636 409T654 482T670 547T681 595T686 618Q686 620 685 620H683Q681
621 678 621T671 622Q660 622 630 624Q596 624 590 631Q584 639 590 659Q596 682 602 684Q605 686 613 686Q629 686 669 685T740 684Q818 684 836 685Q863 686 866 684Q877 679 877 668Q877 663 873 649T867 631Q861 624 828 624Q762 622 757 617Q757 613 705 409T651
200Q620 111 548 55T374 -15Q365 -16 328 -16Z" />
<glyph unicode="V" glyph-name="V" horiz-adv-x="678" d="M650 686Q666 686 703 685T766 684Q836 684 850 685Q871 686 876 684Q883 681 886 671Q886 667 882 651Q877 632 873 628T850 624Q800 624 779 617Q774 617 770 613Q767 610 560 304T350 -5Q346 -9 332
-16H306Q280 -16 277 -15Q269 -10 267 -2Q267 -1 260 37T238 161T210 313L156 624H116Q76 624 73 626Q62 631 62 642Q62 647 66 661T72 679Q79 686 99 686Q144 684 246 684Q330 684 368 685L401 686Q408 683 413 678Q418 671 413 652Q408 634 404 629Q398 624 356
624Q318 624 318 623Q318 620 337 508T377 284L397 174L472 285Q548 396 623 507T699 620Q698 621 652 624Q628 624 622 632Q617 639 622 658Q628 678 632 681Q639 686 650 686Z" />
<glyph unicode="W" glyph-name="W" horiz-adv-x="1093" d="M1190 686Q1196 686 1201 681T1207 669Q1207 664 1204 652Q1199 631 1194 628T1164 624Q1112 622 1101 615Q1098 612 905 305Q715 -1 709 -7Q708 -8 699 -14Q692 -17 673 -17Q653 -17 648 -15Q642 -12
639 -8L581 441Q581 444 442 221Q303 -1 298 -6Q296 -8 288 -14Q279 -17 263 -17Q242 -17 239 -16Q228 -12 227 -5Q225 2 186 311L147 620V624H111Q74 624 70 626Q61 630 61 640Q61 660 70 678Q76 684 79 685T98 686Q140 684 239 684Q264 684 312 685T383 686Q407
686 407 668Q407 651 398 633Q395 629 391 626Q387 624 348 624H324Q307 624 307 622Q307 618 332 409Q359 198 359 195L570 532L564 576L558 622V624H522Q486 624 483 626Q472 631 472 641Q472 660 481 678Q486 683 493 686L529 685Q551 684 645 684Q680 684 728
685T795 686Q818 686 818 669Q818 650 809 632Q800 623 793 623Q792 623 781 623T759 624Q718 624 718 622Q718 615 743 410Q770 199 770 196Q770 195 806 253T903 406Q1035 618 1035 619Q1025 624 968 624Q942 624 942 641Q942 645 946 659Q950 675 952 679T963
686L998 685Q1020 684 1093 684Q1120 684 1149 685T1190 686Z" />
<glyph unicode="X" glyph-name="X" horiz-adv-x="947" d="M53 0Q38 6 38 17Q38 22 41 32T46 49T50 57Q56 62 78 62Q169 62 188 75Q194 77 435 324L444 334L439 347Q437 351 373 492L313 624H268Q223 624 219 626Q209 630 209 640Q209 646 212 658Q213 661 214
666T216 673T218 677T222 681T227 684Q230 686 247 686Q295 684 398 684Q424 684 475 685T551 686Q568 686 572 671Q572 667 568 651Q563 631 558 628T523 624T492 623H488L526 540Q563 457 564 457Q564 456 574 466T604 496T645 537L724 619Q716 622 677 624Q662
624 654 626Q645 630 645 640Q645 660 654 678Q659 683 666 686L704 685Q728 684 813 684Q896 684 913 685Q939 686 944 684Q953 680 953 670Q953 650 944 632Q936 624 925 624H914Q858 624 820 618Q809 615 803 611Q800 609 696 503T591 396Q591 394 667 229L743
62H787Q832 62 836 60Q846 55 846 44Q846 39 842 25T836 7Q832 0 817 0Q798 0 750 1T664 2Q627 2 578 1T508 0Q484 0 484 18Q484 19 488 37Q492 56 497 58T534 62L566 63Q567 64 520 169T471 274Q469 274 369 172T268 67T315 62Q320 62 328 62L335 61Q347 58 347
44Q347 27 338 9Q334 3 326 0L287 1Q263 2 177 2Q95 2 78 1L53 0Z" />
<glyph unicode="Y" glyph-name="Y" horiz-adv-x="675" d="M858 686Q865 686 870 682T876 669Q876 664 873 652Q868 631 863 628T829 624Q763 623 747 611Q727 590 590 441L437 275L411 170Q385 65 384 64Q384 62 429 62Q473 62 478 60Q488 56 488 46Q488 43 484
29Q479 6 473 3Q468 0 454 0Q433 0 383 1T294 2T207 1T138 0Q120 0 116 15Q116 19 120 35Q126 57 133 60Q137 62 187 62H236L289 275L142 624H97Q52 624 48 627Q40 631 40 640Q40 660 49 678Q55 684 58 685T77 686Q122 684 228 684Q255 684 308 685T385 686Q406
686 406 670Q406 662 403 653Q398 631 393 628T361 624H353Q321 624 321 623T376 491T432 360L448 377Q465 394 493 424T553 490L673 620Q659 624 630 624Q606 624 606 640Q606 641 610 661Q614 678 617 682T634 686Q650 686 689 685T755 684T814 685T858 686Z"
/>
<glyph unicode="Z" glyph-name="Z" horiz-adv-x="773" d="M684 299Q701 299 708 296T715 281Q715 278 673 145T628 8Q626 4 617 0H348Q73 0 71 4V5Q68 8 68 12T72 31T77 49L84 57Q91 65 104 79T133 110T170 151T213 196L610 624H540Q463 623 456 622Q411 616 373
600Q292 560 255 449Q251 436 246 433T223 430Q203 430 198 435Q192 439 192 448Q192 450 225 561T261 677Q265 683 270 684Q273 686 534 686Q796 686 797 685Q805 681 805 673Q805 671 802 657T798 641Q796 637 531 352L266 67L329 66Q411 66 440 70Q526 80 571
128T648 268Q649 272 651 278T653 286T656 291T659 295T664 297T672 299T684 299Z" />
<glyph unicode="a" glyph-name="a" horiz-adv-x="633" d="M222 -8Q137 -8 88 34T38 158Q38 191 48 227Q65 300 114 355T233 436Q279 452 327 452Q361 452 385 443T421 425T433 416H434L440 420Q461 435 486 435Q509 435 523 422T538 386Q538 377 523 316T489 184T467
93Q466 87 466 72Q466 43 484 43Q505 43 517 66T539 125Q540 131 541 134Q546 155 550 158T571 162H576Q597 162 600 160Q607 156 607 148Q607 144 598 115Q562 7 493 -6Q481 -8 474 -8Q439 -8 407 5T358 40Q295 -8 222 -8ZM404 351Q382 401 324 401Q312 401 295
396Q245 379 221 330Q206 296 186 220Q166 136 166 106T182 60T228 43Q275 43 310 71Q320 78 331 89T343 103T374 228L404 351Z" />
<glyph unicode="b" glyph-name="b" horiz-adv-x="521" d="M220 -8Q139 -8 92 35T45 155Q45 176 47 194Q50 210 104 426L153 622H149Q148 622 144 622T134 623T122 624T111 624T101 624T96 625Q84 628 84 642Q84 647 88 661T94 679Q98 684 109 685T185 690Q258
694 272 694Q290 694 293 679Q293 676 263 553L232 429L244 434Q256 440 281 446T331 452Q415 452 464 408T513 285Q513 262 509 242Q492 146 427 77Q342 -8 220 -8ZM385 337Q385 400 318 400Q271 400 226 360Q214 349 211 341T191 268Q165 160 163 140Q162 132
162 113Q162 44 226 44Q270 44 303 77Q324 98 340 139Q351 171 365 226Q385 303 385 337Z" />
<glyph unicode="c" glyph-name="c" horiz-adv-x="513" d="M259 -8Q159 -8 100 35T40 167Q40 243 88 318Q175 438 336 451H352Q390 451 396 450Q436 443 462 425T496 380Q500 366 498 351Q494 318 473 296T417 274Q393 274 378 288T362 325Q362 366 393 388Q401
394 399 394Q396 401 355 401Q317 401 284 384T231 338Q193 279 177 178Q170 149 170 122Q170 43 264 43Q393 43 457 105Q472 120 480 117Q509 95 509 83Q509 76 497 64Q424 -8 259 -8Z" />
<glyph unicode="d" glyph-name="d" horiz-adv-x="610" d="M222 -8Q137 -8 88 34T38 158Q38 191 48 227Q70 323 147 387T329 452Q384 452 416 428L422 424Q423 424 447 523L472 622H468Q467 622 463 622T453 623T441 624T430 624T420 624T415 625Q403 628 403 642Q403
647 407 661T413 679Q417 684 428 685T504 690Q577 694 591 694Q609 694 612 679L467 91Q466 87 466 72Q466 43 483 43Q499 43 512 60T530 92T541 134Q546 155 550 158T571 162H576Q597 162 600 160Q607 156 607 148Q607 144 598 115Q562 7 493 -6Q481 -8 474 -8Q439
-8 407 5T358 40Q295 -8 222 -8ZM404 351Q382 401 324 401Q312 401 295 396Q245 379 221 330Q206 296 186 220Q166 136 166 106T182 60T228 43Q275 43 310 71Q320 78 331 89T343 103T374 228L404 351Z" />
<glyph unicode="e" glyph-name="e" horiz-adv-x="554" d="M171 126Q171 43 264 43Q390 43 457 105Q472 120 480 117Q509 95 509 83Q509 76 497 64Q424 -8 260 -8Q167 -8 110 31T43 146Q42 152 42 169Q42 188 44 210Q50 240 58 266Q127 435 335 451L338 452Q342
452 345 452Q347 452 353 452T363 451Q423 451 462 426T502 352Q502 340 501 336Q489 281 442 250Q381 211 222 211H184Q184 208 181 197Q171 145 171 126ZM427 349Q427 374 406 387T354 401Q305 401 264 374Q224 345 202 278Q198 264 197 263Q197 262 237 262Q326
263 364 278Q427 301 427 349Z" />
<glyph unicode="f" glyph-name="f" horiz-adv-x="568" d="M200 -84Q200 -121 166 -150L174 -151H185Q202 -148 217 -112Q222 -94 240 9Q246 40 262 132T293 303T307 382H247Q187 382 184 384Q173 389 173 400Q173 405 177 419T183 437Q184 440 189 442Q193 444
256 444H318L319 446Q319 453 338 548Q352 613 392 653T492 701H503Q532 701 538 700Q578 693 601 671T624 617Q624 583 601 558T544 533Q519 533 504 547T488 585Q488 617 513 642Q520 649 520 650Q515 650 509 651Q499 651 494 649Q473 638 465 611Q460 596 459
554L458 518L452 484Q446 448 445 447V444H584Q590 441 595 436Q600 429 595 410Q590 392 586 387Q580 382 505 382H434V380Q432 378 421 314T395 162T368 30Q337 -97 280 -152Q245 -187 203 -199Q194 -201 175 -201Q128 -201 96 -179T64 -117Q64 -83 87 -58T145
-33Q169 -33 184 -47T200 -84Z" />
<glyph unicode="g" glyph-name="g" horiz-adv-x="545" d="M227 0Q142 0 93 43T43 166Q43 186 46 205Q63 306 134 374T310 451L313 452Q316 452 319 452Q321 452 326 452T335 451Q391 451 429 421Q434 416 436 416L442 420Q463 435 488 435Q511 435 525 422T540
386Q540 381 528 331T499 213T465 78T436 -36L424 -82Q405 -131 355 -160Q285 -202 167 -202Q47 -202 14 -166Q0 -151 0 -125Q0 -91 23 -67T81 -43Q106 -43 121 -58T136 -99Q133 -123 114 -149L123 -150H183Q234 -150 270 -114Q291 -95 299 -74Q300 -71 306 -47T318
-1T324 23Q323 23 311 18Q266 0 227 0ZM171 109Q171 81 188 66T235 51Q259 51 296 67Q322 82 337 98L345 106L407 353L403 359Q380 401 329 401Q293 401 262 378Q229 353 205 280Q203 274 195 242T183 194T175 153T171 109Z" />
<glyph unicode="h" glyph-name="h" horiz-adv-x="668" d="M121 -8T99 -8T61 5T45 39Q45 51 116 336L188 622H184Q183 622 179 622T169 623T157 624T146 624T136 624T131 625Q119 628 119 642Q119 647 123 661T129 679Q133 684 144 685T220 690Q293 694 307 694Q325
694 328 679Q328 672 294 540Q286 507 278 473T264 420L260 403Q260 400 269 408Q325 451 401 451Q438 451 457 447Q556 426 556 337Q556 319 554 303Q543 245 497 127Q481 84 478 66Q477 61 477 54Q477 43 490 43Q512 44 532 63Q562 93 577 140Q582 156 585 159T605
162H611Q632 162 635 160Q642 156 642 148Q642 131 624 97Q605 58 571 29T499 -6Q487 -8 478 -8Q441 -8 411 7Q358 33 358 83Q358 102 373 138Q433 295 433 350Q433 376 423 388T388 400Q334 400 291 363Q256 332 236 298Q233 293 202 170T169 40Q160 18 141 5Z"
/>
<glyph unicode="i" glyph-name="i" horiz-adv-x="405" d="M258 562Q234 562 220 577T205 615Q205 643 223 664T267 692Q277 694 283 694Q308 694 323 680T339 641Q339 609 313 586T258 562ZM201 -8Q151 -8 117 16T83 84Q83 92 85 102Q86 104 134 230T184 358Q189
376 189 388Q189 402 177 402Q168 402 154 394T134 380Q103 352 89 304Q84 288 81 285T61 282H55Q34 282 31 284Q24 288 24 296T35 330Q55 381 94 416T187 452Q237 452 272 428T308 360Q308 352 306 342Q305 340 256 214T207 87Q202 67 202 57Q202 42 214 42Q223
42 237 50T257 64Q288 92 302 140Q307 156 310 159T330 162H336Q357 162 360 160Q367 156 367 148T356 114Q335 63 294 28T201 -8Z" />
<glyph unicode="j" glyph-name="j" horiz-adv-x="471" d="M321 616Q321 646 344 670T400 694Q425 694 440 680T456 640Q456 611 433 587T376 562Q353 562 337 577T321 616ZM88 -202Q45 -202 17 -182T-12 -125Q-12 -94 11 -69T68 -43Q92 -43 108 -57T124 -93Q124
-121 106 -144Q101 -150 103 -150Q111 -150 127 -142Q170 -120 191 -64Q194 -57 242 136T294 345Q297 360 297 373Q297 389 293 395T276 401Q227 398 186 347Q170 327 158 303Q151 287 148 285T129 282H123Q103 282 99 284Q92 288 92 298Q94 311 119 350Q161 414
227 440Q253 451 279 451Q397 451 418 376Q420 370 420 354V339L371 142Q321 -58 319 -63Q304 -117 250 -152T129 -199Q111 -202 88 -202Z" />
<glyph unicode="k" glyph-name="k" horiz-adv-x="604" d="M99 -8Q78 -8 62 5T45 39Q45 51 116 336L188 622H184Q183 622 179 622T169 623T157 624T146 624T136 624T131 625Q119 628 119 642Q119 647 123 661T129 679Q133 684 144 685T220 690Q293 694 307 694Q325
694 328 679Q328 674 280 482Q231 290 231 287Q231 285 234 286Q262 304 313 351Q379 411 413 430Q454 452 493 452Q528 452 546 428T564 364Q564 264 483 256H480Q456 256 441 270T425 308Q425 342 447 362T502 389Q502 395 496 398Q493 400 483 400Q456 400 427
385Q398 371 330 311Q310 292 290 275T268 257Q274 256 282 256Q323 249 341 244Q389 230 411 202Q431 180 431 146Q431 133 427 108T422 73Q422 44 439 44H442Q451 44 459 47Q494 64 514 141Q518 157 522 159T547 162T571 160Q578 156 578 148Q578 139 566 108Q532
24 473 0Q456 -7 440 -7H432Q377 -7 338 20T299 94Q299 100 301 116T304 139Q304 181 246 198Q226 206 212 206H211Q176 47 160 24Q137 -8 99 -8Z" />
<glyph unicode="l" glyph-name="l" horiz-adv-x="348" d="M275 694Q293 694 296 679L151 91Q150 85 150 71Q150 43 168 43Q187 43 205 75Q216 96 225 134Q230 155 234 158T255 162H260Q281 162 284 160Q291 156 291 148Q291 144 288 135Q268 62 231 24Q198 -8
157 -8Q107 -8 73 13T29 68Q27 74 27 91V106L156 622H152Q151 622 147 622T137 623T125 624T114 624T104 624T99 625Q87 628 87 642Q87 647 91 661T97 679Q101 684 112 685T188 690Q261 694 275 694Z" />
<glyph unicode="m" glyph-name="m" horiz-adv-x="1032" d="M143 -8Q122 -8 106 5T90 39Q90 47 108 124T146 274L164 347Q166 355 166 372Q166 401 149 401Q113 401 89 306Q84 288 80 285T55 282T31 284Q24 288 24 296V298Q25 301 26 304T27 310Q50 391 93 428Q123
452 159 452Q203 452 234 435Q268 419 285 384Q293 390 298 395Q342 433 389 445Q411 451 446 451Q556 451 589 390Q594 380 595 375L604 384Q646 425 695 441Q728 452 762 452Q893 452 916 367Q918 356 918 334Q918 307 911 281Q898 226 860 127Q840 75 840 57Q840
43 849 43Q876 43 901 69T940 138Q945 156 949 159T969 162H975Q996 162 999 160Q1006 156 1006 148Q1006 144 997 117Q977 67 935 30T841 -8Q782 -8 746 26Q721 49 721 82Q721 100 736 137Q772 231 787 292Q796 328 796 351Q796 401 753 401Q706 401 665 371Q627
344 599 298Q597 294 567 172T533 40Q512 -8 462 -8Q441 -8 425 5T409 39Q409 48 425 114T458 248T476 320Q478 330 478 348Q478 376 468 388T433 400Q379 400 336 363Q301 332 281 298Q278 293 247 170T214 40Q193 -8 143 -8Z" />
<glyph unicode="n" glyph-name="n" horiz-adv-x="713" d="M143 -8Q122 -8 106 5T90 39Q90 47 108 124T146 274L164 347Q166 355 166 372Q166 401 149 401Q113 401 89 306Q84 288 80 285T55 282T31 284Q24 288 24 296V298Q25 301 26 304T27 310Q50 391 93 428Q123
452 159 452Q203 452 234 435Q268 419 285 384L293 391Q345 436 399 447Q421 452 454 452Q576 447 597 367Q599 356 599 334Q599 307 592 281Q579 226 541 127Q521 74 521 57Q521 43 530 43Q557 43 582 69T621 138Q626 156 630 159T650 162H656Q677 162 680 160Q687
156 687 148Q687 144 678 117Q658 67 616 30T522 -8Q463 -8 427 26Q402 49 402 82Q402 100 417 137Q453 231 468 292Q477 328 477 351Q477 401 434 401Q387 401 346 371Q314 348 285 305L278 295L247 170Q216 46 214 40Q193 -8 143 -8Z" />
<glyph unicode="o" glyph-name="o" horiz-adv-x="585" d="M254 -8Q155 -8 97 37T39 169Q39 278 127 363Q192 427 292 446Q317 451 336 451L344 452Q353 452 359 452Q455 452 515 408T576 279Q576 249 567 216Q546 132 480 74T323 -2Q290 -8 254 -8ZM170 126Q170
44 260 44Q367 44 409 157Q432 218 444 295Q445 301 445 317Q445 336 443 348Q429 390 382 399Q375 400 349 400Q274 400 231 338Q206 301 187 220Q170 153 170 126Z" />
<glyph unicode="p" glyph-name="p" horiz-adv-x="601" d="M-3 -194Q-23 -194 -23 -176Q-23 -159 -14 -141Q-8 -132 3 -132H20H44L164 354Q165 357 165 372Q165 401 148 401Q132 401 119 384T101 352T90 310Q85 289 82 286T60 282H55Q34 282 31 284Q24 288 24 296Q24
300 33 329Q69 436 136 450Q148 452 157 452Q193 452 225 439T273 404Q336 452 409 452Q494 452 543 409T593 285Q593 272 589 242Q569 124 480 53Q401 -8 302 -8Q245 -8 209 20Q208 19 190 -55T171 -131T198 -132Q226 -132 230 -134Q240 -139 240 -150Q240 -155
236 -169T230 -187Q227 -194 212 -194Q196 -194 159 -193T95 -192Q70 -192 39 -193T-3 -194ZM465 339Q465 368 449 384T403 401Q358 401 321 373Q311 366 300 355T288 341T257 216L227 93Q248 43 306 43Q321 43 336 48Q386 65 410 115Q425 147 445 224Q465 307
465 339Z" />
<glyph unicode="q" glyph-name="q" horiz-adv-x="542" d="M220 -8Q136 -8 87 36T38 159Q38 182 42 202Q60 305 129 372Q213 452 327 452Q381 452 429 418Q442 431 482 441Q526 452 533 452Q539 452 544 447T550 437T481 152Q410 -130 410 -131T437 -132Q465 -132
469 -134Q479 -139 479 -150Q479 -155 475 -169T469 -187Q466 -194 451 -194Q435 -194 397 -193T330 -192Q303 -192 267 -193T217 -194Q202 -194 197 -179Q197 -175 201 -159Q206 -139 211 -136T243 -132H283L319 15L307 10Q295 4 270 -2T220 -8ZM397 364Q371 401
324 401Q254 401 221 329Q204 295 186 218Q166 141 166 107Q166 44 229 44Q259 44 289 59T337 95Q341 100 371 222T402 353Q402 357 397 364Z" />
<glyph unicode="r" glyph-name="r" horiz-adv-x="529" d="M89 39Q89 52 127 202T165 369Q165 401 148 401Q142 401 135 398Q109 384 90 310Q85 289 82 286T60 282H55Q34 282 31 284Q24 288 24 296Q24 311 41 349Q77 439 138 451Q143 452 154 452Q190 452 224 439T273
404L282 411Q332 452 393 452Q440 452 470 423T500 350Q500 311 478 284T418 256Q394 256 379 270T363 308Q363 343 389 367Q402 379 424 386Q424 390 410 396Q398 401 385 401Q363 401 343 390Q318 379 289 341L252 192Q214 42 212 39Q189 -8 142 -8Q121 -8 105
5T89 39Z" />
<glyph unicode="s" glyph-name="s" horiz-adv-x="531" d="M153 56Q179 43 236 43Q290 43 321 60Q366 82 366 124Q366 141 352 152T320 168T274 178Q266 179 255 181T239 184T232 186Q190 197 165 224T140 290Q140 333 170 379Q215 451 326 451Q366 451 373 450Q449
438 468 396Q476 380 476 363Q476 332 456 311T406 289Q385 289 371 301T357 335Q357 362 378 383L386 391Q386 393 361 399Q355 400 330 400Q253 400 236 354Q232 345 232 335Q232 322 242 312Q257 300 307 291Q374 279 403 260Q457 225 457 167Q457 121 427 77Q372
-8 229 -8Q106 -8 68 50Q57 69 57 91Q57 127 80 152T139 177Q164 177 179 162T194 121Q190 80 153 56Z" />
<glyph unicode="t" glyph-name="t" horiz-adv-x="415" d="M192 -7Q134 -7 97 18T59 90V105L128 381Q128 382 82 382Q35 382 31 384Q21 388 21 399Q21 404 24 414T29 431T33 439Q39 444 93 444H144L162 517Q180 590 185 600Q207 643 253 643Q276 643 291 630T306
594Q306 584 289 515T271 445T317 444T368 442Q377 438 377 428Q377 408 368 390Q363 385 361 384Q357 382 306 382H255Q253 377 236 307T202 170T184 99Q182 90 182 75Q182 57 186 50T204 43Q242 46 279 81Q303 107 321 142Q328 157 331 159T350 162H356Q376 162
380 160Q387 156 387 146Q382 121 347 75Q301 18 244 1Q221 -7 192 -7Z" />
<glyph unicode="u" glyph-name="u" horiz-adv-x="681" d="M535 444Q556 444 572 431T588 397Q588 390 570 315T534 168L516 97Q514 89 514 72Q514 43 531 43Q544 43 556 56Q574 76 589 134Q594 155 598 158T619 162H624Q645 162 648 160Q655 156 655 148Q655 144
646 115Q610 7 541 -6Q529 -8 520 -8Q487 -8 456 5T408 38L405 41L397 34Q360 4 316 -5Q306 -7 281 -7Q148 -7 122 78Q116 95 116 125V136Q116 155 124 187Q133 224 174 332Q185 359 188 379Q189 384 189 390Q189 401 176 401Q150 399 126 372T89 304Q84 288 81
285T61 282H55Q34 282 31 284Q24 288 24 296Q24 300 34 330Q54 378 90 410T167 450Q179 452 187 452Q236 452 272 428T308 362Q308 346 294 308Q244 182 238 122V111Q238 43 291 43Q341 43 384 92Q391 100 391 103T426 247T464 396Q485 444 535 444Z" />
<glyph unicode="v" glyph-name="v" horiz-adv-x="567" d="M238 114Q238 43 306 43Q344 43 377 78T427 155T458 247Q462 260 462 268Q462 274 459 280Q450 297 417 315Q393 328 386 342Q380 354 380 367Q380 401 406 427T465 453Q500 453 520 426T540 357Q540 328
531 288Q510 193 470 120T373 13Q338 -8 292 -8Q116 -8 116 129Q116 150 117 158Q124 201 174 332Q185 359 188 379Q189 384 189 390Q189 401 176 401Q147 398 124 370T89 304Q84 288 81 285T61 282H55Q34 282 31 284Q24 288 24 296Q24 303 35 332Q55 380 97 416T189
452Q240 452 274 426T308 362Q308 344 293 306Q257 216 248 179Q238 137 238 114Z" />
<glyph unicode="w" glyph-name="w" horiz-adv-x="831" d="M636 367Q636 397 662 425T719 453Q723 453 741 450Q796 428 796 357Q796 328 787 288Q738 60 633 6Q604 -8 567 -8Q466 -8 415 43Q388 16 365 4T306 -8Q198 -8 150 41Q117 73 117 129Q117 139 119 157Q124
199 175 332Q186 359 189 379Q191 395 187 399Q181 405 158 396Q112 376 90 306Q85 288 81 285T61 282H55Q34 282 31 284Q24 288 24 296Q24 310 42 346Q85 433 163 450Q175 452 187 452Q250 452 286 416Q309 393 309 362Q309 346 295 308Q270 245 259 211Q240 155
240 117Q240 43 317 43Q359 43 390 95Q387 128 387 129Q387 139 391 167Q393 177 419 282T448 396Q469 444 519 444Q540 444 556 431T572 397Q572 384 545 277T515 153Q511 133 511 114Q511 43 579 43Q611 43 637 69Q655 85 670 116Q693 160 714 245Q718 260 718
267T715 280Q705 298 673 315Q649 328 642 342Q636 352 636 367Z" />
<glyph unicode="x" glyph-name="x" horiz-adv-x="659" d="M287 364Q287 400 236 400Q192 400 158 372T107 302Q103 288 98 284Q94 282 74 282Q53 282 50 284Q43 288 43 296Q43 298 47 310Q72 391 159 433Q202 451 236 451Q273 451 282 450Q359 435 382 400L392
410Q434 452 483 452Q562 452 590 390Q599 372 599 346Q599 307 576 282T517 256Q493 256 478 270T462 308Q462 343 488 367Q499 376 520 385Q520 388 508 394T480 400Q468 400 462 398Q429 383 415 341Q412 334 386 231T358 114Q354 95 354 80Q354 44 405 44Q444
44 478 68Q519 96 535 142Q539 156 544 160Q548 162 568 162Q589 162 592 160Q599 156 599 148Q599 135 585 109Q561 59 511 26T397 -8Q314 -8 266 35L258 44Q215 -7 156 -7Q115 -7 91 10Q43 39 43 95Q43 123 53 143Q78 188 125 188Q149 188 164 174T180 136Q180
101 154 77Q143 68 122 59Q124 53 137 48T161 43Q183 43 200 61T226 103Q229 110 255 213T283 330Q287 349 287 364Z" />
<glyph unicode="y" glyph-name="y" horiz-adv-x="590" d="M280 -7Q204 -7 160 24T115 122Q115 146 118 161Q125 202 174 332Q185 359 188 379Q189 384 189 390Q189 401 176 401Q147 398 124 370T89 304Q84 288 81 285T61 282H55Q34 282 31 284Q24 288 24 296Q24
302 31 322T46 354Q92 438 167 450Q179 452 188 452Q238 452 273 427T308 361Q308 346 293 306Q243 179 238 122Q238 120 238 116T237 109Q237 43 291 43Q325 43 356 66Q376 82 388 98Q388 99 425 246T463 396Q484 444 534 444Q555 444 571 432T587 399Q587 386
537 186T483 -25Q461 -83 411 -126T296 -188Q248 -202 204 -202Q103 -202 73 -150Q64 -134 64 -114Q64 -80 86 -56T144 -31Q168 -31 183 -45T199 -83Q199 -112 168 -147Q180 -150 206 -150Q228 -150 234 -148Q276 -138 309 -101T359 -15Q367 13 367 14Q339 -7 280
-7Z" />
<glyph unicode="z" glyph-name="z" horiz-adv-x="555" d="M508 452Q526 452 532 450T539 438Q539 430 511 395Q491 369 458 334Q412 289 312 210Q229 146 191 111L183 103H195Q203 103 213 104T240 107T268 110Q322 117 363 118Q417 119 439 127T469 157Q470 159
474 163Q478 166 495 166Q521 166 525 161Q532 156 528 141Q514 94 477 56T391 2Q364 -7 337 -7Q318 -7 309 -5Q287 0 251 23Q213 47 189 51Q185 52 177 52Q153 52 126 33Q111 23 97 3Q84 -7 80 -8H66Q42 -8 37 -2Q34 3 34 5Q34 11 45 26Q69 62 115 110Q162 156
262 234Q344 297 381 332L389 339H381Q329 328 234 326Q178 325 172 321Q168 318 151 318Q125 318 121 322Q114 329 118 342Q128 374 154 402Q194 441 249 451Q253 452 265 452Q284 452 296 449Q318 443 358 418Q402 392 426 392Q436 392 444 400Q453 408 474 438Q479
448 482 450T493 452H508Z" />
<glyph unicode="&#xa0;" glyph-name="uni00A0" horiz-adv-x="250" />
<glyph unicode="&#x393;" glyph-name="Gamma" horiz-adv-x="657" d="M163 66Q163 67 231 341T301 616Q301 618 257 618Q212 618 209 620Q198 625 198 636Q198 641 202 655T208 673Q211 676 219 680H763Q777 675 777 664Q777 659 766 549T751 433Q745 424 723 424Q700
424 695 432Q691 438 693 458Q697 504 697 513Q697 567 674 590T591 617Q583 618 516 618H456L455 614Q455 613 387 339T317 64Q317 62 375 62T437 60Q447 55 447 44Q447 39 443 25T437 7Q434 0 416 0Q392 0 333 1T231 2Q189 2 137 1T65 0Q48 0 43 15Q43 19 47
35Q53 57 60 60Q64 62 113 62H162L163 66Z" />
<glyph unicode="&#x394;" glyph-name="increment" horiz-adv-x="958" d="M65 0Q59 6 59 9T61 16Q64 20 334 357T608 698Q616 706 629 710Q630 710 634 710T644 710T656 711Q686 711 694 703Q698 699 700 693Q706 674 805 345T904 14Q904 7 894 1L479 0H65ZM630
342L567 551L232 134L462 133H693Q693 137 630 342Z" />
<glyph unicode="&#x398;" glyph-name="Theta" horiz-adv-x="867" d="M358 -17Q217 -17 136 49T54 243Q54 273 55 282Q66 369 108 448T214 585Q332 690 504 702H527Q578 702 590 701Q783 679 830 534Q844 489 844 441Q844 339 798 246T682 96Q590 19 471 -5Q416
-17 358 -17ZM700 474Q700 558 656 605T528 652Q464 652 405 622Q345 593 301 534Q248 465 215 332Q198 263 198 210Q198 127 244 82T372 36Q456 36 528 84Q587 125 621 185T681 344Q700 420 700 474ZM534 260Q534 262 537 277H329L326 266Q322 250 318 247T295
243Q279 243 276 244Q263 248 263 259L306 435Q310 445 334 445Q366 445 366 428Q366 425 364 419T362 411H466L570 412L573 422Q577 438 581 441T604 445Q620 445 623 444Q636 440 636 429Q636 423 616 340T593 253Q588 246 584 245T566 243Q534 243 534 260Z"
/>
<glyph unicode="&#x39b;" glyph-name="Lambda" horiz-adv-x="806" d="M274 0Q258 0 221 1T159 2Q92 2 79 1Q59 0 54 2Q47 5 44 15Q44 19 48 35Q53 55 58 58T89 62Q124 64 142 68Q147 69 151 73Q154 76 345 387T538 699Q547 708 552 709T580 711Q595 711 600 711T611
707T618 695Q619 692 654 379T690 63Q690 62 726 62T766 60Q776 55 776 44Q776 39 772 25T766 7Q762 0 747 0Q728 0 682 1T600 2Q502 2 476 1L439 0Q432 3 427 8Q422 15 427 34Q432 52 436 57Q442 62 485 62H509Q525 62 525 64L478 483Q478 484 465 463T422 394T350
277Q222 69 222 68Q223 67 224 67Q229 64 271 62Q296 62 302 54Q307 47 302 28Q296 8 292 5Q285 0 274 0Z" />
<glyph unicode="&#x39e;" glyph-name="Xi" horiz-adv-x="841" d="M771 481Q771 489 775 513T779 541V549H774Q755 552 505 552Q281 551 267 548Q264 548 260 541Q251 526 241 494Q240 492 239 486T237 478T234 473T231 469T226 468T218 466T206 466Q186 466 181
471Q175 475 175 484Q175 487 201 574T230 666Q235 673 241 675H547Q853 675 857 673Q867 668 867 657Q867 655 850 569T832 478Q828 470 823 468T802 466Q785 466 781 468Q772 473 771 481ZM298 448Q329 448 329 431Q329 424 326 414Q326 413 486 413H647L650
424Q654 442 661 446Q664 448 683 448T705 446T714 432L694 348Q673 265 670 261Q664 255 643 255T617 261Q613 265 613 274T616 289Q616 290 456 290H295L294 286Q294 279 290 269T281 257Q278 255 259 255Q241 255 238 257Q230 262 228 270Q228 275 248 355T270
439Q274 446 278 447T298 448ZM108 218Q112 220 129 220Q152 220 157 212Q161 205 159 192Q150 145 150 131Q150 130 150 128L151 127Q155 124 390 123Q640 123 664 126Q668 127 675 127Q686 131 704 198Q709 214 716 218Q720 220 738 220Q755 220 759 218Q768
213 768 203Q768 198 741 105T710 8Q707 3 699 0H388Q77 0 73 2Q62 7 62 18Q62 27 81 115Q96 193 99 204T108 218Z" />
<glyph unicode="&#x3a0;" glyph-name="Pi" horiz-adv-x="982" d="M163 66Q163 67 231 341T301 616Q301 618 257 618Q212 618 209 620Q198 625 198 636Q198 641 202 655T208 673Q211 676 219 680H1011Q1022 676 1026 665Q1026 661 1022 645Q1016 623 1009 620Q1005
618 956 618H907L906 614Q906 613 838 339T768 64Q768 62 812 62Q857 62 861 60Q871 55 871 44Q871 39 867 25T861 7Q858 4 850 0L808 1Q782 2 675 2Q636 2 586 1T516 0Q499 0 494 15Q494 19 498 35Q504 57 511 60Q515 62 564 62H613L614 66Q614 67 682 341T752
616Q752 618 604 618H456L455 614Q455 613 387 339T317 64Q317 62 361 62Q406 62 410 60Q420 55 420 44Q420 39 416 25T410 7Q407 4 399 0L357 1Q331 2 224 2Q185 2 135 1T65 0Q48 0 43 15Q43 19 47 35Q53 57 60 60Q64 62 113 62H162L163 66Z" />
<glyph unicode="&#x3a3;" glyph-name="Sigma" horiz-adv-x="885" d="M817 449Q817 455 817 468T818 487Q818 532 806 559Q792 593 759 606T652 623Q636 624 528 624H430L513 487Q594 351 596 345Q596 335 590 330Q583 323 418 204L250 81L363 80Q528 80 575 87Q648
98 694 142Q739 185 765 252Q772 268 776 271T799 274Q816 274 820 272Q832 266 830 254Q829 250 784 130T736 7Q733 4 725 0H405Q84 0 80 2Q69 7 69 18Q69 26 75 32Q76 32 98 48T168 100T255 164L432 293Q429 298 377 383T275 550T225 638T228 659T234 678Q239
683 245 686H888Q901 681 902 671Q902 667 890 556T876 441Q871 430 847 430Q828 430 823 433T817 449Z" />
<glyph unicode="&#x3a5;" glyph-name="Upsilon" horiz-adv-x="671" d="M210 702Q216 703 229 703Q252 703 269 699Q359 679 386 573Q397 534 397 491V478L404 491Q438 557 485 608Q572 703 677 703Q757 703 790 639Q802 615 802 584Q802 550 791 539Q786 533 781
532T757 531L736 532L732 535L729 539V549Q730 559 728 563Q721 581 658 581Q628 581 609 576Q531 553 477 443Q453 392 443 351Q441 345 424 273T389 133T371 64Q371 62 428 62Q490 62 495 57Q501 53 501 44Q501 27 492 9Q488 3 480 0L431 1Q401 2 278 2T127 1L85
0Q71 6 71 17Q71 22 74 33Q78 49 80 53T88 60Q91 62 154 62H216Q217 68 235 139T271 284T291 360Q300 405 300 452Q299 483 293 507Q272 581 198 581Q152 581 129 576T100 548Q96 537 86 533Q82 531 60 531L39 532Q32 537 32 544T36 562Q54 616 103 655T210 702Z"
/>
<glyph unicode="&#x3a6;" glyph-name="Phi" horiz-adv-x="767" d="M241 62Q266 158 266 167Q266 168 262 168T244 170Q160 179 106 208T35 280Q29 296 29 316Q29 363 68 408Q146 496 327 516Q345 518 349 518Q351 518 353 518L355 519Q356 520 368 570T381 623Q381
624 323 624Q266 624 261 626Q254 629 251 639Q251 643 255 659Q261 681 268 684Q272 686 293 686Q348 684 475 684Q508 684 564 685T647 686Q671 686 671 668Q671 663 667 649T661 631Q657 627 655 626Q650 624 588 624H525L500 520Q500 519 520 518T579 507T656
480Q725 445 736 388Q737 383 737 372Q737 346 723 316Q702 272 648 237Q562 180 426 169L412 168L399 118Q386 66 386 65L385 62H443Q501 62 505 60Q515 55 515 44Q515 39 511 25T505 7Q502 4 494 0L447 1Q417 2 298 2Q254 2 197 1T118 0Q100 0 95 15Q95 19 99
35Q105 57 112 60Q116 62 179 62H241ZM342 466Q341 467 339 467Q326 467 302 460Q251 447 225 420Q210 400 204 388Q181 342 181 296Q181 266 197 251T245 225Q275 219 277 219L280 220Q281 220 311 342T342 466ZM507 464Q505 464 502 465Q494 466 492 467H486L455
343Q444 300 437 271T428 231T426 219Q432 220 437 221Q501 229 535 262T581 359Q583 367 583 389Q583 406 582 410Q568 450 507 464Z" />
<glyph unicode="&#x3a8;" glyph-name="Psi" horiz-adv-x="714" d="M59 454Q59 489 40 489Q32 489 27 494T22 507Q22 535 37 538Q40 540 99 540Q159 540 164 538Q205 529 205 471Q205 442 198 416Q186 362 186 333Q186 288 204 263T262 224L361 623Q361 624 303
624Q246 624 241 626Q231 630 231 640Q231 643 235 657Q239 673 241 677T249 684Q252 686 273 686Q329 684 457 684Q489 684 545 685T626 686Q640 686 645 681Q651 677 651 668Q651 651 642 633Q637 626 631 624H505L407 227L434 237Q503 267 539 345Q551 370 567
425Q576 457 588 480Q612 528 649 538Q657 540 717 540Q776 540 781 538Q790 534 790 524Q790 512 784 497Q780 490 767 489T742 477Q720 455 701 389Q673 295 595 238T404 169L391 168L379 116Q365 67 365 63Q365 62 422 62Q484 62 489 57Q495 53 495 44Q495 27
486 9Q482 3 474 0L427 1Q397 2 278 2T131 1L90 0Q76 6 76 17Q76 22 79 33Q83 49 85 53T93 60Q96 62 159 62H221Q223 73 230 99T242 146T247 168H244Q241 169 239 169Q204 175 194 178Q109 199 74 252Q46 291 46 351Q46 369 52 404T59 454Z" />
<glyph unicode="&#x3a9;" glyph-name="Omega" horiz-adv-x="879" d="M162 119Q183 115 235 115L273 116Q273 123 262 153Q252 179 226 232Q188 310 180 345Q173 368 173 391V406Q173 476 214 540Q255 600 315 635Q333 647 371 664Q464 703 585 703Q736 703 819
641Q886 590 886 503Q886 450 860 401Q845 369 821 337Q793 300 725 232Q667 172 643 146Q619 117 619 116T650 115Q707 115 722 120Q730 123 750 165T775 210Q779 212 796 212Q819 212 825 203Q828 197 828 196Q828 191 807 144T764 52L743 7Q739 3 737 2Q732
0 632 0Q552 0 540 0T522 5Q517 10 517 17Q517 19 521 37Q543 112 614 236Q654 306 669 334T704 417T728 518Q729 524 729 535Q729 594 689 623T583 652Q456 652 392 567T327 340Q327 316 331 238T336 135Q336 76 324 24Q320 6 313 2Q308 0 208 0Q128 0 116 0T98
5Q93 10 93 25Q93 28 93 41T95 77T96 118L100 199Q105 208 109 210T131 212Q147 212 151 210T161 199V160Q161 131 162 125V119Z" />
<glyph unicode="&#x3b1;" glyph-name="alpha" horiz-adv-x="761" d="M251 -8Q156 -8 98 36T39 166Q39 230 74 295Q116 367 188 409T362 452Q442 452 496 417T575 321Q586 290 586 269V265Q595 274 616 325Q625 346 636 381Q640 397 644 399T669 402T693 400Q700
396 700 388Q700 381 689 348Q660 262 604 188L593 173L595 153Q600 78 612 43H618Q646 46 651 61Q653 73 672 73H684Q712 73 712 59Q712 54 711 51Q703 25 674 9T603 -7Q584 -7 578 -6Q515 8 485 63L481 69L469 61Q415 26 366 9T251 -8ZM412 379Q390 401 354 401Q291
401 245 355Q230 337 217 313Q202 281 187 220Q170 153 170 126Q170 43 260 43Q355 43 455 114Q465 122 465 124Q465 129 464 147T461 186T457 228T454 263L453 277Q443 348 412 379Z" />
<glyph unicode="&#x3b2;" glyph-name="beta" horiz-adv-x="660" d="M461 701Q542 701 589 667T637 561Q637 537 632 521Q616 445 556 393Q566 387 579 367Q608 324 608 262Q608 149 532 78T339 -6Q321 -8 299 -8Q237 -8 186 23Q175 31 150 56L120 -64Q89 -186
88 -187Q81 -194 71 -194H59Q39 -194 36 -192Q30 -189 28 -182Q28 -178 107 139T192 473Q217 546 270 604T388 687Q424 701 450 701H461ZM531 592Q531 651 463 651Q396 651 333 593Q280 542 253 466Q250 458 217 327T182 185Q180 176 180 159Q180 106 213 75T301
44Q376 44 420 86Q439 105 450 130T475 206Q490 264 491 296Q491 325 485 341L482 350Q480 350 474 347Q432 333 372 333Q340 333 320 335T283 348T265 380Q265 399 276 413T305 433Q335 444 397 444Q437 444 475 436L485 433Q489 433 499 458Q510 484 520 525T531
592ZM424 390Q424 393 389 393Q383 393 374 393T362 392Q345 392 333 388Q344 384 379 384Q424 384 424 390Z" />
<glyph unicode="&#x3b3;" glyph-name="gamma" horiz-adv-x="590" d="M36 256H24Q17 256 14 256T8 260T5 269Q5 277 9 288Q28 350 87 396T215 451H241Q262 451 272 449Q346 433 393 354Q424 304 440 238Q444 222 444 220L446 216L450 226Q473 278 513 357T561 441Q566
444 584 444H591Q605 444 611 442T617 430Q617 425 608 409Q523 260 462 110L452 84L451 70Q446 -2 419 -107Q403 -171 388 -192Q375 -211 355 -211Q341 -211 333 -200T325 -171Q325 -151 339 -94Q362 -5 386 64L393 84V98Q393 181 371 241Q366 259 353 275Q312
327 210 327Q121 327 83 295Q72 284 65 266Q62 256 45 256H36Z" />
<glyph unicode="&#x3b4;" glyph-name="delta" horiz-adv-x="522" d="M249 -8Q155 -8 97 37T39 168V176Q43 237 75 295T153 386Q206 426 272 442L260 465Q216 553 216 610Q216 665 263 701Q281 715 314 723Q326 725 327 725Q330 725 406 709T487 690Q513 681 513
651Q513 625 493 606T450 587T398 612Q395 615 378 630T357 650Q336 663 314 663Q286 663 272 639Q269 633 276 618Q289 591 344 536L397 484Q439 447 458 410T478 313Q478 243 453 172Q436 122 406 81T338 18Q298 -8 249 -8ZM157 130Q157 88 183 66T255 43Q280
43 300 67Q319 91 333 139T348 235Q348 308 301 389Q300 392 298 392Q294 392 274 382T236 354Q204 322 185 267Q157 168 157 130Z" />
<glyph unicode="&#x3b5;" glyph-name="epsilon" horiz-adv-x="529" d="M417 124Q425 124 432 118T439 100Q439 90 426 70Q366 -17 224 -17Q61 -17 37 95Q36 100 36 112Q36 178 84 226L93 236L88 246Q79 264 79 289Q79 306 81 315Q91 353 124 388Q202 461 333 461Q402
461 455 425Q480 409 481 390Q481 368 464 351T428 334Q414 334 398 345Q375 360 360 365T313 370Q182 370 148 320Q141 310 141 293Q141 275 146 270Q147 270 148 270T155 272Q202 291 263 291Q304 291 326 282T349 244Q349 228 340 215Q326 192 281 183Q274 182
239 182T196 183Q165 189 137 200Q100 169 100 129Q100 118 104 111Q114 88 148 81T243 74Q287 74 310 75T360 86T398 112Q406 124 417 124ZM286 238Q286 240 269 240H253Q209 240 209 235Q209 232 250 232Q286 232 286 238Z" />
<glyph unicode="&#x3b6;" glyph-name="zeta" horiz-adv-x="508" d="M326 -151Q344 -151 350 -145T357 -123Q356 -109 344 -97Q331 -84 257 -63T175 -37Q48 12 48 157Q48 188 49 197Q72 364 207 499Q257 549 317 586V612Q320 669 329 691Q339 711 361 711Q371 711
379 705T388 689Q389 683 385 666T376 618V612H379Q380 613 391 615Q403 618 429 618Q521 618 521 572Q521 551 506 534Q483 510 415 507Q383 507 368 513T336 536L326 528Q277 490 235 430T172 309Q154 258 154 209Q154 117 231 85Q237 82 308 60T388 36Q417 23
435 2Q447 -14 454 -36Q456 -46 456 -64Q456 -83 455 -90Q444 -136 412 -169T333 -202Q301 -202 258 -191T206 -169Q202 -164 202 -157Q202 -147 211 -139T231 -130Q238 -130 258 -137Q283 -148 326 -151ZM454 564Q439 567 424 567T397 565Q395 565 392 564Q388
563 387 563Q387 558 411 558Q434 558 450 562L454 564Z" />
<glyph unicode="&#x3b7;" glyph-name="eta" horiz-adv-x="600" d="M142 -8Q121 -8 105 5T89 39Q89 49 106 117T142 260T164 351Q166 363 166 372Q166 401 147 401Q126 401 114 378T92 319Q91 313 90 310Q85 289 82 286T60 282H55Q34 282 31 284Q24 288 24 296Q24
300 33 329Q69 436 136 450Q148 452 157 452Q202 452 233 435Q267 419 284 384Q292 390 297 395Q341 433 388 445Q410 451 445 451Q482 451 501 447Q600 426 600 337Q600 314 597 298Q596 295 589 264T566 175T538 64Q484 -158 478 -168Q458 -211 409 -211Q386
-211 372 -197T357 -161Q357 -156 415 80Q473 309 475 320Q477 330 477 348Q477 376 467 388T432 400Q378 400 335 363Q300 332 280 298Q277 293 246 170T213 40Q192 -8 142 -8Z" />
<glyph unicode="&#x3b8;" glyph-name="theta" horiz-adv-x="562" d="M213 -8Q131 -8 86 49T40 200Q40 304 83 428Q122 535 189 608Q268 690 360 701Q363 701 370 701T381 702Q442 702 488 664Q554 609 554 486Q554 465 552 445Q541 343 504 250T411 94Q338 10
243 -6Q227 -8 213 -8ZM433 562Q433 601 419 626T377 651Q343 651 314 622T266 554Q246 514 229 453Q225 441 217 411T208 378H401Q433 504 433 562ZM161 140Q161 98 174 71T217 43Q249 43 280 74Q310 103 332 150T378 287Q385 313 385 315Q385 316 289 316H192L191
309Q162 191 161 140Z" />
<glyph unicode="&#x3b9;" glyph-name="iota" horiz-adv-x="412" d="M161 -8Q110 -8 74 16T38 85Q38 98 56 146Q91 241 123 368Q132 404 140 417Q164 452 203 452Q226 452 241 439T257 404Q257 394 251 369Q212 216 171 111Q157 79 157 57Q157 43 166 43Q220 43
264 72T322 144Q326 156 331 160Q335 162 355 162Q376 162 379 160Q386 156 386 148Q386 136 374 112Q353 73 316 45T232 3Q193 -8 161 -8Z" />
<glyph unicode="&#x3ba;" glyph-name="kappa" horiz-adv-x="668" d="M258 405Q258 394 251 364T237 308T230 281T238 284T270 306T330 349Q397 402 436 422Q480 444 519 444Q545 444 559 430T574 391Q574 360 551 336T491 312Q467 312 453 326T439 364Q439 372
438 372Q436 372 407 353Q385 339 343 306Q331 297 318 287T296 271T283 260H285Q287 260 290 260T297 259Q495 250 495 146Q495 133 491 108T486 74Q486 43 505 43Q520 43 531 53Q559 72 578 141Q582 157 586 159T611 162T635 160Q642 156 642 148Q642 139 630
108Q595 25 538 0Q521 -7 504 -7H495Q439 -7 401 20T363 96Q363 103 366 120T369 142Q369 177 320 195Q291 205 221 209L212 210L211 206Q211 205 191 123T169 40Q148 -8 98 -8Q77 -8 61 5T45 39Q45 48 67 139T112 317L134 404Q142 424 161 438T204 452Q226 452
242 440T258 405Z" />
<glyph unicode="&#x3bb;" glyph-name="lambda" horiz-adv-x="671" d="M95 -13Q74 -13 57 2T40 41T61 88Q65 92 210 207T357 322L235 602Q215 641 185 643Q182 643 178 644T173 645Q161 651 161 666Q161 675 167 682T181 692T212 694Q335 694 358 660Q362 655 495
353T633 43Q644 21 647 18Q652 10 652 6Q652 -2 645 -6Q642 -8 589 -8H538L526 -5Q500 3 495 14Q491 22 440 138L387 259L265 134Q176 41 155 21T123 -6Q110 -13 95 -13Z" />
<glyph unicode="&#x3bc;" glyph-name="mu" horiz-adv-x="708" d="M429 46Q366 -8 294 -8Q250 -8 213 1L201 4Q200 4 192 -32T172 -111T155 -168Q135 -211 86 -211Q62 -211 48 -196T34 -158Q37 -144 103 123T174 404Q182 424 201 438T244 452Q266 452 282 439T298
404Q298 393 270 280T239 153Q235 133 235 114Q235 43 305 43Q349 43 391 80Q412 99 418 110Q420 112 455 253T492 397Q515 444 562 444Q583 444 599 431T615 397Q615 382 578 239T540 72Q540 43 559 43Q580 43 592 66T614 125Q615 131 616 134Q621 155 624 158T646
162H651Q672 162 675 160Q682 156 682 148Q682 144 673 115Q637 7 568 -6Q556 -8 548 -8Q512 -8 479 6T433 41L429 46Z" />
<glyph unicode="&#x3bd;" glyph-name="nu" horiz-adv-x="577" d="M556 452Q578 452 593 438T608 402Q608 393 605 381Q577 278 493 194Q343 44 96 -1Q91 -2 78 -2Q54 -2 47 2Q38 8 38 15T82 198L127 379Q124 382 88 382Q67 382 62 390Q56 397 62 417Q66 434 70
438Q73 441 77 442T90 445T107 446T131 446T160 448Q232 452 247 452Q267 452 267 437Q267 432 223 252L177 71L192 77Q283 114 356 185Q447 273 480 388Q484 405 491 417Q514 452 556 452Z" />
<glyph unicode="&#x3be;" glyph-name="xi" horiz-adv-x="508" d="M329 -151Q349 -151 349 -135Q349 -126 340 -121Q337 -119 235 -85T115 -41Q45 -7 28 53Q23 68 23 88T28 125Q50 214 130 277L144 288L136 297Q99 336 99 390Q99 430 119 470Q165 561 285 602V619Q285
624 286 635T287 648Q288 651 289 658T290 668T292 676T294 684T297 691T301 697T305 701T311 706T318 709Q326 711 329 711Q339 711 347 705T356 689Q357 683 353 666Q346 626 345 619Q344 615 346 615Q358 618 398 618Q490 618 490 572Q490 550 474 534T434 512Q411
508 378 508Q346 508 335 512T306 534L298 525Q273 498 255 457T237 375Q237 336 244 336Q271 346 325 346Q355 346 373 344T407 331T422 300Q422 236 303 236Q286 236 269 238T240 242T218 247T202 252L196 254Q190 254 170 231Q142 203 127 162Q124 151 124 139Q124
118 140 102Q154 88 178 78Q180 77 292 38T406 -2Q454 -23 454 -80Q454 -90 453 -95Q445 -133 420 -161T358 -199Q349 -201 327 -201Q254 -201 196 -174Q187 -170 187 -158T196 -138T216 -130Q223 -130 242 -137Q282 -151 329 -151ZM355 563Q362 559 376 558Q424
558 423 564Q405 567 390 567Q366 567 355 563ZM279 292Q294 287 315 287Q323 287 339 289T355 293Q355 296 321 296Q316 296 308 296L301 295Q295 295 289 294L279 292Z" />
<glyph unicode="&#x3bf;" glyph-name="omicron" horiz-adv-x="585" d="M254 -8Q155 -8 97 37T39 169Q39 278 127 363Q192 427 292 446Q317 451 336 451L344 452Q353 452 359 452Q455 452 515 408T576 279Q576 249 567 216Q546 132 480 74T323 -2Q290 -8 254 -8ZM170
126Q170 44 260 44Q367 44 409 157Q432 218 444 295Q445 301 445 317Q445 336 443 348Q429 390 382 399Q375 400 349 400Q274 400 231 338Q206 301 187 220Q170 153 170 126Z" />
<glyph unicode="&#x3c0;" glyph-name="pi" horiz-adv-x="682" d="M457 -8Q429 -8 412 16T390 70T384 139Q384 195 396 255Q409 325 413 331Q413 333 365 333H316L315 329Q315 328 312 314T301 272T288 220Q277 178 266 134T249 70T242 43Q237 29 224 14Q200 -8
172 -8Q150 -8 134 6T117 41Q117 52 121 61Q123 68 137 93Q210 228 235 293Q250 329 250 333Q177 333 166 332Q115 328 88 301L77 290L55 289Q33 289 30 290Q23 295 23 303Q23 308 33 322Q116 434 199 443Q200 444 418 444Q591 444 617 444T652 439Q674 426 674
400Q674 378 661 360T625 335Q621 334 549 333H479L477 321Q476 312 476 279Q476 173 525 98Q536 81 536 65Q536 35 510 14T457 -8Z" />
<glyph unicode="&#x3c1;" glyph-name="rho" horiz-adv-x="612" d="M307 -8Q277 -8 251 0T215 14L205 20Q203 18 193 -25T171 -114T155 -168Q135 -211 87 -211Q64 -211 49 -198T34 -162Q34 -154 82 41T137 254Q175 358 258 408Q309 442 386 451H403Q443 451 452
450Q521 440 562 398T603 285Q603 202 560 134T453 29Q387 -8 307 -8ZM474 343Q474 369 456 384T409 400Q340 400 299 341Q281 313 264 257Q261 248 242 170T222 89Q222 83 236 69Q262 43 308 43Q382 43 417 110Q437 145 456 228Q474 298 474 332V343Z" />
<glyph unicode="&#x3c2;" glyph-name="sigma1" horiz-adv-x="424" d="M282 -53Q293 -45 293 -31Q293 -19 283 -10Q278 -4 200 33T115 76Q80 96 57 131T33 209Q33 263 65 313T143 391Q217 442 312 451H330Q409 451 439 429Q457 418 457 402Q457 388 446 376T420
363Q414 363 395 375Q375 390 354 398Q347 400 330 400Q270 400 216 372T143 302Q135 284 135 265Q135 247 144 229Q156 210 174 199Q177 196 265 153T358 107Q400 79 400 28Q400 -21 362 -63T271 -105Q252 -105 228 -99T195 -86Q188 -82 188 -71T196 -52T216 -44Q223
-44 233 -47Q247 -53 270 -53H282Z" />
<glyph unicode="&#x3c3;" glyph-name="sigma" horiz-adv-x="686" d="M226 -8Q140 -8 88 32T35 151Q35 179 43 208Q67 304 135 369T306 443Q307 443 316 443T342 443T378 444T425 444T476 444Q606 444 626 444T655 439Q677 426 677 400Q677 358 639 340Q625 333
563 333Q510 333 510 331Q514 325 517 300Q518 294 518 272Q518 154 438 74Q356 -8 226 -8ZM396 278Q396 313 375 322T305 332Q252 332 224 312T180 243Q153 166 153 116Q153 43 234 43Q318 43 357 123Q367 144 381 199T396 278Z" />
<glyph unicode="&#x3c4;" glyph-name="tau" horiz-adv-x="521" d="M199 443Q200 444 386 444Q571 444 577 442Q610 435 610 402Q610 357 572 340Q561 335 547 334T452 333H353V331Q352 330 342 261T320 119T306 40Q300 18 280 3T233 -13Q210 -13 196 0T181 35Q181
44 182 48Q183 53 229 187T279 331Q279 333 228 333H206Q157 333 133 328T88 301L77 290L55 289Q33 289 30 290Q23 295 23 303Q23 308 33 322Q116 434 199 443Z" />
<glyph unicode="&#x3c5;" glyph-name="upsilon" horiz-adv-x="631" d="M328 -8Q237 -8 184 19T118 110Q118 112 118 119T117 131Q117 147 119 163Q124 202 174 332Q185 359 188 379Q189 384 189 390Q189 401 176 401Q154 400 134 381Q104 351 89 304Q84 288 81
285T61 282H55Q34 282 31 284Q24 288 24 296Q24 313 42 347Q61 386 95 415T167 450Q179 452 188 452Q224 452 256 437Q308 411 308 361Q308 346 293 306Q251 198 243 157Q241 141 241 123Q241 44 336 44H344Q388 44 434 90Q501 157 524 253Q526 263 526 267Q526
280 513 292Q504 302 481 315Q457 328 450 342Q444 352 444 367Q444 397 469 425T529 453Q548 453 568 440Q604 416 604 358Q604 333 594 286Q578 214 557 172Q502 58 414 13Q375 -8 328 -8Z" />
<glyph unicode="&#x3c6;" glyph-name="phi" horiz-adv-x="747" d="M184 -155L238 4Q233 6 229 7Q162 23 115 62T55 159Q53 168 53 190Q53 219 60 246Q90 362 145 426Q159 442 163 443Q165 444 186 444Q210 444 214 438Q221 427 210 418Q168 376 141 302Q116 237
116 206Q116 186 125 170Q154 123 263 109L276 107L288 139Q317 221 343 271Q430 438 545 451Q547 452 566 452Q634 448 668 405T703 286Q702 257 695 231Q675 149 598 84T422 -1Q396 -7 357 -8H332V-11Q331 -12 322 -82Q310 -156 310 -157Q305 -183 284 -199T234
-216Q211 -216 197 -203T183 -168Q183 -160 184 -155ZM637 260Q637 298 611 319T541 341Q503 341 466 318T405 264Q368 218 356 159Q348 111 348 104Q348 103 361 103Q396 103 420 105Q491 114 546 141T624 212Q637 238 637 260Z" />
<glyph unicode="&#x3c7;" glyph-name="chi" horiz-adv-x="718" d="M58 -194Q32 -194 32 -164Q32 -153 46 -139L175 -13Q296 104 296 106L294 114Q292 123 289 136T284 156Q260 251 226 308Q191 362 170 383Q152 401 141 401Q128 401 117 391T100 365Q94 350 91
349T69 346H45Q35 348 35 359Q35 373 50 396Q88 452 165 452Q286 452 329 402Q358 366 384 286Q404 226 404 215Q404 213 405 213Q405 212 420 227T463 268T520 324Q637 437 640 438Q647 444 661 444Q671 443 678 437T685 419Q685 409 681 402Q677 394 549 271L420
145Q448 15 488 -53Q535 -128 562 -147Q569 -151 575 -151Q604 -151 617 -113Q622 -101 626 -98Q629 -96 650 -96Q675 -96 679 -102T679 -119Q670 -148 646 -169T591 -199Q581 -201 550 -201Q421 -201 381 -143Q345 -88 316 20L311 39L230 -40Q144 -126 114 -153Q83
-184 77 -189T58 -194Z" />
<glyph unicode="&#x3c8;" glyph-name="psi" horiz-adv-x="758" d="M119 146Q119 183 154 277T190 388Q190 401 181 401Q154 401 129 375T90 306Q85 288 81 285T61 282H55Q34 282 31 284Q24 288 24 296Q24 300 33 327Q53 377 95 414T189 452Q252 452 286 416Q309
393 309 362Q309 346 295 308Q250 192 246 164Q244 148 244 141Q244 76 310 54Q336 47 342 47L344 48L424 366Q501 678 505 686Q510 694 518 694H533Q557 694 562 689L565 683Q565 678 486 362T406 45Q406 43 415 43Q456 48 495 67Q572 105 620 183Q653 229 653
266Q653 280 641 292Q632 302 609 315Q585 328 578 342Q572 354 572 367Q572 409 613 438Q634 453 657 453Q676 453 694 441Q732 417 732 358Q732 294 706 225Q686 167 641 116T536 31Q464 -8 401 -8H393L370 -101Q346 -196 345 -197Q340 -202 316 -202Q296 -202
293 -200Q286 -196 286 -188Q286 -187 296 -144T318 -57T331 -8Q331 -6 328 -6Q300 -6 252 5Q119 40 119 146Z" />
<glyph unicode="&#x3c9;" glyph-name="omega" horiz-adv-x="718" d="M343 303T364 303T400 288T415 250Q415 221 385 157L378 144Q378 141 398 131Q428 117 462 117Q489 117 520 131Q543 143 564 163Q586 186 596 209Q610 237 610 255Q610 262 609 265Q603 293
561 320Q532 337 532 367Q532 400 557 426T618 453T672 426T691 357Q691 318 677 260T649 171Q621 106 580 62T490 1Q466 -7 438 -7Q358 -7 317 49L311 57Q292 38 274 27Q221 -8 165 -8Q111 -8 77 22T30 102Q24 126 24 163V178Q24 210 37 255Q61 346 118 424Q134
442 144 447Q152 451 161 451Q194 451 194 419Q194 402 179 387Q118 307 99 250Q91 226 91 206Q91 164 118 141T189 117T273 141L281 145V173Q284 227 294 253Q304 276 323 289Z" />
<glyph unicode="&#x3d1;" glyph-name="theta1" horiz-adv-x="692" d="M620 370Q634 370 645 365T656 352Q656 347 653 335Q652 333 651 330T650 325T648 321T647 318T645 316T642 315T638 315Q637 315 619 317Q606 319 605 316Q605 316 603 308Q583 235 543 166T457
57Q416 23 379 8T293 -8Q188 -8 144 32Q114 62 114 116Q114 141 116 153Q116 157 127 204T151 300T164 351Q166 363 166 372Q166 401 147 401Q126 401 114 378T92 319Q91 313 90 310Q85 289 82 286T60 282H55Q34 282 31 284Q24 288 24 296Q24 300 27 309Q47 382
84 420Q116 452 158 452Q207 452 241 431T286 376Q288 370 288 354V339L265 245Q240 145 239 138Q237 127 237 107Q237 72 252 59Q267 44 300 43Q337 43 368 74Q395 102 414 142T455 254Q479 346 479 347L460 354Q391 377 348 412Q294 456 294 528Q294 559 306
592Q318 623 346 650T411 691Q441 701 464 701Q534 701 579 659Q634 601 634 491Q634 468 630 438T623 388L620 370ZM519 566Q519 651 464 651Q417 651 379 603Q356 572 356 529Q356 518 357 513Q366 456 438 420Q480 400 491 400Q493 400 507 463Q519 527 519
566Z" />
<glyph unicode="&#x3d5;" glyph-name="phi1" horiz-adv-x="712" d="M462 692Q465 694 486 694Q506 694 510 692Q517 688 517 680L514 665Q510 650 503 621T489 564L460 451H469Q564 444 625 401Q693 353 693 266Q693 251 692 246Q681 150 597 80Q502 1 350 -7H346L322
-100Q319 -113 315 -131T308 -159T303 -179T298 -194T293 -200Q289 -202 269 -202Q248 -202 245 -200Q238 -196 238 -188Q238 -186 260 -96L283 -7H274Q83 8 53 143Q51 152 51 176V190Q51 205 56 225Q81 325 174 385T393 451L397 452L427 568Q431 586 436 607T445
641T451 666T456 684T462 692ZM449 400Q448 400 404 225T359 47T366 45Q412 49 452 69T516 119Q556 167 572 255Q575 270 575 295Q575 337 550 362Q520 392 462 398L449 400ZM384 398Q384 399 381 399Q379 399 353 395Q256 375 214 308Q168 237 168 149Q168 107
193 82Q208 67 236 56T294 44H295L384 398Z" />
<glyph unicode="&#x3d6;" glyph-name="omega1" horiz-adv-x="975" d="M870 333Q872 323 872 295V279Q872 256 865 233Q845 152 793 88T676 2Q647 -8 618 -8Q550 -8 512 45Q495 70 484 119Q484 121 478 114Q477 113 476 111Q406 20 317 -1Q294 -7 268 -7Q223 -7
191 18Q147 57 147 132Q147 227 215 325L220 333H199Q154 333 131 327T88 301L77 290L55 289Q33 289 30 290Q23 295 23 303Q23 308 33 322Q116 434 199 443Q200 444 562 444Q922 444 928 442Q961 434 961 400Q961 371 940 352T886 333H870ZM550 218Q550 166 572
135T639 103Q683 103 732 136Q764 158 786 195Q811 240 811 295Q811 318 808 330V333H289L287 331Q236 261 217 195Q214 183 214 169Q214 137 234 120T288 103Q323 103 359 120Q406 141 443 184T494 278Q497 290 502 292T529 295Q546 295 551 292Q559 287 554 265Q550
247 550 218Z" />
<glyph unicode="&#x3f1;" glyph-name="uni03F1" horiz-adv-x="612" d="M152 53Q152 48 148 21T144 -16Q144 -42 160 -50Q175 -58 213 -62Q225 -64 293 -64Q395 -65 424 -73Q446 -79 456 -91T466 -127Q466 -140 459 -172Q455 -188 451 -191T426 -194Q406 -194 402
-192Q395 -188 395 -176Q395 -173 395 -172T395 -169T392 -168T389 -167T384 -167T378 -168T371 -168Q345 -168 316 -172Q285 -175 245 -175Q178 -175 137 -163T81 -114Q75 -100 75 -66Q75 -8 99 101Q122 210 137 254Q175 358 258 408Q309 442 386 451H403Q443
451 452 450Q522 439 562 397T603 282Q603 164 516 77Q431 -8 304 -8Q214 -8 164 42Q153 53 152 53ZM236 116Q236 81 256 62T311 43Q369 43 407 94Q426 118 445 184T473 303Q474 310 474 331Q474 400 409 400Q340 400 299 341Q281 313 264 257Q262 249 256 225T246
186T240 152T236 116Z" />
<glyph unicode="&#x3f5;" glyph-name="uni03F5" horiz-adv-x="483" d="M174 140Q174 43 292 43Q295 43 300 43T307 44Q340 50 394 81Q413 93 421 88Q426 84 432 64T434 39Q431 35 410 24T370 7Q332 -7 281 -7Q188 -7 127 28T49 131Q44 151 44 167V181Q44 263 94
329Q132 378 193 408T327 443Q328 443 348 443T383 444Q434 444 442 438Q450 430 450 416Q446 392 424 383L376 382Q325 381 315 379Q236 366 208 294Q199 274 199 268Q199 267 291 267Q385 267 387 266Q406 259 406 241Q406 214 380 206Q375 205 279 205T183 203Q174
178 174 140Z" />
<glyph unicode="&#xeffd;" glyph-name="uniEFFD" horiz-adv-x="900" d="M0 0V100H100V0H0ZM800 0V100H900V0H800Z" />
<glyph unicode="&#xeffe;" glyph-name="uniEFFE" horiz-adv-x="300" d="M0 0V100H100V0H0ZM200 0V100H300V0H200Z" />
<glyph unicode="&#xefff;" glyph-name="uniEFFF" horiz-adv-x="100" d="M0 0V100H100V0H0Z" />
</font>
</defs>
</svg>
