<?xml version="1.0" standalone="no"?> <!DOCTYPE svg PUBLIC "-//W3C//DTD SVG 1.0//EN" "http://www.w3.org/TR/2001/REC-SVG-20010904/DTD/svg10.dtd" > <svg xmlns="http://www.w3.org/2000/svg" width="100%" height="100%">
<defs >
<font id="MathJax_Main-Italic" horiz-adv-x="421" ><font-face
    font-family="MathJax_Main"
    units-per-em="1000"
    panose-1="0 0 0 0 0 0 0 0 0 0"
    ascent="1017"
    descent="-450"
    alphabetic="0" />
<missing-glyph horiz-adv-x="250" d="M50 0V533H200V0H50ZM100 50H150V483H100V50Z" />
<glyph unicode=" " glyph-name="space" horiz-adv-x="250" />
<glyph unicode="!" glyph-name="exclam" horiz-adv-x="307" d="M330 716Q351 716 365 704T380 670V659L304 433Q230 207 227 204Q225 198 205 198Q184 198 184 207T220 439T260 669Q270 694 297 708Q300 709 304 710T311 713T316 714Q324 716 330 716ZM156 0Q135
0 121 13T107 51Q110 80 130 100T179 121Q202 121 216 108T231 72Q231 46 208 23T156 0Z" />
<glyph unicode="&quot;" glyph-name="quotedbl" horiz-adv-x="514" d="M264 573Q241 573 228 585T214 620Q214 650 236 672T289 694Q312 694 326 677T341 633V624Q341 602 339 591Q318 501 253 429Q228 400 204 383Q198 379 196 379Q192 379 184 387T176 401T189
416Q258 472 287 547Q299 576 299 582L295 580Q291 578 282 576T264 573ZM461 573Q438 573 425 585T411 620Q411 650 433 672T486 694Q509 694 523 677T538 633V624Q538 602 536 591Q515 501 450 429Q425 400 401 383Q395 379 393 379Q389 379 381 387T373 401T386
416Q455 472 484 547Q496 576 496 582L492 580Q488 578 479 576T461 573Z" />
<glyph unicode="#" glyph-name="numbersign" horiz-adv-x="818" d="M115 153Q115 163 131 173H306L344 250Q382 326 382 327H281Q179 327 176 329Q164 334 164 347Q164 359 176 365Q179 367 292 367H404L563 688Q569 694 578 694Q586 694 592 687T597 670Q597
667 531 535L448 367H614L773 688Q779 694 787 694Q794 694 801 689T808 675Q808 672 807 670Q807 667 732 517L658 368L736 367H814Q828 357 828 347T812 327H637L599 250Q561 174 561 173H662Q743 173 755 173T773 168Q779 162 779 153T773 138Q768 134 755 134T651
133H540L380 -188Q374 -194 366 -194Q359 -194 352 -189T345 -175Q345 -172 346 -170Q346 -167 412 -35L495 133H330L170 -188Q164 -194 156 -194Q149 -194 142 -189T135 -175Q135 -172 136 -170Q136 -167 211 -17L285 133H207L130 134Q115 141 115 153ZM592 327H427L389
250Q351 174 351 173H516L554 250Q592 326 592 327Z" />
<glyph unicode="%" glyph-name="percent" horiz-adv-x="818" d="M827 750Q834 750 840 745T847 730Q847 729 847 728T846 725Q844 719 677 525T344 141T176 -52Q172 -56 166 -56Q158 -56 152 -50T145 -35Q145 -33 147 -27Q150 -22 291 141T572 466T711 628L701
624Q652 607 604 607Q553 607 494 634L479 642V624Q479 545 439 467Q392 372 323 350Q316 348 301 348Q285 348 279 350Q245 360 225 394T205 480Q205 496 206 502Q213 577 252 643T346 736Q369 750 394 750Q418 750 430 743T458 714Q512 644 606 644Q630 644 637
645Q736 659 802 732Q815 747 819 748Q825 750 827 750ZM434 627Q434 713 390 713Q384 713 381 712Q352 702 328 663Q308 631 288 550Q270 481 270 451V443Q270 407 284 393Q293 384 306 385Q316 385 323 388T335 394T348 407Q414 470 432 594Q434 610 434 627ZM704
347Q746 347 767 312T788 222Q788 148 756 78T673 -31Q641 -56 608 -56Q550 -56 522 15Q513 43 513 76Q513 140 539 198T604 296L627 318Q670 347 704 347ZM742 222Q742 310 699 310Q697 310 695 310T691 309Q671 304 652 282T620 227Q608 196 594 139Q578 75 578
42Q578 -18 613 -18Q624 -18 628 -16Q666 -1 702 67Q742 145 742 222Z" />
<glyph unicode="&amp;" glyph-name="ampersand" horiz-adv-x="767" d="M626 300Q626 276 608 259T563 242Q530 244 511 264T491 320Q495 365 531 403Q556 428 613 466Q657 496 684 523T732 590L738 601Q738 602 736 602Q724 602 716 613T707 638Q707 661 724 677T764
694Q799 694 802 660Q802 649 799 638Q770 539 692 470L688 467Q735 396 735 327Q735 300 733 282Q711 142 619 60T375 -22Q301 -22 245 5T157 80Q127 125 127 181Q127 211 141 253Q163 320 207 374L216 386Q209 421 209 444Q209 468 211 479Q225 566 281 634T405
714Q415 716 424 716Q473 716 501 684T530 601Q530 563 514 539T467 515Q450 515 439 525T427 553Q427 573 440 588T472 608Q478 610 481 610H483V617Q480 644 463 661T419 679T368 656T328 603Q316 578 305 538T288 470L282 443L295 449Q308 455 330 462T371 469Q398
469 414 450T430 404Q430 362 396 324Q365 295 331 295Q292 295 256 322Q252 322 230 239Q217 190 217 158Q217 86 263 51T387 15Q453 15 507 34Q629 79 673 223Q688 272 688 317Q688 361 672 397Q667 408 658 422T647 437Q640 437 592 401Q545 366 538 332Q536
310 541 310Q554 335 587 335Q604 335 615 326T626 300ZM335 332Q359 332 372 356T386 412Q386 432 366 432Q336 432 306 402Q284 380 284 375V374Q285 372 286 370T287 366Q303 332 335 332Z" />
<glyph unicode="&apos;" glyph-name="quotesingle" horiz-adv-x="307" d="M300 573Q277 573 264 585T250 620Q250 650 272 672T325 694Q348 694 362 677T377 633V624Q377 602 375 591Q357 512 300 441Q268 401 238 382Q234 379 231 379Q227 379 220 387T213 401T225
416Q294 472 323 547Q335 573 335 582L331 580Q327 578 318 576T300 573Z" />
<glyph unicode="(" glyph-name="parenleft" horiz-adv-x="409" d="M241 -250Q195 -204 170 -128T144 39Q144 116 162 205Q212 448 346 617Q419 704 487 750H499Q507 750 510 750T515 747T517 740Q517 736 495 716Q378 610 307 442Q228 254 210 61Q208 37 208 3Q208
-75 222 -128T268 -232Q272 -237 272 -242Q272 -250 252 -250H241Z" />
<glyph unicode=")" glyph-name="parenright" horiz-adv-x="409" d="M35 -250Q27 -250 24 -250T19 -247T17 -240Q17 -236 39 -216Q156 -110 227 58Q307 246 324 440Q326 464 326 497Q326 575 312 628T266 732Q265 733 264 735T262 738V740Q262 746 267 749L272
750Q276 750 281 750H293Q339 704 364 628T390 461Q390 384 372 295Q322 51 188 -116Q120 -201 47 -250H35Z" />
<glyph unicode="*" glyph-name="asterisk" horiz-adv-x="511" d="M239 616Q239 631 252 644T282 658Q283 658 285 658T288 657Q293 656 335 615L378 573L391 647Q401 708 403 719T413 737Q421 745 434 749Q435 749 439 749T445 750Q467 748 469 728Q469 723 457
685T432 610L420 573L481 613Q542 654 546 655Q552 658 558 658Q568 658 576 650T584 631Q584 609 562 598Q555 595 493 566T428 536Q427 535 433 531T479 502Q530 472 534 468Q539 463 539 450Q538 435 525 424T497 412Q489 412 486 414Q482 416 442 456Q400 497
400 494L387 420Q377 361 375 350T365 332Q353 320 336 320H331Q322 320 316 327T309 343Q309 347 334 420L359 496L234 414Q228 411 221 411Q195 411 195 439Q197 450 199 454Q204 463 215 469T283 502L353 534L300 566Q248 598 244 602Q239 609 239 616Z" />
<glyph unicode="+" glyph-name="plus" horiz-adv-x="767" d="M374 -57Q366 -57 361 -51T355 -37Q355 -31 388 99L421 230H288Q155 230 152 232Q139 238 139 250T152 268Q155 270 293 270H431L465 407Q499 543 502 548Q506 557 519 557Q527 557 532 551T538 538Q538
536 507 409T472 272Q472 270 604 270Q737 270 741 268Q753 262 753 250T741 232Q737 230 599 230H462L461 226Q461 224 427 91T392 -47Q387 -57 374 -57Z" />
<glyph unicode="," glyph-name="comma" horiz-adv-x="307" d="M188 7L184 6Q181 4 173 2T156 0Q133 0 120 12T106 46Q106 74 124 94T167 120Q168 120 173 120T180 121Q232 121 232 54Q232 36 230 24Q210 -70 147 -141Q132 -159 113 -176T88 -194Q84 -194 77 -184T69
-171Q69 -167 80 -158Q98 -145 124 -114Q165 -66 184 -6Q188 6 188 7Z" />
<glyph unicode="-" glyph-name="hyphen" horiz-adv-x="358" d="M334 251Q341 244 341 241Q341 237 335 213T327 186Q325 181 312 181T205 180Q92 180 88 183Q84 187 84 190Q84 195 90 219Q96 244 103 251H334Z" />
<glyph unicode="." glyph-name="period" horiz-adv-x="307" d="M156 0Q135 0 121 13T107 50Q107 68 122 91Q148 121 181 121Q202 121 216 108T231 72Q231 43 209 22T156 0Z" />
<glyph unicode="/" glyph-name="slash" horiz-adv-x="511" d="M596 750Q603 750 610 744T617 730L616 728Q616 727 616 726Q615 723 337 244T55 -242Q49 -250 40 -250Q30 -250 25 -243Q18 -238 20 -226Q21 -223 299 256T581 742Q585 750 596 750Z" />
<glyph unicode="0" glyph-name="zero" horiz-adv-x="511" d="M414 665Q562 665 562 490Q562 426 534 318Q493 154 425 69Q373 4 300 -15Q276 -21 251 -21Q222 -21 202 -15Q113 17 110 144Q110 199 122 258Q149 392 189 479Q231 569 287 614Q339 657 402 665H414ZM187
98Q187 61 208 38T260 15Q274 15 291 21Q334 36 365 83Q394 127 446 338Q487 503 487 547Q487 578 472 599T433 627Q428 628 408 628Q379 628 353 610T311 569Q281 528 230 322Q198 196 190 143Q187 120 187 98Z" />
<glyph unicode="1" glyph-name="one" horiz-adv-x="511" d="M248 491Q228 491 228 502Q228 516 236 532Q237 537 256 538Q289 541 314 552Q383 581 437 654Q445 664 446 664Q450 666 454 666Q468 666 468 658Q468 647 395 359Q321 63 321 59Q321 52 328 51Q339
47 388 46H422Q428 37 428 35Q428 19 421 5Q416 0 405 0Q387 0 342 1T263 2Q230 2 187 1T127 0T110 11Q110 13 113 25T118 40Q120 46 146 46Q203 46 221 51Q228 52 235 61Q238 66 295 295L353 526L340 519Q328 512 302 503T248 491Z" />
<glyph unicode="2" glyph-name="two" horiz-adv-x="511" d="M216 336Q191 336 175 353T159 396V404Q159 427 170 460Q197 543 254 600Q287 633 318 647Q356 666 395 666Q464 666 507 619T551 497Q551 473 545 446Q534 388 482 333Q435 286 327 223Q284 198 264
184Q216 151 179 101L171 91Q171 90 177 90Q210 90 264 78Q335 64 366 64Q385 64 390 65Q418 73 441 98T475 156Q479 168 481 170T495 173H518Q523 168 523 167T521 152Q497 67 446 19Q402 -22 353 -22H350Q311 -19 259 15Q216 45 193 50Q181 53 172 53Q159 53
151 45Q136 32 125 -2Q121 -14 121 -16Q119 -22 98 -22H82Q76 -16 76 -13Q76 -9 80 2Q101 74 151 136T274 242Q357 290 405 350Q448 406 460 483Q466 514 466 538Q466 578 446 603T389 629Q378 629 366 626Q322 617 282 574T220 468Q204 425 204 399Q204 384 207
379T222 373Q276 376 306 480Q307 484 307 493Q307 508 300 522Q295 531 297 535Q298 538 307 545T321 553Q332 553 338 534T344 497Q344 482 342 474Q327 419 296 380T219 336H216Z" />
<glyph unicode="3" glyph-name="three" horiz-adv-x="511" d="M276 320Q276 323 279 337T283 352Q284 356 290 357T325 358Q364 359 368 360Q461 383 485 527Q487 535 487 556Q487 629 414 629Q387 629 359 618Q292 594 259 530Q245 502 245 476T264 450Q282 450
295 464T308 496Q308 509 300 522Q293 533 306 544Q317 553 322 553Q331 553 338 534T346 501Q346 467 320 440T258 412Q232 412 216 430T200 478Q200 494 202 500Q214 565 281 618Q346 666 416 666Q469 666 504 642T554 576Q562 552 562 530Q562 507 552 474Q538
431 506 394T430 335L416 329Q479 288 479 206Q479 115 409 52T250 -21Q243 -22 229 -22Q175 -22 142 5T97 80Q96 86 96 106Q96 192 157 192Q192 192 197 157Q197 131 182 115T142 96L143 92Q148 57 171 36T232 15Q249 15 275 22Q307 34 331 57Q363 90 383 169Q396
220 396 246Q396 295 355 309Q349 311 316 312Q310 312 301 312T290 311Q276 311 276 320Z" />
<glyph unicode="4" glyph-name="four" horiz-adv-x="511" d="M253 -165Q253 -159 271 -83T292 -5Q292 -3 268 6Q209 29 169 29Q112 29 91 14Q72 -2 65 1Q62 3 54 14T46 28Q46 36 55 44T77 60T96 74Q306 259 396 623Q409 666 444 666Q459 666 468 657T478 634Q478
633 478 631T477 627Q470 589 443 513Q357 269 187 99L164 75H178Q221 75 283 50Q301 43 304 43Q304 48 325 127Q342 195 346 207T358 228Q372 242 391 242Q404 242 413 234T423 214Q423 205 402 116T378 25Q378 23 387 23Q416 23 441 32Q450 35 452 34T463 22Q473
10 473 5Q473 -2 457 -7Q417 -22 383 -23H366L350 -91Q336 -146 332 -159T320 -180Q306 -194 286 -194Q257 -194 253 -165Z" />
<glyph unicode="5" glyph-name="five" horiz-adv-x="511" d="M196 304Q189 309 189 314Q189 317 231 487T275 660Q278 666 282 666Q285 666 295 661Q347 635 413 635T543 661Q555 666 559 666Q561 666 564 663T567 658Q567 639 557 629Q528 600 482 577T391 547Q371
545 359 545Q332 545 305 550Q298 552 294 552L291 540Q288 529 283 507T273 465L251 379Q306 420 364 420Q416 420 453 385Q497 339 497 261Q497 159 427 78T262 -20Q259 -20 249 -21T233 -22Q176 -22 141 14T106 112Q106 208 173 208Q192 208 203 197T214 169Q214
144 197 126T156 107H153V100Q157 65 179 43T239 21Q245 21 259 23Q308 34 342 78Q372 117 394 207Q412 276 412 312Q412 343 399 363T358 383Q287 383 233 314Q226 306 224 305T209 304H196Z" />
<glyph unicode="6" glyph-name="six" horiz-adv-x="511" d="M255 370L260 376Q266 382 277 392T302 411T336 427T377 434Q450 434 488 364Q509 320 509 278Q509 253 503 225Q489 158 461 113T383 27Q322 -22 256 -22Q198 -22 163 16Q120 62 120 159Q120 187 122
207Q132 280 150 344Q196 504 310 599Q381 657 454 665H465Q493 665 498 664Q532 656 548 638T565 583Q565 543 546 524Q528 506 504 506Q486 506 476 517T465 543Q465 585 515 602Q505 626 466 626Q418 626 372 587Q309 537 272 426Q255 375 255 370ZM424 333Q424
363 409 380T365 397Q358 397 346 395Q311 389 281 354T230 259Q218 225 208 172T197 94Q197 62 213 42T260 22Q300 22 329 47Q363 75 386 151Q404 214 416 272Q424 308 424 333Z" />
<glyph unicode="7" glyph-name="seven" horiz-adv-x="511" d="M495 524Q482 519 466 519T439 526T413 554Q395 581 376 581Q319 581 267 537T186 437Q179 425 178 424Q176 422 159 422Q141 422 141 423Q136 423 136 431Q136 433 190 548T247 665Q249 666 266 666H282Q288
660 288 657Q288 655 284 646T276 628L273 620Q336 666 390 666Q417 666 426 652T441 602Q446 566 457 559Q460 557 470 557Q516 557 582 651Q584 654 586 657T589 662T592 664T596 665T602 666T612 666H628Q634 660 634 657Q634 653 624 639Q458 395 367 43Q359
9 346 -4Q328 -22 304 -22Q265 -22 263 14Q263 24 268 42Q319 244 486 507Q497 524 495 524Z" />
<glyph unicode="8" glyph-name="eight" horiz-adv-x="511" d="M416 666Q477 666 515 634T553 546Q553 452 449 384Q423 365 411 361L410 360L430 343Q463 316 479 287T495 211Q494 185 492 178Q477 113 431 63T322 -10Q289 -21 253 -21Q197 -21 159 4T106 72Q99
93 99 117Q99 153 111 182Q149 275 259 331L272 338L259 349Q211 390 209 449Q209 475 214 499Q230 559 282 607T397 665Q402 666 416 666ZM415 625Q364 625 322 589T279 505Q279 492 286 474Q291 461 337 422Q346 414 357 405T374 391L379 386Q382 385 388 389Q439
419 472 471Q492 513 492 542Q492 581 472 603T415 625ZM163 118Q163 75 190 48T258 21Q316 21 361 59T419 148Q420 154 420 170Q420 193 412 210Q406 221 397 230T350 271L302 312Q298 312 272 294Q198 244 172 169Q163 142 163 118Z" />
<glyph unicode="9" glyph-name="nine" horiz-adv-x="511" d="M417 275L412 269Q406 263 395 253T370 234T337 218T297 211Q264 211 244 221Q206 236 183 285Q163 323 163 367Q163 395 174 439Q195 525 254 585Q327 656 401 665Q403 665 412 665T427 666Q553 659
553 491Q553 406 521 299Q476 136 358 37Q282 -22 213 -22Q138 -22 114 26Q107 41 107 55V64Q107 97 123 117T169 138Q186 138 196 128T207 101Q207 81 195 66T165 45L161 43Q161 38 176 30Q192 21 219 21Q233 21 245 24Q298 38 344 99Q381 148 411 251Q412 257
413 262T416 272L417 275ZM476 552Q476 626 417 626Q368 626 330 584Q312 563 300 533T270 433Q248 341 248 312Q248 281 264 265T310 248Q348 248 379 279Q441 336 473 513Q476 531 476 552Z" />
<glyph unicode=":" glyph-name="colon" horiz-adv-x="307" d="M233 310Q212 310 198 324T184 358Q184 387 206 409T258 431Q279 431 293 418T308 383Q308 354 285 332T233 310ZM156 0Q135 0 121 13T107 50Q107 68 122 91Q148 121 181 121Q202 121 216 108T231
72Q231 43 209 22T156 0Z" />
<glyph unicode=";" glyph-name="semicolon" horiz-adv-x="307" d="M233 310Q212 310 198 324T184 358Q184 387 206 409T258 431Q279 431 293 418T308 383Q308 354 285 332T233 310ZM107 47Q107 78 128 99T180 121Q226 121 226 61Q226 39 220 11Q200 -73 140 -145Q132
-155 115 -172T94 -192T88 -194Q84 -194 77 -185T70 -172Q70 -167 86 -152Q134 -104 161 -48Q180 -10 180 3Q179 4 178 4T174 2L167 1Q160 0 156 0Q134 0 121 12T107 47Z" />
<glyph unicode="=" glyph-name="equal" horiz-adv-x="767" d="M776 358T776 347T761 327H470Q180 327 176 329Q164 334 164 347Q164 359 176 365Q179 367 470 367H761Q776 358 776 347ZM116 142T116 153T131 173H422Q713 173 717 171Q728 166 728 153T717 135Q713
133 422 133H131Q116 142 116 153Z" />
<glyph unicode="?" glyph-name="question" horiz-adv-x="511" d="M235 431Q218 431 207 441T195 468Q195 472 199 488Q215 549 250 601T330 683Q359 701 380 707Q402 716 423 716Q425 716 429 716T436 715Q489 715 520 681T551 590Q551 566 545 542Q527 479 482
439Q471 428 400 375T318 310Q300 287 300 259Q300 236 315 236Q337 236 359 258Q374 271 384 300Q386 306 407 306H423Q429 300 429 297Q429 287 419 269Q403 238 373 218T308 198Q281 198 266 218T251 270Q251 330 293 374L374 436Q436 484 450 496T474 522Q501
561 501 598Q501 614 499 626Q483 678 426 678Q398 678 381 670T340 644Q294 606 264 540L259 528L264 526Q270 525 278 520T291 506Q292 503 294 492Q294 466 276 449T235 431ZM258 0Q237 0 223 13T209 51Q212 80 232 100T281 121Q304 121 318 108T333 72Q333
46 310 23T258 0Z" />
<glyph unicode="@" glyph-name="at" horiz-adv-x="767" d="M617 185Q616 171 618 167T628 162Q640 162 653 170Q686 191 712 278Q737 361 742 416Q743 423 743 442Q743 534 701 593T586 665Q570 668 553 668Q504 668 450 645Q350 601 274 491T198 250Q198 169
232 113T326 36Q355 26 394 26Q423 26 454 30Q547 41 640 80L650 84H675Q697 84 702 83T708 78Q711 69 700 64Q697 63 695 62Q588 11 468 -5Q429 -11 383 -11Q242 -11 181 115Q152 167 152 248Q152 281 153 291Q171 434 268 552Q303 590 324 608Q422 692 529 704Q531
704 538 704T551 705Q669 705 736 620Q789 549 789 454Q789 429 787 407Q782 356 762 291T720 192Q677 125 617 125Q566 125 546 164Q541 174 541 176T540 178L534 173Q527 168 515 160T488 144T454 131T417 125Q354 125 317 170T279 284Q279 394 356 481T523 569Q569
569 603 537Q623 515 632 490L637 480L657 479H665Q684 479 684 470Q684 465 650 333L617 199V185ZM568 511Q547 532 518 532Q509 532 506 531Q476 524 446 494T393 419Q356 345 356 271Q356 192 396 169Q406 162 423 162Q446 162 475 178Q509 198 552 255L575
348Q598 440 598 445Q598 461 589 480T568 511Z" />
<glyph unicode="A" glyph-name="A" horiz-adv-x="743" d="M182 2T159 2T109 1T71 0Q58 0 58 10Q58 13 61 26T66 40Q68 46 85 46Q148 50 178 93Q184 103 185 104Q185 106 353 407T524 709Q526 712 531 714Q534 716 551 716T574 710Q576 708 594 384Q613 54 617
52H618Q626 46 672 46H689Q696 39 696 36Q696 28 691 16T683 0H670Q639 2 557 2Q537 2 498 2T441 1Q425 1 425 9Q425 12 427 24Q428 27 429 31T430 37T432 41T436 44T441 45T450 46Q514 46 514 69Q514 74 511 136L506 209H292L260 152Q226 91 226 89Q222 82 222
74Q222 48 264 46Q276 46 279 40Q281 37 278 21Q275 7 272 4T259 0Q246 0 214 1ZM504 260Q503 263 496 407T486 553L466 520Q446 486 402 406L318 256Q318 255 411 255H504V260Z" />
<glyph unicode="B" glyph-name="B" horiz-adv-x="704" d="M219 664Q223 677 229 683H411L593 682L605 680Q710 661 730 575Q732 567 732 547Q732 519 726 503Q711 454 663 415T556 360L545 357L556 355Q608 346 643 310T678 221Q678 200 672 179Q654 119 602 72T482
8Q459 2 439 2T256 0H154Q59 0 58 6Q58 6 58 7Q57 8 57 11Q57 17 59 25Q64 42 69 45L74 46Q78 46 85 46T99 46Q134 47 145 50T162 62Q164 66 233 344T303 626Q303 627 302 629V631Q296 637 241 637H223Q217 642 216 645T219 664ZM629 549Q629 623 570 636Q564 637
490 637Q472 637 454 637T424 636T411 636Q400 635 396 627Q394 623 364 501T332 376Q332 374 408 374L485 375L495 377Q544 390 580 429T627 519Q629 528 629 549ZM504 336Q500 337 410 337Q323 337 322 336Q322 334 305 263T270 122T252 51Q252 47 337 46Q404
46 418 47T448 53Q501 70 537 121T574 235Q574 276 555 304T504 336Z" />
<glyph unicode="C" glyph-name="C" horiz-adv-x="716" d="M705 493Q705 568 676 613T583 659Q480 659 387 570Q338 519 305 445Q263 346 253 243Q252 235 252 213Q252 123 297 74Q347 24 421 24Q501 24 564 90T653 240Q656 253 659 255T677 257Q698 257 700 251Q701
246 694 222Q667 139 602 73T454 -15Q429 -21 395 -21Q368 -21 362 -20Q284 -9 232 40T159 166Q150 206 150 244Q150 265 152 289Q169 427 265 543Q300 584 328 606Q431 692 546 704H562Q596 704 604 703Q675 689 711 633Q714 627 716 627L753 665Q790 704 792
704Q793 705 798 705Q812 705 812 698Q812 694 780 561Q744 422 744 421Q742 416 739 415T721 413H705Q699 419 699 426Q701 432 701 444Q705 466 705 493Z" />
<glyph unicode="D" glyph-name="D" horiz-adv-x="755" d="M218 664Q222 677 228 683H403Q582 683 589 682Q672 674 723 608T775 440Q775 325 713 215Q653 111 562 54Q502 14 432 2Q423 1 243 0H148Q58 0 57 6Q57 6 57 7Q56 8 56 11Q56 17 58 25Q63 42 68 45L72
46Q77 46 84 46T98 46Q133 47 144 50T161 62Q163 66 232 344T302 626Q302 627 302 629L301 631Q295 637 240 637H222Q216 642 215 645T218 664ZM254 51Q254 46 316 46H348Q401 46 425 50T484 71Q585 121 633 255Q664 351 675 428Q679 464 679 477Q679 546 645 587T548
636Q547 636 536 636T510 636T480 637T451 637T425 636T413 636Q402 635 398 627Q396 623 325 339T254 51Z" />
<glyph unicode="E" glyph-name="E" horiz-adv-x="678" d="M61 0Q54 7 54 11Q54 27 61 41Q65 46 95 46Q131 47 142 50T159 62L194 200Q229 337 264 477T299 623T295 630Q286 633 248 634Q216 634 214 640Q212 643 215 659Q220 676 224 678Q226 680 481 680H736Q743
673 743 669T729 557T713 447Q711 440 690 440H675Q667 446 667 450Q667 455 670 470Q675 502 675 536Q675 584 658 604T592 632Q574 634 475 634Q421 634 416 633Q402 632 399 625Q397 622 367 501T336 377Q336 376 367 376H387Q450 376 477 389Q506 406 522 471Q525
483 528 489Q531 493 549 493Q566 493 570 486Q571 484 572 483L539 351Q507 221 504 217Q503 216 500 213H484Q468 213 465 216Q459 220 464 240Q472 272 472 290Q472 307 466 314T443 326T368 330H324Q255 64 255 51Q255 47 331 46Q421 46 452 50Q532 62 570
113Q600 149 639 245Q649 270 652 272Q656 274 670 274Q683 274 687 272Q693 266 693 262L648 148Q602 34 597 19Q592 6 588 2Q585 0 323 0H61Z" />
<glyph unicode="F" glyph-name="F" horiz-adv-x="653" d="M71 1Q54 1 54 11Q54 17 56 25Q61 42 66 45L70 46Q75 46 82 46T96 46Q131 47 142 50T159 62L194 200Q229 337 264 477T299 623T295 630Q286 633 247 634H219Q213 640 213 642T215 661Q218 673 225 680H724Q731
673 731 669T717 557T701 447Q699 440 678 440H663Q656 445 656 452Q656 454 656 456T657 464T658 474Q663 514 663 538Q663 591 642 610T566 633Q564 633 535 633T486 634Q471 634 455 634T427 634T415 633Q402 632 399 625Q396 620 364 492L332 363H380Q438 364
454 370Q477 377 490 396T514 458Q515 461 516 466T517 472T519 476T523 479T530 479T541 480H556Q563 475 563 470Q563 467 532 339T498 207Q496 200 475 200H460Q453 207 453 212Q464 245 464 278Q464 305 441 311Q425 317 369 317H321L289 190Q257 66 257 59T270
49Q303 46 337 46Q356 46 361 45T367 38Q367 27 360 6Q358 1 342 1Q323 1 278 1T199 2Q167 2 127 2T71 1Z" />
<glyph unicode="G" glyph-name="G" horiz-adv-x="774" d="M394 -22Q287 -22 219 52T150 244Q150 265 152 289Q169 427 265 543Q300 584 328 606Q431 692 546 704H562Q596 704 604 703Q675 689 711 633Q714 627 716 627L753 665Q790 704 792 704Q793 705 798 705Q812
705 812 698Q812 694 780 561Q744 422 744 421Q742 416 739 415T721 413H705Q699 419 699 426Q701 432 701 444Q705 466 705 493Q705 568 676 613T583 659Q480 659 387 570Q327 509 294 416Q267 340 257 267Q252 232 252 208Q252 125 298 75T425 24Q470 24 509
46T566 104Q571 116 583 162T595 214Q595 222 583 223Q561 227 517 227H495Q488 234 488 238Q488 254 495 268Q500 273 511 273Q532 273 580 272T649 271Q731 271 752 273H761Q767 267 767 265T765 246Q761 233 755 227H742Q699 227 693 213L639 4Q636 -1 633 -1Q629
-1 614 14Q596 32 583 53Q508 -22 394 -22Z" />
<glyph unicode="H" glyph-name="H" horiz-adv-x="743" d="M61 0Q54 7 54 11Q54 27 61 41Q65 46 95 46Q131 47 142 50T159 62Q161 66 230 344T300 626Q300 627 300 629L299 631Q293 637 238 637H220Q214 642 213 645T216 664Q220 677 226 683H239Q307 681 372 681H421Q478
681 486 683H496Q502 677 502 675T500 656Q496 643 490 637H472Q418 637 406 630Q400 627 396 612T367 500Q360 474 352 442T340 395L336 380Q336 378 466 378H596Q657 610 657 626Q657 627 656 629V631Q650 637 595 637H577Q571 642 570 645T573 664Q577 677 583
683H596Q664 681 729 681H778Q835 681 843 683H853Q860 676 860 672Q860 664 856 652T848 637H819Q783 636 772 634T756 623Q753 618 684 340T614 57Q614 54 615 52T619 49T625 48T633 47T643 46T654 46T666 46Q697 46 699 40Q701 37 698 21Q693 3 689 1Q686 0
677 0Q657 0 614 1T546 2Q453 2 428 0H418Q411 7 411 11Q411 27 418 41Q422 46 452 46Q488 47 499 50T516 62Q517 64 550 196T584 331Q584 332 454 332H324L291 197Q257 64 257 56Q257 54 258 52T262 49T268 48T277 47T286 47T297 46T309 46Q340 46 342 40Q344
37 341 21Q336 3 332 1Q329 0 320 0Q300 0 257 1T189 2Q96 2 71 0H61Z" />
<glyph unicode="I" glyph-name="I" horiz-adv-x="386" d="M300 625Q300 637 258 637H235Q212 637 210 643Q208 646 211 662Q216 679 220 682Q222 683 237 683Q278 681 369 681Q441 681 472 682Q499 683 502 681Q508 679 508 672Q508 670 505 658T500 643Q498 637
464 637Q422 636 410 632Q404 630 398 621Q396 618 327 340T257 58Q257 51 268 49Q282 46 322 46Q344 46 348 39Q349 35 346 22Q342 4 337 1Q336 1 334 1T329 0Q309 0 263 1T190 2Q95 2 67 0H56Q49 7 49 11T52 28T58 43L62 46H91Q129 47 141 50T159 62Q161 66 230
344T300 625Z" />
<glyph unicode="J" glyph-name="J" horiz-adv-x="525" d="M444 627Q444 637 361 637Q341 637 337 638T331 644Q329 647 332 662Q336 679 341 682Q343 683 360 683Q405 681 500 681Q524 681 558 681T607 682Q622 682 622 673Q622 670 619 660T616 647Q614 640 610
639T587 637Q547 636 541 624Q538 618 477 374T413 124Q394 70 346 30T234 -20Q227 -21 207 -21Q149 -21 114 7T78 86Q78 124 97 147T149 170Q169 170 182 159T196 129Q196 102 179 82T137 58L132 57Q129 54 145 38Q167 16 205 16Q220 16 225 18Q253 27 279 55T319
122Q322 129 383 371T444 627Z" />
<glyph unicode="K" glyph-name="K" horiz-adv-x="769" d="M70 1Q54 1 54 11Q54 17 56 25Q61 42 66 45L70 46Q75 46 82 46T96 46Q131 47 142 50T159 62Q161 66 230 344T300 626Q300 627 300 629L299 631Q293 637 238 637H220Q214 642 213 645T216 664Q220 677 226
683H239Q307 681 372 681H421Q479 681 487 683H496Q502 677 502 675T500 656Q496 642 491 637H462Q426 636 415 634T399 623Q396 618 358 467L320 314Q321 314 484 452Q608 557 634 580T665 611Q667 619 667 620Q667 634 645 637Q629 637 629 648Q629 650 632 662T637
677Q640 682 653 682Q669 682 705 681T764 680Q815 680 835 682Q850 683 854 682T859 672Q859 657 852 643Q849 637 839 637T823 636Q761 628 707 586Q701 580 697 578Q696 578 600 497L505 417L508 408Q543 311 574 227T618 106T632 69Q645 47 688 46H707Q712
39 712 38T710 19Q706 6 700 0H688Q659 2 587 2Q569 2 531 2T474 1Q461 1 459 7Q457 10 460 23Q464 39 466 42T480 46Q526 46 526 72Q526 75 476 213L427 350Q426 350 396 325T334 272T302 242Q302 241 299 230T290 194T279 150Q257 61 257 55Q257 52 259 51T268
48T278 47T293 46T309 46H337Q343 40 343 38T341 19Q337 6 331 0H316Q280 2 190 2Q167 2 128 2T70 1Z" />
<glyph unicode="L" glyph-name="L" horiz-adv-x="627" d="M61 0Q54 7 54 11Q54 27 61 41Q65 46 95 46Q131 47 142 50T159 62Q161 66 230 344T300 626Q300 627 300 629L299 631Q293 637 238 637H220Q214 642 213 645T216 664Q220 677 226 683H240Q275 681 371 681Q396
681 442 681T509 682Q526 682 526 675Q526 671 523 658T519 643Q517 637 478 637Q419 636 408 630Q400 626 396 617Q395 614 325 334T255 51Q255 47 319 47Q387 47 410 52Q478 71 512 115T578 250Q582 264 589 273H622Q628 264 628 262Q628 259 584 133T539 5Q537
1 511 1Q482 0 296 0H61Z" />
<glyph unicode="M" glyph-name="M" horiz-adv-x="897" d="M72 1Q58 1 58 11Q58 15 61 27T66 41Q68 46 87 46Q151 49 168 84Q172 91 238 356T304 626Q304 627 304 629L303 631Q297 637 242 637H224Q218 642 217 645T220 664Q224 677 230 683H326Q422 683 425 681Q428
678 429 676L480 127L502 163Q523 199 560 262T642 400Q801 668 805 676Q806 677 811 679T817 683H1003Q1010 676 1010 672Q1010 664 1005 652T997 637H979Q954 637 945 636Q912 633 906 623Q903 618 834 340T764 57Q764 51 768 50Q777 47 817 46H845Q850 39 850
38T848 19Q845 7 838 0H824Q789 2 701 2Q679 2 641 2T584 1Q572 1 570 7Q568 10 571 25Q576 42 581 45L586 46Q590 46 597 46T611 46Q646 47 657 50T674 62L813 616L634 313Q453 7 452 7Q446 0 428 0Q409 0 407 6Q405 10 379 304T351 604L285 348Q220 83 220 82Q220
50 279 46H295Q300 39 300 38T298 19Q295 7 288 0H275Q244 2 171 2Q152 2 120 2T72 1Z" />
<glyph unicode="N" glyph-name="N" horiz-adv-x="743" d="M61 0Q54 7 54 11T57 27Q61 41 64 43T83 46Q147 49 164 84Q167 90 235 362L303 634Q300 635 253 637H220Q214 643 214 645T216 664Q220 677 226 683H314Q386 683 397 683T410 677Q412 675 501 428L591
179Q591 178 592 180T595 189T600 209T610 246T624 303T645 385Q698 595 698 606Q698 637 633 637Q624 637 620 640Q616 645 620 664Q624 677 630 683H641Q682 680 736 680Q746 680 764 680T790 681Q800 681 814 681T835 682T845 683H853Q860 676 860 672Q860 664
856 652T848 637H832Q796 636 776 624Q756 614 750 598Q746 590 673 300Q656 230 638 156T610 44L600 7Q598 0 576 0H559Q552 7 500 151Q470 237 448 297L342 588Q341 588 279 336T216 81Q216 50 274 46Q293 46 295 40Q297 37 294 21Q293 19 292 16T291 11T290
7T289 4T287 2T284 1T280 1T275 0Q259 0 223 1T167 2Q91 2 70 0H61Z" />
<glyph unicode="O" glyph-name="O" horiz-adv-x="767" d="M540 704H552Q581 704 595 702Q683 689 735 619T788 444Q788 372 762 298Q725 187 639 100Q561 23 471 -6Q424 -22 377 -22Q284 -22 221 41Q149 113 149 237Q149 362 215 472T376 644Q455 696 540 704ZM688
487Q688 566 652 615T548 665Q532 665 510 660Q454 646 404 599T319 481Q271 382 255 254Q253 232 253 203Q253 128 282 80T363 21Q369 20 387 20Q409 20 417 22Q481 36 537 92Q608 163 648 280Q679 373 687 451Q688 459 688 487Z" />
<glyph unicode="P" glyph-name="P" horiz-adv-x="678" d="M62 0Q55 7 55 11Q55 27 62 41Q66 46 96 46Q132 47 143 50T160 62Q162 66 231 344T301 626Q301 627 300 629V631Q294 637 239 637H221Q215 642 214 645T217 664Q221 677 227 683H404Q581 682 592 680Q678
665 712 599Q729 567 729 531Q729 494 709 452Q684 401 635 362T524 308Q499 302 404 301H318L288 182Q258 63 258 55Q258 53 259 52T263 49T269 48T278 47T287 47T298 46T310 46Q341 46 343 40Q345 37 342 21Q337 3 333 1Q330 0 321 0Q301 0 258 1T190 2Q97 2
72 0H62ZM552 635Q546 636 481 637Q466 637 450 637T423 636T412 636Q402 635 397 627Q396 625 379 555T343 414L325 344Q325 342 390 342Q459 342 466 343Q530 349 567 386Q596 415 613 486Q625 531 626 555Q626 573 625 579Q614 623 552 635Z" />
<glyph unicode="Q" glyph-name="Q" horiz-adv-x="767" d="M468 -7L457 -10Q446 -14 424 -18T379 -22Q284 -22 221 41Q149 113 149 237Q149 362 215 472T376 644Q455 696 540 704H552Q581 704 595 702Q691 688 744 607Q762 579 769 556Q788 510 788 442Q788 421
787 414Q778 290 703 180Q627 64 517 13L506 8L507 2Q511 -40 521 -59T552 -84Q555 -85 565 -85Q608 -85 642 -51Q664 -28 672 0Q676 11 684 11Q693 11 695 2Q695 -5 685 -35Q639 -181 552 -193Q548 -194 538 -194Q463 -194 460 -107Q460 -78 465 -32Q468 -12 468
-7ZM315 46Q315 86 345 120T420 154Q451 154 473 135Q493 114 500 69L502 58L512 65Q599 131 647 265Q675 344 685 425Q689 463 689 481Q689 556 657 605T569 664Q563 665 551 665Q468 665 391 586Q299 490 261 308Q249 256 249 202Q249 105 295 58Q310 41 314
41Q315 41 315 46ZM472 49Q472 84 459 101T415 118Q390 118 372 98T353 51Q353 18 387 18Q420 18 472 40V49Z" />
<glyph unicode="R" glyph-name="R" horiz-adv-x="729" d="M62 0Q55 7 55 11Q55 27 62 41Q66 46 96 46Q132 47 143 50T160 62Q162 66 231 344T301 626Q301 627 300 629V631Q294 637 239 637H221Q215 642 214 645T217 664Q221 677 227 683H386Q554 682 569 679Q571
678 580 676Q643 662 680 623T717 533Q717 500 701 468Q658 380 528 337L538 330Q594 294 594 228Q594 216 588 142T581 65Q581 39 588 28T616 16Q638 16 652 37Q668 57 677 94Q679 105 701 105T723 95Q723 87 719 78Q705 38 681 12T627 -21Q622 -22 610 -22Q547
-22 509 5T471 88Q471 108 486 168Q502 231 502 244Q502 303 452 320Q445 322 382 323H320L288 192Q255 63 255 55Q255 53 256 52T260 49T266 48T275 47T284 47T295 46T307 46Q338 46 340 40Q342 37 339 21Q335 3 330 1Q326 0 320 0Q301 0 258 1T190 2Q99 2 73
0H62ZM612 558Q612 594 592 610T532 635Q526 636 470 637Q458 637 445 637T422 636T412 636Q402 635 397 627L390 598Q383 570 373 532T354 455T337 389T330 361Q356 360 384 360Q444 360 470 363T527 382Q557 399 574 424T604 498Q612 533 612 558Z" />
<glyph unicode="S" glyph-name="S" horiz-adv-x="562" d="M169 147Q172 87 207 56T306 25Q324 25 331 27Q372 37 407 77T453 169Q455 180 455 203Q455 264 414 285Q409 288 347 305Q274 327 255 339Q229 357 214 389T198 460T215 543Q240 606 293 651T406 703Q422
705 432 705Q516 705 557 644L583 673Q590 680 596 687T607 700L611 704Q612 704 615 704T620 705Q633 705 633 698T605 577T573 459L570 456H554Q546 456 543 456T536 457T532 460T531 466Q531 473 532 478Q536 503 536 532Q536 662 427 662Q371 662 326 613T281
503Q281 476 294 454T328 424Q344 419 396 404T463 383Q518 354 533 292Q538 275 538 258V244Q538 210 532 187Q515 120 471 68T369 -9Q336 -22 300 -22Q199 -22 152 41L143 31Q141 29 137 24T126 12T116 1Q97 -20 95 -21L92 -22Q88 -22 86 -22Q74 -22 74 -14Q74
-11 132 221Q134 227 155 227H171Q177 221 177 218Q177 214 174 198Q169 174 169 147Z" />
<glyph unicode="T" glyph-name="T" horiz-adv-x="716" d="M178 437Q173 442 171 446Q171 451 238 654Q243 670 250 677H681Q804 677 805 672V671L806 670Q806 668 806 667Q806 661 788 553T768 444Q768 441 764 439Q762 437 746 437T727 440Q725 441 723 445Q723
454 727 474Q736 533 736 562Q736 592 727 604T693 624Q675 630 622 630Q577 630 572 629Q567 627 564 623Q562 621 492 342T422 59Q422 57 425 54Q432 47 502 46H542Q547 39 547 38T545 19Q541 6 535 0H517Q475 2 357 2Q327 2 275 2T198 1Q180 1 180 8Q180 12
183 25T187 40Q188 44 194 45T232 46Q287 47 300 49T326 65L395 344Q465 619 465 626Q465 629 462 629Q456 631 411 631Q313 631 278 587Q256 561 224 467Q214 441 210 437H178Z" />
<glyph unicode="U" glyph-name="U" horiz-adv-x="743" d="M378 -22Q297 -22 246 32T194 167Q194 191 198 211Q199 218 249 420T300 626Q300 627 300 629L299 631Q293 637 238 637H220Q214 642 213 645T216 664Q220 677 226 683H239Q307 681 372 681H421Q478 681
486 683H496Q502 677 502 675T500 656Q496 643 490 637H472Q418 637 406 630Q400 627 394 603T344 410Q331 360 318 306T297 221T289 188Q284 155 284 135Q284 83 311 54T387 24Q457 24 519 76Q577 127 604 211Q605 215 653 404T701 607Q701 637 636 637Q627 637
623 640Q619 645 623 664Q627 677 633 683H644Q702 681 753 681Q835 681 845 683H853Q860 676 860 672Q860 664 856 652T848 637H832Q796 636 776 624Q756 614 750 598Q745 588 698 400T648 204Q627 140 584 86Q552 51 536 39Q483 -3 431 -15Q407 -22 378 -22Z"
/>
<glyph unicode="V" glyph-name="V" horiz-adv-x="743" d="M384 615Q385 612 406 371T427 126Q427 125 495 240T632 473T704 596Q707 604 707 610Q707 633 667 637Q656 637 653 641Q649 645 653 664Q657 677 663 683H675Q704 681 772 681Q823 681 842 682Q860 683
862 681Q868 679 868 672Q868 670 865 658T860 643Q857 637 848 637Q784 637 749 587L394 -15Q387 -22 366 -22Q346 -22 342 -16Q341 -13 313 303Q285 622 285 623Q283 637 243 637H229Q209 637 207 643Q205 647 205 648Q205 650 208 662Q209 665 210 669T211 675T213
678T215 681T218 682T223 683T230 683Q276 680 329 680Q440 680 456 683H466Q472 677 472 675T470 656Q466 643 460 637H448Q384 637 384 615Z" />
<glyph unicode="W" glyph-name="W" horiz-adv-x="999" d="M234 637Q214 637 210 638T205 648Q205 654 207 662Q211 679 216 682Q218 683 231 683Q265 681 340 681Q402 681 432 682Q458 683 461 681Q467 679 467 672Q467 670 464 658T459 643Q457 637 434 637Q388
636 377 622Q376 621 376 613Q376 589 385 377T394 149L511 361Q542 419 596 519L613 551L612 585Q610 621 610 624Q608 637 574 637H559Q544 637 541 640Q535 644 540 664Q544 677 550 683H561Q600 680 656 680Q766 680 783 683H792Q801 674 796 658Q793 643 789
639Q786 637 774 637Q719 637 708 620L717 385Q726 150 727 149Q727 148 752 193T812 303T882 433T942 546T969 596Q970 600 970 606Q970 621 958 627T920 637Q908 637 905 641Q901 645 905 664Q909 677 915 683H928Q960 681 1031 681Q1083 681 1101 682Q1116 683
1120 682T1124 672Q1124 657 1117 643Q1114 637 1104 637Q1046 637 1017 592Q1013 584 1009 580L687 -16Q681 -22 660 -22Q643 -22 637 -16Q635 -14 627 223Q617 441 617 464L602 441Q578 397 487 228Q456 171 423 110T372 17T355 -15Q348 -22 328 -22Q312 -22
308 -20T303 -9Q303 -5 291 310T277 627Q273 636 234 637Z" />
<glyph unicode="X" glyph-name="X" horiz-adv-x="743" d="M64 0Q50 0 50 11Q50 15 53 27Q57 41 60 43T78 46Q154 49 205 100Q207 103 312 225L411 341L407 353Q404 360 381 428T336 560T310 627Q301 636 255 637H229Q223 643 223 645T225 664Q229 677 235 683H246Q288
680 346 680Q357 680 378 680T409 681Q421 681 438 681T465 682T477 683H487Q496 674 491 656Q488 644 485 641T471 637Q461 635 454 635Q419 626 421 619Q421 617 453 524T486 430T554 509T624 593Q631 604 631 611Q631 622 621 629T598 637Q587 637 584 644Q582
647 585 660Q586 663 587 667T588 673T589 677T591 680T593 682T597 683T602 683Q617 683 653 682T715 680Q768 680 796 682Q814 683 818 682T824 676Q825 675 825 672Q825 668 822 656T817 642Q814 637 797 637Q739 634 700 608Q684 597 659 569T505 389L501 384L557
222Q612 61 616 57Q625 47 671 46Q700 46 704 39Q705 36 702 23Q697 3 693 1Q690 0 662 1Q645 2 569 2Q542 2 503 2T449 1Q436 1 434 6Q432 9 435 25Q439 40 442 42T457 46Q460 46 467 47T476 49Q506 58 506 64Q506 65 467 179T426 295L382 244Q339 194 295 142T249
86Q245 79 245 72Q245 48 279 46Q293 46 293 36Q293 31 290 19Q286 6 280 0H268Q206 2 151 2H113Q71 2 64 0Z" />
<glyph unicode="Y" glyph-name="Y" horiz-adv-x="743" d="M754 680T776 680T825 681T862 683Q875 683 875 673Q875 670 872 657T867 643Q865 637 848 637Q788 634 749 597Q733 581 608 424L487 273L461 170Q454 145 448 118T438 76T434 60Q434 51 443 49Q455 46
496 46H514Q520 41 521 38T518 19Q514 6 508 0H495Q427 2 364 2H315Q258 2 250 0H241Q234 7 234 11Q234 27 241 41Q245 46 275 46Q312 47 323 50T340 64Q340 65 344 79T355 120T368 171L393 274L341 448Q288 622 286 626Q278 636 232 637Q198 637 198 647Q198 649
201 661Q205 678 207 680T223 683Q269 680 325 680Q438 680 455 683H465Q472 676 472 672Q472 656 465 642Q460 637 441 637Q415 635 405 631Q395 629 395 623Q395 621 438 478T482 334T583 460T688 591Q689 593 694 602T700 617Q700 637 668 637Q655 637 655 647Q655
654 658 664Q660 672 660 673T663 678T668 682T677 683Q690 683 722 682Z" />
<glyph unicode="Z" glyph-name="Z" horiz-adv-x="613" d="M203 452Q203 455 236 565T270 677Q270 681 274 681Q276 683 488 683H699Q704 678 704 675Q704 663 697 649Q697 647 449 348L201 50L266 49Q362 49 395 57Q461 73 495 116Q525 155 556 251Q563 274 565
278T579 282H585Q601 282 603 280Q609 278 609 271Q609 267 569 136T524 2Q521 0 303 0T83 2Q80 5 80 8Q80 14 83 25T89 39Q90 41 204 178T446 470T575 626L584 637H512Q435 636 428 635Q356 625 316 583Q278 545 254 467Q247 446 244 444Q240 442 226 442Q203
442 203 452Z" />
<glyph unicode="[" glyph-name="bracketleft" horiz-adv-x="307" d="M349 706Q349 704 235 249T120 -208Q120 -210 159 -210H190Q202 -210 204 -214T204 -232Q200 -244 194 -250H137Q80 -250 77 -248Q73 -244 73 -242Q73 -232 194 255T321 747L324 750H381Q438
750 441 748Q446 743 446 739Q446 722 434 710H350L349 706Z" />
<glyph unicode="]" glyph-name="bracketright" horiz-adv-x="307" d="M83 -206Q83 -204 197 251T312 708Q312 710 273 710H242Q230 710 228 714T228 732Q232 744 238 750H295Q352 750 355 748Q359 744 359 742Q359 732 238 245T111 -247L108 -250H51Q-6 -250 -9
-248Q-14 -243 -14 -239Q-14 -222 -2 -210H82L83 -206Z" />
<glyph unicode="^" glyph-name="asciicircum" horiz-adv-x="511" d="M528 555Q528 550 515 539T496 527Q492 527 488 531Q487 532 449 580L414 625L353 578Q339 567 323 555T298 536L290 529Q284 525 278 529Q276 530 269 540T260 553Q260 559 263 562Q265 564
342 628T421 693T425 694Q430 694 433 691Q435 689 478 629T526 561Q528 557 528 555Z" />
<glyph unicode="_" glyph-name="underscore" horiz-adv-x="511" d="M98 -62Q91 -57 91 -51T94 -37T100 -26Q102 -25 324 -25H442Q551 -25 552 -30Q552 -31 552 -32Q554 -36 554 -36Q554 -50 548 -56Q546 -60 538 -61Q520 -62 319 -62H98Z" />
<glyph unicode="a" glyph-name="a" horiz-adv-x="511" d="M461 422Q473 422 483 414T494 395T459 244T420 88Q418 80 418 58Q418 29 431 27Q444 23 456 36Q475 56 494 131Q500 151 504 152Q507 153 516 153H521Q538 153 540 151Q543 148 543 144Q543 143 541 129Q517
43 486 12Q463 -11 434 -11Q386 -11 361 22Q347 39 347 48H346Q345 47 342 45T337 40Q282 -11 228 -11Q210 -11 192 -5Q151 9 126 49T101 146Q101 176 111 219Q128 286 169 341T265 423Q305 442 333 442Q370 442 394 424Q403 417 419 396Q422 406 434 414T461 422ZM388
361Q372 405 333 405Q302 405 271 372Q249 349 235 316T203 215Q184 135 184 108V100Q184 53 207 35Q218 26 235 26Q254 26 274 38Q303 55 330 91Q343 109 346 118T372 217Q397 317 397 323Q397 336 388 361Z" />
<glyph unicode="b" glyph-name="b" horiz-adv-x="460" d="M158 683Q159 683 230 688L300 694Q312 694 312 685T279 544Q243 405 243 403L256 412Q268 422 292 432T338 442Q397 442 432 397T467 284Q467 200 418 118Q381 56 324 19Q275 -11 229 -11Q177 -11 143
31T108 142Q108 168 110 184L216 616Q216 628 210 632Q199 636 170 637H149Q143 643 143 645T145 664Q150 683 158 683ZM178 109Q178 27 234 27Q247 27 254 29Q295 44 323 94Q343 129 366 220Q384 293 384 332Q384 354 382 361Q371 405 332 405Q323 405 308 400Q267
384 228 326L222 317L205 250Q178 142 178 109Z" />
<glyph unicode="c" glyph-name="c" horiz-adv-x="460" d="M414 383Q390 402 365 405Q344 405 328 399Q261 377 227 294Q203 236 188 146Q187 138 187 119Q187 46 238 29Q245 27 263 27Q299 27 330 40Q385 60 426 109Q436 121 440 121T454 111T466 97Q469 92 455
77Q401 14 313 -5Q288 -10 257 -10Q233 -10 224 -8Q168 3 136 46T103 155Q103 182 108 206Q123 281 172 341T290 427Q324 441 348 441H358Q449 441 467 376Q469 371 469 356Q469 327 453 308T410 289Q393 289 382 298T370 325Q370 362 404 378L414 383Z" />
<glyph unicode="d" glyph-name="d" horiz-adv-x="511" d="M413 683Q414 683 484 688L555 694Q567 694 567 686Q567 676 495 389L419 86Q418 80 418 61Q418 30 431 27Q444 23 456 36Q475 56 494 131Q500 151 504 152Q507 153 516 153H521Q538 153 540 151Q545 147
541 129Q517 43 486 12Q463 -11 434 -11Q386 -11 361 22Q347 39 347 48H346Q345 47 342 45T337 40Q282 -11 228 -11Q210 -11 192 -5Q151 9 126 49T101 146Q101 176 111 219Q131 301 187 363T310 439Q318 441 337 441Q354 441 368 437T390 427T404 414T413 404T417
400L471 616Q471 628 465 632Q454 636 425 637H404Q398 643 398 645T400 664Q405 683 413 683ZM388 361Q372 405 333 405Q302 405 271 372Q249 349 235 316T203 215Q184 135 184 108V100Q184 71 191 56Q204 26 235 26Q248 26 261 32Q281 40 307 66T344 112Q347
117 372 217T397 323Q397 336 388 361Z" />
<glyph unicode="e" glyph-name="e" horiz-adv-x="460" d="M205 223Q189 159 189 125Q189 46 242 28Q246 27 261 27Q282 27 291 29Q373 43 426 109Q436 121 440 121T454 111T466 97Q469 92 455 77Q394 6 292 -9Q283 -10 258 -10Q196 -10 157 29Q107 79 107 166Q107
203 115 235Q129 299 174 350T283 426Q315 439 345 441Q346 441 352 441T361 442H364Q403 442 430 424T467 375Q470 368 470 355Q470 324 450 293Q402 223 218 223H205ZM416 354Q416 376 400 390T360 405Q342 405 324 399Q257 376 227 298Q215 271 215 261Q215
260 240 260Q332 263 369 282Q416 305 416 354Z" />
<glyph unicode="f" glyph-name="f" horiz-adv-x="307" d="M351 608Q351 638 389 661Q370 668 365 668Q349 668 336 645Q332 636 318 571L291 432Q291 431 343 431H394Q400 426 401 423T398 404Q394 390 389 386L335 385H282L255 246Q219 60 205 4Q181 -94 149
-143Q118 -190 79 -202Q74 -204 58 -204Q23 -204 0 -185T-23 -134Q-23 -107 -7 -88T37 -69Q54 -69 65 -79T76 -108Q76 -115 75 -119Q67 -145 39 -161Q39 -163 48 -165T62 -168Q76 -168 91 -145Q98 -128 105 -95L125 -1Q145 90 146 98Q149 109 163 180T189 317T202
384T158 385H114Q108 390 107 393T110 412Q113 424 120 431H165Q211 431 211 433L212 438Q214 444 216 455T220 475Q243 599 266 639Q295 691 350 703Q360 705 367 705Q402 705 426 686T450 635Q450 606 434 588T390 569Q373 569 362 579T351 608Z" />
<glyph unicode="g" glyph-name="g" horiz-adv-x="460" d="M146 -115Q146 -127 141 -138T130 -155T124 -162T125 -163Q133 -166 170 -168Q200 -168 217 -162Q242 -153 264 -130T297 -78Q298 -74 305 -46T320 10T327 38H326Q325 37 324 36T320 34Q279 1 231 1Q213
1 202 4Q155 16 129 57T103 163Q106 248 152 319T263 423Q295 438 320 441Q322 441 329 441T341 442Q388 437 419 398Q420 399 420 400Q424 408 438 415T464 422Q475 421 484 414T494 396T465 268T407 38T377 -77Q373 -92 359 -115Q333 -155 285 -180T179 -205Q46
-205 46 -139Q46 -114 64 -97T106 -79Q122 -79 134 -89T146 -115ZM185 115Q185 38 238 38Q250 38 259 41Q300 54 337 107Q347 121 348 122Q349 125 373 223T398 324Q398 333 391 354Q375 405 332 405Q330 405 326 405T320 404Q291 396 263 365Q231 326 204 219Q186
150 185 115Z" />
<glyph unicode="h" glyph-name="h" horiz-adv-x="511" d="M158 683Q159 683 230 688L300 694Q312 694 312 685Q312 674 277 539Q241 395 241 393L249 399Q298 442 362 442Q414 442 444 415T475 338Q475 310 463 264Q447 205 418 124Q401 78 399 61Q397 49 397
45Q397 27 414 27Q432 27 451 43Q477 71 496 136Q499 148 501 150T515 153H521Q538 153 540 151Q544 147 544 143T541 130Q507 16 432 -8Q424 -10 408 -10Q370 -10 348 12T326 72Q326 93 342 135Q387 261 395 315Q397 324 397 349Q397 367 396 372Q385 405 357
405Q349 405 344 404Q277 395 228 310Q217 290 212 274T180 152Q153 42 148 26T135 3Q121 -11 102 -11Q89 -11 80 -3T69 19L216 616Q216 628 210 632Q199 636 170 637H149Q143 643 143 645T145 664Q150 683 158 683Z" />
<glyph unicode="i" glyph-name="i" horiz-adv-x="307" d="M234 599Q234 620 251 638T292 656Q309 656 320 645T332 617Q332 594 314 577T273 560Q256 560 245 571T234 599ZM214 441Q250 441 271 418T293 357Q291 338 290 333Q289 330 245 208T199 82Q193 62 193
46Q193 26 209 26Q228 26 247 43Q273 71 292 136Q295 148 297 150T311 153H317Q334 153 336 151Q340 147 340 143T337 130Q303 16 228 -8Q220 -10 204 -10Q166 -10 144 13T122 71Q122 84 125 98Q126 101 170 223T215 347Q221 368 221 384Q221 396 218 400T203 405Q184
404 166 386Q141 358 124 298Q120 282 116 279Q115 278 97 278H81Q75 284 75 287Q75 291 79 302Q103 387 155 424Q176 438 196 441H214Z" />
<glyph unicode="j" glyph-name="j" horiz-adv-x="307" d="M266 600Q266 620 282 638T322 656Q341 656 352 645T364 616Q364 593 345 577T305 560Q287 560 277 571T266 600ZM81 278Q75 284 75 287Q75 294 91 326Q141 426 218 440Q228 442 236 442Q298 442 320 389Q327
372 327 358V332L278 134Q267 92 253 37T233 -45T225 -73Q209 -121 167 -156T75 -202Q67 -204 46 -204Q11 -204 -10 -188T-32 -140Q-32 -114 -14 -97T27 -79Q44 -79 55 -88T67 -114Q67 -147 38 -166Q44 -168 49 -168Q76 -168 99 -147Q130 -120 146 -71Q150 -59
199 138T250 346Q253 359 253 373Q253 405 230 405Q192 405 159 359Q139 333 124 294Q118 280 116 279Q114 278 105 278H98H81Z" />
<glyph unicode="k" glyph-name="k" horiz-adv-x="460" d="M158 683Q159 683 230 688L300 694Q312 694 312 686Q312 679 262 478L211 273Q214 270 239 292Q256 305 296 349Q345 402 371 419Q406 442 439 442Q467 442 482 423T498 373Q498 339 482 318T437 296Q421
296 410 305T398 331Q398 354 411 370T445 391Q454 392 448 399Q443 407 421 404Q399 400 377 385Q352 368 307 319Q278 286 250 261Q243 257 243 254Q248 252 254 251Q366 225 366 146Q366 131 362 116Q355 85 355 62V54Q355 26 375 26Q383 26 387 28Q398 31 407
40T423 67T433 96T443 130Q449 151 454 152Q457 153 465 153H470Q472 153 474 153Q481 153 483 153T488 152T491 149T492 144Q492 127 472 78Q443 13 403 -5Q388 -11 372 -11Q331 -11 306 17T280 88Q280 97 283 117T287 146Q287 172 265 190T221 215T198 220Q197
220 173 121Q152 37 148 24T135 3Q121 -11 102 -11Q89 -11 80 -3T69 19L216 616Q216 628 210 632Q199 636 170 637H149Q143 643 143 645T145 664Q150 683 158 683Z" />
<glyph unicode="l" glyph-name="l" horiz-adv-x="256" d="M158 683Q159 683 230 688L300 694Q312 694 312 686Q312 676 240 389L164 86Q162 74 162 61Q162 30 176 27Q189 23 201 36Q220 56 239 131Q245 151 249 152Q252 153 261 153H266Q283 153 285 151Q290 147
286 129Q262 43 231 12Q208 -11 179 -11Q138 -11 113 14T87 81Q87 96 88 102L216 616Q216 628 210 632Q199 636 170 637H149Q143 643 143 645T145 664Q150 683 158 683Z" />
<glyph unicode="m" glyph-name="m" horiz-adv-x="818" d="M81 278Q75 284 75 289Q77 299 89 338Q118 428 170 441Q175 442 189 442Q226 439 251 417Q266 401 271 384L275 374L286 386Q342 442 414 442T514 392Q515 391 524 366Q568 425 641 440Q657 442 667 442Q773
442 782 344V338Q782 310 770 264Q754 203 724 123Q707 75 705 55Q705 53 705 50T704 45Q704 26 720 26Q773 26 802 136Q805 148 807 150T822 153H828Q845 153 847 151Q851 147 851 143T848 130Q824 48 775 10Q748 -10 715 -10Q678 -10 655 13T632 71Q632 81 633
87T635 96T640 111T649 135Q694 264 702 315Q704 324 704 349Q704 367 703 372Q692 405 664 405Q656 405 651 404Q584 395 534 309Q523 290 518 274T487 151Q455 24 452 16Q438 -11 408 -11T376 18Q376 26 411 167T447 314Q449 325 449 346Q449 372 444 384Q430
405 408 405Q381 405 357 392Q312 370 276 305Q266 289 262 273T231 151Q199 24 196 16Q182 -11 152 -11T120 18Q120 26 159 182T200 347Q202 361 202 372Q202 405 181 405Q168 405 159 391Q142 370 121 287Q120 285 119 283Q117 278 104 278Q100 278 98 278H81Z"
/>
<glyph unicode="n" glyph-name="n" horiz-adv-x="562" d="M81 278Q75 284 75 287Q75 298 91 343Q108 394 131 417Q154 442 184 442Q247 442 270 389Q272 383 274 378V374L287 387Q342 442 414 442Q465 442 495 415T526 338Q526 310 514 264Q498 205 469 124Q452
78 450 61Q448 49 448 45Q448 27 465 27Q483 27 502 43Q528 71 547 136Q550 148 552 150T566 153H572Q589 153 591 151Q595 147 595 143T592 130Q558 16 483 -8Q475 -10 459 -10Q421 -10 399 12T377 72Q377 93 393 135Q438 261 446 315Q448 324 448 349Q448 367
447 372Q436 405 408 405Q400 405 395 404Q328 395 278 309Q267 290 262 274T231 151Q199 24 196 16Q182 -11 152 -11T120 18Q120 23 159 181Q199 343 199 346Q202 360 202 372Q202 405 180 405H177Q162 402 148 374Q137 350 121 287Q120 285 119 283Q117 278 104
278Q100 278 98 278H81Z" />
<glyph unicode="o" glyph-name="o" horiz-adv-x="511" d="M217 385Q289 442 366 442Q434 442 475 396T517 275Q517 183 452 98T293 -7Q277 -11 255 -11Q184 -11 144 35T103 155Q103 182 108 206Q130 314 217 385ZM187 119Q187 77 205 52T260 26Q290 26 321 47Q377
83 404 172Q432 265 432 315Q432 361 408 385Q388 405 358 405Q355 405 350 405T343 404Q308 397 277 368T227 294Q203 236 188 146Q187 138 187 119Z" />
<glyph unicode="p" glyph-name="p" horiz-adv-x="511" d="M81 278Q75 284 75 287Q75 298 91 343Q108 394 131 417Q155 442 189 442Q220 440 242 424T272 382L280 390Q335 442 389 442Q448 442 483 397T518 284Q518 200 469 118Q432 56 375 19Q321 -10 282 -10Q264
-10 256 -8Q226 2 204 28L202 32L181 -51Q160 -135 160 -139Q160 -147 194 -148Q201 -148 205 -148H230Q235 -155 235 -157T233 -175Q230 -187 227 -190T214 -194Q198 -194 162 -193T108 -192Q40 -192 21 -194H13Q6 -187 6 -183T9 -167Q13 -153 16 -151T39 -148Q73
-147 78 -136Q82 -128 139 104Q199 337 199 347Q202 362 202 372Q202 405 181 405Q170 405 159 391Q142 370 121 287Q120 285 119 283Q117 278 104 278Q100 278 98 278H81ZM221 111Q233 26 286 26Q314 26 341 51T385 116Q397 144 417 220Q435 293 435 332Q435 354
433 361Q422 405 383 405Q374 405 359 400Q318 384 279 326L273 317L221 111Z" />
<glyph unicode="q" glyph-name="q" horiz-adv-x="460" d="M228 -11Q171 -11 136 35T101 147Q101 172 105 193Q118 267 162 330T265 423Q305 442 333 442Q388 442 420 394L429 403Q439 413 448 419Q483 442 494 442Q504 442 504 434Q504 425 435 149Q364 -135 364
-139Q364 -147 398 -148Q405 -148 409 -148H434Q439 -155 439 -157T437 -175Q433 -191 429 -193Q425 -194 418 -194Q404 -194 370 -193T309 -192Q284 -192 251 -192T204 -193Q194 -193 191 -188Q189 -185 192 -169Q196 -153 199 -151T219 -148Q266 -148 277 -141Q283
-137 305 -51L325 29L316 22Q272 -11 228 -11ZM388 361Q372 405 333 405Q302 405 271 372Q249 349 235 316T203 215Q184 135 184 108V100Q184 71 191 56Q204 26 235 26Q248 26 261 32Q281 40 307 66T344 112Q347 117 372 217T397 323Q397 336 388 361Z" />
<glyph unicode="r" glyph-name="r" horiz-adv-x="422" d="M81 278Q75 284 75 289Q77 301 89 339Q118 428 170 441Q174 442 183 442Q252 442 271 384L283 396Q310 425 343 435Q361 442 384 442Q425 442 454 421T484 362Q484 335 467 316T424 296Q408 296 397 305T385
331Q385 371 417 385Q424 388 424 390Q409 405 378 405Q369 405 365 404Q317 395 276 315L268 300L234 161Q200 25 196 16Q182 -11 152 -11T120 18Q120 23 159 181Q199 343 199 346Q202 360 202 372Q202 405 182 405Q174 405 169 401Q146 386 121 287Q120 285 119
283Q117 278 104 278Q100 278 98 278H81Z" />
<glyph unicode="s" glyph-name="s" horiz-adv-x="409" d="M331 326Q331 357 366 376Q366 381 353 391Q337 404 308 404Q258 404 235 361Q226 342 226 325Q226 303 240 291Q248 283 282 276Q319 268 331 263T361 242Q395 208 395 163Q395 125 376 89T333 32Q279
-11 207 -11Q166 -11 131 4Q98 20 84 49Q76 63 76 86Q76 117 91 136T135 156Q152 156 163 146T175 118Q175 82 142 66L132 62Q127 62 136 53Q160 26 210 26Q243 26 267 38Q290 50 305 74T321 123Q321 145 307 160Q292 175 250 184Q213 193 204 198Q176 211 162
241Q153 258 153 285Q153 333 184 380Q229 442 311 442Q356 442 387 420T418 356Q418 329 403 312T365 294Q336 294 331 326Z" />
<glyph unicode="t" glyph-name="t" horiz-adv-x="332" d="M94 385Q87 392 87 395Q87 399 90 411T95 425Q97 430 103 430T149 431H196L215 511Q231 577 235 590T248 612Q262 626 281 626Q313 626 315 597Q315 591 296 513T275 433Q275 431 320 431H366Q373 424
373 420Q373 398 360 385H263L189 86Q188 80 188 61Q188 29 201 27Q213 23 229 30Q253 37 276 66T316 138Q321 149 324 151T342 153Q359 153 361 151Q367 146 360 130Q349 105 335 80Q304 31 263 6Q232 -11 202 -11Q162 -11 137 15T111 81Q111 93 129 168T166 314L184
383Q184 385 139 385H94Z" />
<glyph unicode="u" glyph-name="u" horiz-adv-x="537" d="M81 278Q75 284 75 287Q75 291 79 302Q98 371 139 410Q170 441 205 441Q247 441 270 420T293 357Q292 335 275 290Q239 192 231 147Q225 119 225 95Q225 26 274 26Q319 26 352 70Q369 93 369 99Q369 102
406 249T446 404Q460 431 490 431T522 402Q522 394 485 245T446 89Q443 74 443 56Q443 27 461 26Q472 26 479 33Q494 47 507 86Q524 130 524 146Q524 147 530 153H547Q564 153 566 151Q570 149 570 144Q570 141 565 124Q546 43 512 12Q492 -11 454 -11Q415 -8 392
16Q379 31 376 41Q375 41 364 30Q321 -10 269 -10Q211 -10 180 21T148 108Q148 144 161 189Q177 242 198 300Q221 361 221 383T206 405Q185 405 166 386Q141 358 124 298Q120 282 116 279Q115 278 97 278H81Z" />
<glyph unicode="v" glyph-name="v" horiz-adv-x="460" d="M387 386Q387 406 404 424T445 443T480 422T492 371Q492 333 473 253Q443 136 400 68Q375 32 349 12Q318 -10 279 -10Q216 -10 183 22T149 114Q149 147 158 181T199 300Q221 363 221 384T206 405Q185 405
166 386Q141 358 124 298Q120 282 116 279Q115 278 97 278H81Q75 284 75 287Q75 291 79 302Q110 414 187 439Q194 441 210 441H218Q252 441 272 418T293 357Q292 335 275 290Q245 209 235 168Q226 130 226 102Q226 26 285 26Q293 26 305 28Q347 40 373 96T422 237Q429
265 429 290Q428 328 400 359Q387 372 387 386Z" />
<glyph unicode="w" glyph-name="w" horiz-adv-x="664" d="M382 43Q345 -10 286 -10Q220 -10 185 21T150 115Q150 166 199 300Q221 363 221 384T206 405Q185 405 166 386Q141 358 124 298Q120 282 116 279Q115 278 97 278H81Q75 284 75 287Q75 291 79 302Q110 414
187 439Q194 441 210 441H218Q252 441 272 418T293 357Q292 335 275 290Q238 189 230 142Q227 124 227 108Q227 26 292 26Q301 26 307 28Q338 39 361 93L366 103V119Q366 122 367 133T369 150Q372 167 401 282T433 404Q446 431 477 431Q507 431 509 402Q509 396
500 358T474 254T446 140Q444 126 444 104V92Q444 63 460 45T502 26H505Q535 29 558 58Q591 101 623 226Q633 265 633 290Q632 328 604 359Q591 372 591 386Q591 406 608 424T649 443T684 422T696 371Q696 334 675 247Q647 138 621 85Q586 12 533 -5Q515 -11 493
-11Q445 -11 411 12Q392 26 386 38Q383 43 382 43Z" />
<glyph unicode="x" glyph-name="x" horiz-adv-x="464" d="M333 -11Q274 -11 237 45Q198 -11 146 -11Q109 -11 84 10T58 67Q58 96 74 115T119 135Q136 135 147 125T158 96Q158 89 157 85Q149 57 125 45L115 41Q124 26 151 26Q191 26 214 93Q217 102 244 210T273
330Q275 339 275 356Q275 405 233 405Q194 405 160 364Q134 334 121 289Q119 280 117 279T98 278H81Q73 286 78 300Q87 332 108 363T153 411Q194 442 235 442Q305 442 333 386Q340 396 351 408Q387 442 427 442Q463 442 488 421T513 364Q513 335 497 316T453 296Q437
296 426 305T414 331Q414 373 450 387L456 390Q448 404 421 404Q410 404 403 401Q376 387 358 341Q355 332 328 227T298 105Q295 90 295 75Q295 26 339 26Q349 26 357 28Q408 43 438 108Q451 141 451 146L457 153H474Q494 153 495 150Q496 149 496 144Q496 136
487 114T469 76Q438 27 395 5Q364 -11 333 -11Z" />
<glyph unicode="y" glyph-name="y" horiz-adv-x="486" d="M81 278Q75 284 75 287Q75 291 79 302Q98 371 139 410Q170 441 205 441Q247 441 270 420T293 357Q292 335 275 290Q239 192 231 147Q225 119 225 95Q225 26 274 26Q305 26 326 43T367 93L405 245Q442 393
446 404Q460 431 490 431T522 402Q522 400 416 -24Q389 -102 327 -153T196 -205Q156 -205 128 -186T92 -133Q91 -128 91 -119Q91 -89 107 -69T152 -49Q169 -49 180 -59T191 -88Q191 -95 190 -99Q185 -115 174 -128Q170 -131 160 -136T146 -144Q169 -167 199 -167Q242
-167 276 -130Q315 -89 336 -24Q347 2 347 15L338 9Q329 3 310 -3T269 -10Q211 -10 180 21T148 108Q148 144 161 189Q177 242 198 300Q221 361 221 383T206 405Q185 405 166 386Q141 358 124 298Q120 282 116 279Q115 278 97 278H81Z" />
<glyph unicode="z" glyph-name="z" horiz-adv-x="409" d="M60 -11Q54 -5 54 -2Q54 3 61 14Q103 88 233 215Q349 329 349 338L302 351Q269 362 247 362Q223 362 205 353T182 327Q180 321 178 320Q175 317 160 317Q141 317 137 321Q135 325 139 339Q155 391 202
423Q229 442 260 442Q268 442 276 440Q298 435 324 406Q349 378 365 375Q374 373 382 379Q392 388 416 427Q422 441 425 441Q427 442 433 442H444H460Q466 436 466 434Q466 430 459 417Q440 386 426 367Q383 310 273 202Q214 144 178 105L170 95L181 94Q199 93
237 81Q273 68 295 68Q328 68 356 90T395 141Q398 150 401 151T419 153Q429 153 432 153T438 150T441 144Q441 125 424 96Q395 34 340 5Q311 -11 282 -11Q270 -11 261 -8Q250 -4 243 2T208 37Q188 57 171 57Q158 57 143 48Q123 34 103 2Q91 -10 87 -11H76H60Z"
/>
<glyph unicode="~" glyph-name="asciitilde" horiz-adv-x="511" d="M266 208Q262 208 255 215T247 228T250 236T274 259Q324 308 355 316Q363 318 369 318T383 316Q400 312 424 288Q448 265 464 265Q487 265 538 310Q546 318 550 318Q557 318 564 310T571 297Q570
293 548 271Q516 239 495 226Q471 209 451 209H447Q435 209 429 211Q414 218 397 235Q377 254 368 259Q364 261 355 261Q328 261 285 221Q271 208 266 208Z" />
<glyph unicode="&#xa0;" glyph-name="uni00A0" horiz-adv-x="250" />
<glyph unicode="&#xa3;" glyph-name="sterling" horiz-adv-x="769" d="M253 332Q253 350 265 370H300L334 371L355 453Q374 532 379 546Q398 595 425 627Q466 681 528 703Q561 714 583 714Q639 714 669 676T699 578Q699 473 635 473Q597 473 595 508Q595 532 610
549T648 568L654 569V576Q654 677 581 677Q539 677 508 643T463 561Q460 554 437 464T414 371Q414 370 458 370H502Q508 364 508 362Q508 359 504 344T498 327L495 324H402L382 241Q377 224 372 204T365 177T360 159T354 140T344 120Q340 112 338 107T336 101L354
90Q398 63 429 51Q459 44 476 44Q491 44 495 45Q520 52 542 76T574 133Q578 144 580 146T598 148Q622 148 622 140Q622 138 620 130Q602 73 555 31T447 -11Q422 -11 398 -3T360 12T317 38L294 51Q248 5 183 -8Q174 -10 155 -10Q108 -10 93 19Q88 31 88 39Q88 42
90 52Q99 88 136 113T224 139Q236 139 247 138T266 134L273 132Q275 132 302 239L323 324H259Q253 330 253 332ZM245 76Q211 85 195 85Q174 85 158 72T142 42T163 26Q210 29 245 76Z" />
<glyph unicode="&#x131;" glyph-name="dotlessi" horiz-adv-x="307" d="M214 441Q250 441 271 418T293 357Q291 338 290 333Q289 330 245 208T199 82Q193 62 193 46Q193 26 209 26Q228 26 247 43Q273 71 292 136Q295 148 297 150T311 153H317Q334 153 336 151Q340
147 340 143T337 130Q303 16 228 -8Q220 -10 204 -10Q166 -10 144 13T122 71Q122 84 125 98Q126 101 170 223T215 347Q221 368 221 384Q221 396 218 400T203 405Q184 404 166 386Q141 358 124 298Q120 282 116 279Q115 278 97 278H81Q75 284 75 287Q75 291 79 302Q103
387 155 424Q176 438 196 441H214Z" />
<glyph unicode="&#x237;" glyph-name="uni0237" horiz-adv-x="332" d="M81 278Q75 284 75 287Q75 301 106 353Q130 390 155 411T218 441Q223 442 240 442Q280 440 303 416T327 350V332L278 134Q267 92 253 37T233 -45T225 -73Q208 -122 169 -156T82 -202Q73 -204
54 -204Q8 -204 -15 -181Q-32 -164 -32 -140Q-32 -114 -14 -97T27 -79Q44 -79 55 -88T67 -114Q67 -145 39 -166L44 -167H59Q83 -167 104 -146Q129 -121 145 -74Q148 -65 198 134T251 347Q252 353 252 370Q252 388 248 396T230 405Q204 405 175 378Q145 347 124
294Q118 280 116 279Q114 278 105 278H98H81Z" />
<glyph unicode="&#x300;" glyph-name="gravecomb" horiz-adv-x="0" d="M-74 526Q-74 523 -88 512T-107 500Q-109 500 -113 502T-167 568T-219 637Q-222 643 -222 651Q-222 669 -207 683T-174 697Q-155 697 -145 680Q-140 671 -107 599T-74 526Z" />
<glyph unicode="&#x301;" glyph-name="acutecomb" horiz-adv-x="0" d="M-148 500Q-153 500 -163 510T-173 528Q-173 529 -172 530V532Q-170 534 -97 610T-21 688Q-7 697 4 697Q20 697 29 688T39 663T30 638Q26 631 -50 573L-135 507Q-144 500 -148 500Z" />
<glyph unicode="&#x302;" glyph-name="uni0302" horiz-adv-x="0" d="M17 555Q17 550 4 539T-15 527Q-19 527 -23 531Q-24 532 -62 580L-97 625L-158 578Q-172 567 -188 555T-212 536L-221 529Q-227 525 -233 529Q-235 530 -242 540T-251 553Q-251 559 -248 562Q-246
564 -169 628T-90 693T-86 694Q-81 694 -78 691Q-76 689 -33 629T15 561Q17 557 17 555Z" />
<glyph unicode="&#x303;" glyph-name="tildecomb" horiz-adv-x="0" d="M-245 558Q-249 558 -256 565T-264 578T-261 586T-237 609Q-187 658 -156 666Q-148 668 -142 668T-128 666Q-111 662 -87 638Q-63 615 -47 615Q-24 615 27 660Q35 668 39 668Q46 668 53 660T60
647Q59 643 37 621Q5 589 -16 576Q-40 559 -60 559H-64Q-76 559 -82 561Q-97 568 -114 585Q-134 604 -143 609Q-147 611 -156 611Q-183 611 -226 571Q-240 558 -245 558Z" />
<glyph unicode="&#x304;" glyph-name="uni0304" horiz-adv-x="0" d="M-275 544Q-282 551 -282 554Q-282 558 -279 570Q-276 585 -271 588Q-269 589 -111 589H-27Q52 589 53 583Q53 583 53 582Q54 581 54 578T51 563T47 550Q45 546 32 545Q15 544 -118 544H-275Z" />
<glyph unicode="&#x306;" glyph-name="uni0306" horiz-adv-x="0" d="M-123 515Q-175 515 -206 550T-237 641Q-237 683 -227 691Q-224 694 -213 694Q-195 694 -195 684Q-195 679 -196 668T-198 650Q-198 612 -176 589T-117 566Q-69 566 -31 600T23 678Q27 689 30
691T43 694Q62 694 62 684Q62 683 62 682T61 679T60 675Q44 615 -9 565T-123 515Z" />
<glyph unicode="&#x307;" glyph-name="uni0307" horiz-adv-x="0" d="M-116 548Q-137 548 -151 561T-165 599Q-162 628 -142 648T-93 669Q-70 669 -56 656T-41 620Q-41 594 -64 571T-116 548Z" />
<glyph unicode="&#x308;" glyph-name="uni0308" horiz-adv-x="0" d="M-251 601Q-251 626 -230 647T-180 669Q-138 669 -133 625Q-133 596 -153 575T-203 554Q-223 554 -237 567T-251 601ZM-25 554Q-67 554 -72 599Q-72 625 -56 643T-16 667Q-6 669 -2 669Q18 669
31 657T45 623Q45 592 23 573T-25 554Z" />
<glyph unicode="&#x30a;" glyph-name="uni030A" horiz-adv-x="0" d="M-79 716Q-43 716 -20 698T3 647Q3 628 -6 610Q-33 558 -96 543Q-102 542 -118 542Q-178 542 -197 588Q-199 595 -199 610Q-199 647 -168 678Q-137 707 -95 715Q-93 715 -88 715T-79 716ZM-41
631T-41 655T-83 679Q-130 679 -142 656Q-156 636 -156 604Q-156 578 -113 578Q-86 578 -74 583T-52 605Q-41 631 -41 655Z" />
<glyph unicode="&#x30b;" glyph-name="uni030B" horiz-adv-x="0" d="M-121 697Q-88 693 -88 664Q-88 655 -92 648Q-95 642 -124 607T-182 539T-211 506Q-214 503 -217 503Q-222 503 -232 509Q-248 516 -248 523Q-248 528 -205 602Q-169 662 -161 674T-143 692Q-135
696 -134 696Q-132 697 -121 697ZM32 697Q65 693 65 664Q65 655 61 648Q58 642 29 607T-29 539T-58 506Q-61 503 -64 503Q-68 503 -79 509Q-95 516 -95 523Q-95 528 -52 602Q-16 662 -8 674T10 692Q18 696 19 696Q21 697 32 697Z" />
<glyph unicode="&#x30c;" glyph-name="uni030C" horiz-adv-x="0" d="M11 637Q16 637 22 625T29 607Q29 606 27 602Q26 600 -47 552T-125 502Q-129 502 -131 503Q-137 506 -184 553Q-236 602 -236 608Q-236 612 -224 625T-206 638L-202 637L-196 632Q-190 628 -179
620T-158 603L-116 570Q-109 572 -52 604T11 637Z" />
<glyph unicode="&#x393;" glyph-name="Gamma" horiz-adv-x="627" d="M61 0Q54 7 54 11Q54 27 61 41Q65 46 95 46Q131 47 142 50T159 62L194 200Q229 337 264 477T299 623T295 630Q286 633 248 634Q216 634 214 640Q212 643 215 659Q220 676 224 678Q226 680 462
680H698Q705 673 705 669T691 557T675 447Q673 440 652 440H637Q630 445 630 451Q630 456 633 474Q638 521 638 543Q638 583 626 601T581 628Q563 633 487 634Q426 634 414 633T399 625Q397 621 327 342T257 59Q257 52 270 49Q303 46 337 46Q366 46 366 36Q366
12 359 5Q356 0 343 0Q321 0 272 1T196 2Q98 2 72 0H61Z" />
<glyph unicode="&#x394;" glyph-name="increment" horiz-adv-x="818" d="M409 0H145Q117 0 103 0T81 1T72 3T70 6Q70 9 310 354T557 707Q559 711 565 713Q570 716 587 716Q608 716 613 710Q616 704 683 358Q752 9 750 6Q750 2 747 2Q745 0 409 0ZM581 342L531
597Q530 597 352 342T174 85T403 84T632 86Q632 87 581 342Z" />
<glyph unicode="&#x398;" glyph-name="Theta" horiz-adv-x="767" d="M540 704H552Q581 704 595 702Q683 689 735 619T788 444Q788 372 762 298Q725 187 639 100Q561 23 471 -6Q424 -22 377 -22Q284 -22 221 41Q149 113 149 237Q149 362 215 472T376 644Q455 696
540 704ZM691 480Q691 561 655 614T551 668Q456 668 367 562Q290 464 258 308Q246 251 246 202Q246 131 272 85T347 22Q366 16 387 16Q469 16 545 92Q637 184 677 363Q691 423 691 480ZM559 276Q559 278 561 288L563 299Q563 300 458 300H353L350 286Q346 272 340
266H325Q302 266 302 275Q302 281 317 346T338 415L341 418H356Q370 418 374 417T379 408Q379 406 377 396L375 385Q375 384 480 384H585L588 398Q592 412 598 418H613Q636 418 636 409Q636 406 621 340Q618 328 615 317T611 300T608 288T605 280T604 275T602 271L600
269L597 266H582Q568 266 564 267T559 276Z" />
<glyph unicode="&#x39b;" glyph-name="Lambda" horiz-adv-x="692" d="M71 0Q58 0 58 11Q58 17 62 29T68 43Q71 46 77 46Q113 46 132 59T173 104Q174 106 255 256T416 556T497 707Q499 711 504 713Q509 716 525 716Q543 716 547 711Q550 707 561 398T572 65Q573
51 581 50Q595 46 623 46Q646 46 646 36Q646 35 643 23Q642 21 641 17T640 12T639 8T638 5T636 3T633 1T629 1T624 0Q611 0 576 1T514 2Q488 2 451 2T398 1Q384 1 382 7Q380 10 383 23Q387 40 390 43T406 46Q461 46 472 63L464 298Q457 533 455 536V537Q452 537
335 317T214 90Q211 80 211 75Q211 53 244 47Q246 47 251 47T258 46Q264 46 267 43Q273 39 268 19Q264 6 258 0H247Q185 2 143 2Q81 2 71 0Z" />
<glyph unicode="&#x39e;" glyph-name="Xi" horiz-adv-x="664" d="M243 668Q243 670 250 677H640Q752 677 753 672V671Q754 670 754 667Q754 660 740 595T726 522Q724 520 723 518T720 515T716 515T704 514Q688 514 685 516Q679 520 683 543Q690 578 690 590V597H686Q670
600 468 600Q282 599 275 596Q267 591 251 539Q246 521 243 518T228 514H224Q208 514 206 516Q200 518 200 525Q200 526 220 594T243 668ZM611 438Q612 437 614 434T618 430Q618 423 599 352Q581 278 579 273Q577 267 558 267Q538 267 536 274Q534 277 538 294T543
312Q543 314 411 314H278L277 310Q277 307 272 290T266 272Q264 267 245 267Q228 267 224 274Q223 276 222 277L241 354Q261 431 263 434Q264 435 267 438H299Q306 431 306 428Q306 426 306 424T304 417T302 409L297 391H430L562 392L567 412Q572 431 579 438H611ZM81
0Q74 7 74 11Q74 14 89 89T106 168Q107 169 108 170Q112 174 127 174Q143 174 146 172Q150 169 150 165T147 143Q140 101 139 92Q139 81 140 81L142 80Q145 80 148 80T155 79Q165 78 349 78Q547 78 561 81Q564 82 570 91Q575 103 589 145Q595 166 598 170T611 174H617Q633
174 635 172Q641 170 641 163Q641 162 619 86T595 7Q594 5 591 2Q588 0 334 0H81Z" />
<glyph unicode="&#x3a0;" glyph-name="Pi" horiz-adv-x="743" d="M61 0Q54 7 54 11Q54 27 61 41Q65 46 95 46Q131 47 142 50T159 62L194 200Q229 337 264 477T299 623T295 630Q286 633 248 634Q216 634 214 640Q212 643 215 659Q220 676 224 678Q226 680 539 680H852Q859
673 859 669Q859 653 852 639Q848 634 818 634Q782 633 771 630T754 618L719 480Q684 343 649 203T614 57Q614 54 615 52T619 49T625 48T633 47T643 46T654 46T666 46Q697 46 699 40Q701 37 698 21Q693 3 689 1Q686 0 677 0Q657 0 614 1T546 2Q453 2 428 0H418Q411
7 411 11Q411 27 418 41Q422 46 452 46Q488 47 499 50T516 62Q518 67 553 209T624 491T660 632Q660 634 530 634H400L399 630Q399 629 390 593T363 484T328 344Q257 60 257 57T258 52T262 49T268 48T276 47T286 46T297 46T309 46Q340 46 342 40Q344 37 341 21Q336
3 332 1Q329 0 320 0Q300 0 257 1T189 2Q96 2 71 0H61Z" />
<glyph unicode="&#x3a3;" glyph-name="Sigma" horiz-adv-x="716" d="M87 0Q80 7 80 11Q80 14 81 15Q81 16 231 161Q381 304 381 305L310 475Q239 646 239 648T242 662T247 677Q247 681 251 681Q253 683 514 683H775Q778 680 782 674Q782 668 767 559T751 448Q747
443 729 443Q710 443 708 449Q706 452 708 471Q713 509 713 529Q713 582 688 607Q662 632 580 636Q568 637 457 637Q356 637 356 635Q358 634 417 489T478 343Q478 340 477 338Q474 331 330 196L185 57L294 56Q405 56 441 58T506 67Q553 80 581 109Q620 148 651
235Q654 246 657 248T675 250Q691 250 693 248Q699 246 699 239L681 188Q663 138 643 81T617 9Q614 3 612 2Q609 0 348 0H87Z" />
<glyph unicode="&#x3a5;" glyph-name="Upsilon" horiz-adv-x="767" d="M538 0Q515 0 463 1T380 2Q271 2 241 0H228Q222 6 222 8T224 27Q228 40 234 46H257Q322 46 336 52Q346 54 349 62Q351 64 372 145T416 324T445 461Q446 471 446 506Q446 539 445 546Q438 584
419 603T361 622Q343 622 335 620Q280 603 261 552Q257 539 249 536Q245 535 233 535T218 536L214 540V541Q213 542 213 543L215 553Q239 635 305 680Q339 705 379 705Q449 705 478 660T507 531Q507 514 505 492L504 482L505 484Q506 486 507 490T511 497Q528 538
548 571Q621 693 722 704Q727 705 738 705Q783 705 807 674T832 594T820 538Q816 535 802 535Q787 535 783 537T781 548Q783 558 783 563Q783 590 764 606T716 623Q666 623 626 583Q563 520 521 354Q448 62 448 59Q448 51 461 50Q483 46 529 46Q554 46 558 39Q559
35 556 22Q552 4 547 1Q546 1 544 1T538 0Z" />
<glyph unicode="&#x3a6;" glyph-name="Phi" horiz-adv-x="716" d="M467 624Q467 632 454 634T400 637Q361 637 359 643Q357 646 360 662Q365 679 369 682Q371 683 387 683Q430 681 532 681Q558 681 604 682T672 683Q689 683 689 672Q689 670 686 658T681 643Q679
637 640 637Q581 636 570 630Q562 626 558 617Q556 613 547 575T538 533Q538 532 541 532Q552 532 584 524Q680 498 714 431Q728 404 728 374Q728 352 721 331Q708 291 673 256Q608 188 498 160Q453 151 445 151Q443 151 441 149Q440 146 430 104T419 59Q419 51
432 50Q454 46 500 46Q526 46 529 39Q530 35 527 22Q523 4 518 1Q517 1 515 1T510 0Q487 0 436 1T355 2Q248 2 218 0H205Q199 6 199 8T201 27Q205 40 211 46H234Q300 46 313 52Q323 54 326 62Q328 64 334 86T344 129L349 150Q349 151 346 151Q333 151 303 159Q252
172 215 201T165 269Q159 287 159 309Q159 326 160 332Q176 412 264 468Q336 520 435 531L446 533L457 577Q467 620 467 624ZM436 494Q436 495 435 495T430 494T419 492Q358 479 319 442Q301 422 288 397Q260 341 260 284Q260 240 285 219T359 188L436 494ZM626
398Q626 474 539 493L528 495Q527 495 489 342T451 188Q457 188 479 194Q565 215 598 285Q626 341 626 398Z" />
<glyph unicode="&#x3a8;" glyph-name="Psi" horiz-adv-x="767" d="M207 520Q207 535 218 546H257Q305 546 314 540Q338 529 338 485Q338 456 327 408Q313 356 313 312Q313 219 379 193Q386 192 387 192Q387 196 441 408Q494 621 494 626L493 628Q492 630 491 630Q485
636 426 637Q387 637 385 643Q383 646 386 662Q391 679 395 682Q397 683 413 683Q456 681 558 681Q584 681 630 682T698 683Q715 683 715 672Q715 670 712 658T707 643Q705 637 666 637Q607 636 596 630Q588 626 584 617L478 193L480 194Q481 194 484 195T489 197Q602
239 646 415Q671 510 708 535Q720 543 730 544T777 546H808Q820 546 823 539Q823 538 824 536Q824 535 823 531Q822 528 822 525Q817 509 809 509Q784 509 765 480Q749 456 735 406Q716 336 681 283Q609 173 481 153L467 151L456 106Q445 62 445 59Q445 51 458
50Q480 46 526 46Q552 46 555 39Q556 35 553 22Q549 4 544 1Q543 1 541 1T536 0Q514 0 462 1T381 2Q274 2 244 0H231Q225 6 225 8T227 27Q231 40 237 46H260Q326 46 339 52Q349 54 352 62Q354 64 365 106T376 151Q374 152 371 152Q354 154 331 163Q225 203 225
323Q225 362 236 410Q245 450 245 470Q245 473 245 477T244 483Q241 497 236 502T220 509Q207 510 207 520Z" />
<glyph unicode="&#x3a9;" glyph-name="Omega" horiz-adv-x="716" d="M107 0Q100 5 100 12Q100 24 103 94T108 165Q110 172 131 172H146L150 169L153 165L152 141V116Q152 84 153 82Q156 75 217 75H252V84Q252 111 241 153T215 243T194 311Q183 355 183 393Q183
513 279 602T496 703Q502 704 510 704Q513 705 525 705Q618 705 678 664T756 546Q759 531 759 505Q759 489 758 483Q749 403 676 306Q660 284 613 227Q551 154 527 117Q503 81 503 76Q503 75 521 75H555Q598 75 606 87Q615 102 636 147Q646 169 649 170Q651 172
667 172H682Q689 167 689 162Q689 158 654 81T617 2Q614 0 530 0H447Q441 5 441 9T444 28Q467 104 542 236Q591 323 612 369Q654 460 654 534Q654 595 621 631T527 668Q512 668 500 666Q443 655 399 618Q286 526 286 330Q286 301 290 236T294 137Q294 85 293 72Q288
21 280 6Q278 1 268 1T190 0H107Z" />
<glyph unicode="&#x2013;" glyph-name="endash" horiz-adv-x="511" d="M98 248Q91 253 91 259T94 273T100 284Q102 285 324 285H442Q551 285 552 280Q552 279 552 278Q554 274 554 274Q554 260 548 254Q546 250 538 249Q520 248 319 248H98Z" />
<glyph unicode="&#x2014;" glyph-name="emdash" horiz-adv-x="1022" d="M124 248Q117 253 117 259T120 273T126 284Q128 285 579 285T1033 284Q1037 280 1037 278Q1038 276 1038 274Q1038 267 1035 259T1029 250Q1026 248 575 248H124Z" />
<glyph unicode="&#x2018;" glyph-name="quoteleft" horiz-adv-x="307" d="M249 379Q197 379 197 448Q197 533 271 627Q306 669 337 691Q342 694 344 694Q348 694 355 685T362 671T354 660Q291 611 256 537Q238 493 240 491Q241 491 245 493Q258 500 275 500Q298
500 312 488T326 454Q326 425 303 402T249 379Z" />
<glyph unicode="&#x2019;" glyph-name="quoteright" horiz-adv-x="307" d="M300 573Q277 573 264 585T250 620Q250 650 272 672T325 694Q348 694 362 677T377 633V624Q377 602 375 591Q357 512 300 441Q268 401 238 382Q234 379 231 379Q227 379 220 387T213 401T225
416Q294 472 323 547Q335 573 335 582L331 580Q327 578 318 576T300 573Z" />
<glyph unicode="&#x201c;" glyph-name="quotedblleft" horiz-adv-x="514" d="M295 379Q243 379 243 448Q243 533 317 627Q352 669 383 691Q388 694 391 694T400 687T409 674Q410 669 400 660Q337 611 302 537Q284 493 286 491Q287 491 291 493Q304 500 321 500Q344
500 358 488T372 454Q372 425 349 402T295 379ZM492 379Q440 379 440 448Q440 533 514 627Q549 669 580 691Q584 694 588 694T599 685T606 672T597 660Q534 611 499 537Q481 493 483 491Q484 491 488 493Q501 500 518 500Q541 500 555 488T569 454Q569 425 546
402T492 379Z" />
<glyph unicode="&#x201d;" glyph-name="quotedblright" horiz-adv-x="514" d="M264 573Q241 573 228 585T214 620Q214 650 236 672T289 694Q312 694 326 677T341 633V624Q341 602 339 591Q318 501 253 429Q228 400 204 383Q198 379 196 379Q192 379 184 387T176
401T189 416Q258 472 287 547Q299 576 299 582L295 580Q291 578 282 576T264 573ZM461 573Q438 573 425 585T411 620Q411 650 433 672T486 694Q509 694 523 677T538 633V624Q538 602 536 591Q515 501 450 429Q425 400 401 383Q395 379 393 379Q389 379 381 387T373
401T386 416Q455 472 484 547Q496 576 496 582L492 580Q488 578 479 576T461 573Z" />
<glyph unicode="&#x210f;" glyph-name="uni210F" horiz-adv-x="540" d="M150 475Q146 475 116 466T82 457Q73 457 64 467T54 487Q54 490 55 492Q63 506 64 506Q67 512 118 526Q162 541 169 546Q173 559 175 575Q181 596 181 604Q181 613 166 617Q164 617 153 618T135
619Q119 619 114 621T109 630Q109 636 114 656T122 681Q125 685 202 688Q272 695 286 695Q304 695 304 684Q304 682 291 628L278 577Q314 588 386 612Q466 635 476 635T492 627T499 607Q499 593 489 586Q485 583 373 546L262 512Q262 511 248 455T233 397T236 397T244
404Q295 441 357 441Q402 441 434 423T478 375Q485 352 485 333Q485 282 435 141Q412 77 412 58Q412 44 426 44Q447 44 466 68Q485 87 500 130L509 152H531H550Q562 152 562 144Q562 134 551 108Q512 12 438 -10Q426 -13 415 -13Q385 -13 359 3T322 44Q318 52 318
77Q318 97 335 148Q386 286 386 337Q386 386 346 386Q318 386 286 370Q267 361 245 338T211 292Q205 285 173 157Q165 128 157 95T144 43T138 21Q128 7 122 4Q105 -12 83 -12Q66 -12 54 -2T42 26Q42 45 98 257L151 475H150Z" />
<glyph unicode="&#xeffd;" glyph-name="uniEFFD" horiz-adv-x="700" d="M0 0V100H100V0H0ZM600 0V100H700V0H600Z" />
<glyph unicode="&#xeffe;" glyph-name="uniEFFE" horiz-adv-x="300" d="M0 0V100H100V0H0ZM200 0V100H300V0H200Z" />
<glyph unicode="&#xefff;" glyph-name="uniEFFF" horiz-adv-x="100" d="M0 0V100H100V0H0Z" />
</font>
</defs>
</svg>
