<?xml version="1.0" standalone="no"?> <!DOCTYPE svg PUBLIC "-//W3C//DTD SVG 1.0//EN" "http://www.w3.org/TR/2001/REC-SVG-20010904/DTD/svg10.dtd" > <svg xmlns="http://www.w3.org/2000/svg" width="100%" height="100%">
<defs >
<font id="MathJax_Script-Regular" horiz-adv-x="736" ><font-face
    font-family="MathJax_Script"
    units-per-em="1000"
    panose-1="0 0 0 0 0 0 0 0 0 0"
    ascent="1002"
    descent="-514"
    alphabetic="0" />
<missing-glyph horiz-adv-x="250" d="M50 0V533H200V0H50ZM100 50H150V483H100V50Z" />
<glyph unicode=" " glyph-name="space" horiz-adv-x="250" />
<glyph unicode="A" glyph-name="A" horiz-adv-x="803" d="M76 60Q83 29 135 29Q190 29 264 81Q280 93 280 95T277 99T265 106T248 118Q189 166 189 237Q189 307 245 388Q267 421 299 436Q336 455 386 455Q488 455 550 403L559 395L571 405Q727 544 944 679L957
687L966 701Q968 704 970 707T973 712T975 714T978 716T982 717T989 717H995Q1004 717 1007 717T1013 714T1016 708Q1016 705 829 403L636 92L630 83Q659 93 685 110T728 143L745 158Q758 158 752 138L748 127L740 119Q676 58 605 42L593 22Q590 17 587 12T583
6T579 2T573 0T564 0H530H484Q480 3 480 8Q480 15 489 26T498 39T497 40Q477 40 423 49T327 74L316 78L302 68Q200 -8 121 -8Q85 -8 60 7T35 53T60 113T123 144Q144 144 153 132T162 106Q162 89 143 75T99 61Q90 61 76 65V60ZM904 614L905 615Q901 615 840 573T700
469T581 369L587 359Q600 340 608 315T618 273T622 238T624 216L764 414Q904 612 904 614ZM525 363Q493 405 379 418H375Q342 418 309 378Q251 300 251 234Q251 174 306 137Q318 128 322 131Q323 132 329 139Q351 161 362 180Q430 273 509 348L525 363ZM579 205Q579
245 571 278T556 323T546 337L521 311Q461 248 422 196T362 121L353 111Q427 85 499 79Q517 77 520 77L525 76L549 111Q551 114 556 121T563 131T568 138T573 147T575 157T577 169T578 185T579 205Z" />
<glyph unicode="B" glyph-name="B" horiz-adv-x="908" d="M256 262Q161 262 161 351Q161 408 203 471T289 570Q380 645 475 676T617 707L627 708Q637 708 644 708Q759 708 831 675L844 669L857 677Q892 700 896 700Q902 700 907 685Q907 683 907 681T908 678T909
676T909 673Q909 671 909 670T906 667T903 664T897 660T889 655L878 647L889 636Q928 598 928 548Q928 529 923 510T907 474T886 442T861 412T837 388T815 368T800 355Q847 323 847 270V263Q847 205 806 145Q766 82 695 37T564 -8Q527 -8 506 10T484 58Q484 85
501 117T543 172Q607 226 685 228Q695 228 698 226Q703 220 692 206Q684 194 682 193T665 191Q625 189 595 172T550 133T529 93T522 66Q522 29 576 29Q642 29 705 109Q785 211 785 270Q785 287 779 300T769 316T755 327L740 319Q682 290 634 290Q611 290 592 294H588L565
261Q559 252 544 231T522 201T504 178T481 151T455 123Q394 63 314 18T159 -28Q103 -28 67 -6T31 54Q31 88 57 123T123 158Q144 158 154 146T164 119Q164 102 142 89T100 75Q94 75 87 77T76 80L72 81Q69 78 69 65Q69 35 102 22T175 9Q184 9 198 11Q248 23 300 70T403
187T508 331T636 489T789 629L801 639Q796 642 786 647T732 661T633 670Q592 670 558 665Q481 651 409 613T286 520Q274 507 258 485T222 424T202 354Q202 299 269 299Q282 299 295 301T318 307T339 317T358 329T376 345T391 362T406 380T420 398T433 417T445 435Q496
512 496 547Q496 559 497 560T516 569Q526 574 530 574Q538 574 538 540Q538 414 427 325Q342 262 256 262ZM689 382Q708 382 753 375L765 387Q860 482 860 555Q860 594 839 610L822 592Q794 563 752 511T680 420T651 380Q655 381 660 381Q664 382 689 382ZM697
344Q692 345 681 345H675Q671 345 665 345T655 344T650 344L648 342Q646 339 645 338Q643 333 639 327H653Q670 329 676 330Q706 342 706 343Q702 344 697 344Z" />
<glyph unicode="C" glyph-name="C" horiz-adv-x="666" d="M367 89Q367 84 353 77T334 70Q325 70 312 83T298 120Q298 169 364 233T496 298Q538 298 563 275T588 220V213Q588 132 501 53T306 -26Q251 -26 211 6T170 114Q171 148 181 184T205 248T232 298T255 334T265
349T246 350Q127 350 77 390T26 480Q26 533 71 581T178 656T295 683Q312 683 312 676Q312 674 311 672L302 660Q294 648 292 647L286 646Q280 646 276 646Q197 641 145 583T93 476Q93 387 265 387Q271 387 277 387T287 388T292 388T313 414T373 483T451 562Q618
712 732 727Q733 727 740 727T753 728Q790 727 804 708T819 665Q819 643 810 617T773 553T699 481T572 414T385 361Q381 361 367 341Q247 172 247 86Q247 11 325 11Q404 11 465 95Q518 165 528 208Q529 212 529 220Q529 237 518 249T480 261Q431 261 387 209T343
126Q343 111 355 101T367 89ZM777 658Q777 691 738 691Q704 691 658 662T570 590T491 504T432 432T410 400H411Q416 400 440 405T505 423T589 455T675 506T743 576Q777 627 777 658Z" />
<glyph unicode="D" glyph-name="D" horiz-adv-x="774" d="M251 272Q199 272 168 298T136 374Q136 432 175 496T267 603Q321 645 395 676T552 708Q610 708 655 694T724 659T763 618T784 584L790 569Q792 569 800 572T819 576T840 578Q855 578 855 571Q855 566 846
554T829 541Q824 541 817 539T804 533T799 529Q802 517 802 483Q802 376 742 256T585 53T392 -31Q353 -31 300 -7L289 -2L277 -6Q242 -17 192 -17Q141 -17 113 -13T77 -3T68 14Q68 20 73 28T93 45T131 58Q152 62 197 62Q241 62 272 48L282 44Q308 65 334 93Q380
145 467 266T622 454Q644 476 664 493T694 517T720 534T740 547Q699 671 540 671Q461 671 385 625T276 534Q265 520 251 499T219 438T202 368Q202 309 267 309Q325 309 396 383T491 545Q492 548 493 552Q494 558 496 559T511 564Q513 565 514 565Q523 568 527 568Q534
568 534 560Q534 554 529 537Q507 442 420 357T251 272ZM332 20Q332 19 341 15T368 6T400 2Q425 2 457 13T531 49T614 125T690 248Q750 376 750 476V490L738 479Q698 436 646 366T554 239T455 121T332 20ZM226 20Q226 25 186 25Q181 25 174 24H166Q161 24 158 23H152Q170
21 197 21Q205 21 213 21T223 20H226Z" />
<glyph unicode="E" glyph-name="E" horiz-adv-x="562" d="M280 398L279 400Q278 402 277 405T275 413T272 426T271 443Q271 494 302 544T379 629T472 685T553 707H565H573Q630 707 664 689Q718 661 718 604Q718 548 662 492T553 436Q525 436 508 451T490 492Q490
534 531 579T619 630Q632 630 632 623Q632 619 624 606Q614 593 602 592T578 580Q566 568 549 541T532 497Q532 474 565 474Q577 474 587 476Q600 481 611 489Q630 503 651 535T672 596Q672 660 553 660H548Q494 660 450 616Q421 587 384 531T343 439Q341 420 344
415H345Q346 415 352 415T369 417T391 418Q421 418 440 412T466 398T473 382Q473 367 452 353T398 339Q370 339 348 345T315 359L304 366Q297 365 284 360T234 321T163 234Q120 160 120 117Q120 83 149 57T252 30Q311 30 357 60Q386 79 414 114T452 179Q454 186
454 200Q454 230 415 242Q401 246 373 246Q353 246 347 244Q328 236 313 219T288 184T274 149T265 121T261 109Q260 107 247 102T230 97Q223 97 223 105Q223 148 271 216T386 284Q446 284 483 260T520 195Q520 121 427 57T239 -8Q192 -8 152 2T79 46T46 133Q46
212 107 285T269 394L280 398ZM427 376Q427 377 402 380Q386 380 386 379L425 375L427 376Z" />
<glyph unicode="F" glyph-name="F" horiz-adv-x="895" d="M258 428Q258 489 322 562T482 685T661 735Q726 735 824 693T977 651Q990 651 990 644Q990 639 971 612T948 581Q947 580 938 580Q878 580 784 621T617 663Q544 663 480 635T379 568T320 492T299 431Q299
387 362 387Q404 387 438 402T493 438T527 486T546 531T551 563Q551 569 550 575T549 584T549 590Q551 593 563 602T579 611Q584 611 592 605T608 584T616 548Q616 513 595 477T554 423Q518 392 464 372T349 351Q258 351 258 428ZM324 187T305 187T286 196Q286
202 301 217Q327 242 383 262T484 290L527 297L567 356Q624 441 643 467T688 521Q715 550 752 581T795 613T804 603T808 587T778 547T702 444T626 300H637Q663 302 685 306L697 308L703 317Q745 376 792 400Q806 406 818 406Q849 406 849 375Q847 355 831 338T797
312T763 296L747 290Q744 289 735 266T724 241Q722 240 702 232T664 217T645 210Q638 210 638 218Q638 224 653 246T669 270Q669 271 668 271Q663 270 624 264L607 263Q570 199 529 152Q513 133 484 106T409 45T305 -13T193 -36Q109 -36 74 -10T39 50Q39 86 64
121T128 158Q171 158 171 121Q171 97 141 83Q125 75 107 75Q93 75 80 83Q76 71 76 62Q76 29 117 15T207 0Q324 0 494 248L501 258H495Q368 239 330 195Q324 187 305 187ZM775 335Q806 358 806 368Q805 369 804 369Q800 369 791 360Q774 336 775 335Z" />
<glyph unicode="G" glyph-name="G" horiz-adv-x="610" d="M206 318L249 320Q249 327 259 352T282 399Q312 447 366 510T465 610Q588 717 661 717Q695 717 716 701T738 653T704 577Q663 522 610 474T512 397T424 346T359 315T333 306Q331 304 327 290T323 267Q323
229 368 229Q402 229 439 254T505 312T571 382T638 435Q642 437 644 437Q658 437 658 409Q655 403 647 399T624 379T595 326Q583 296 564 267T523 179Q504 126 483 91T423 27Q335 -37 231 -37Q191 -37 157 -30T95 -2T67 53Q67 89 94 123T159 158Q180 158 190 146T200
119Q200 102 178 89T136 75Q128 75 120 78T110 81Q105 81 105 62Q105 38 129 24T180 5T238 1H244Q282 1 319 32Q349 55 371 85T436 190L465 239Q413 192 354 192Q300 192 274 217T245 276Q245 284 242 284Q220 280 187 280Q106 280 59 315T12 409Q12 457 43 508T118
597T210 659T295 683Q308 683 308 675Q308 670 299 658T282 646Q266 646 240 633Q182 606 118 511Q76 448 76 400Q76 368 105 343T206 318ZM677 660Q677 680 646 680Q616 680 565 629Q537 601 514 571Q493 544 455 492T389 398T360 355Q366 357 386 367Q463 406
534 473T641 591T677 660Z" />
<glyph unicode="H" glyph-name="H" horiz-adv-x="969" d="M331 505Q331 519 382 574T472 629H480Q512 629 529 614T547 576Q547 555 534 532T520 504Q520 493 549 493Q590 493 623 506T668 533L681 546Q731 600 772 641T832 700T852 717Q857 717 860 711T865 697L866
690Q866 688 813 617T708 475T656 403Q682 403 714 404H771L780 416Q1004 707 1167 707Q1209 707 1225 689T1241 646Q1241 604 1209 547T1118 447Q1081 422 1034 405T952 382T888 374T857 370H852L826 334Q733 204 708 144Q691 104 691 76Q691 29 748 29Q768 31
791 48T831 83T862 122T881 146Q883 148 900 148H917Q921 143 921 140T914 127Q810 -8 723 -8Q611 -4 611 100Q611 142 631 191T676 275T721 337T742 367Q716 367 685 366H628L620 355Q618 352 558 268Q486 168 461 141Q405 79 339 34T215 -28Q188 -36 153 -36Q86
-36 58 -11T29 46Q29 82 55 120T123 158Q144 158 154 146T164 119Q164 102 143 89T100 75Q92 75 86 76T77 80T72 82Q67 82 67 60Q67 28 99 14T170 0Q214 0 272 47T419 224L505 340L518 357Q513 357 504 356T467 347T415 330T360 300T308 253Q296 238 295 237H278H274Q256
237 256 243Q256 248 263 256Q291 294 330 321T407 362T476 382T530 393T552 398Q556 402 573 423T600 454Q602 457 604 460T608 465L610 467Q565 455 532 455Q465 455 449 483Q447 487 447 498Q447 513 463 538T479 579Q479 593 463 593Q436 593 385 519Q374 504
371 502T360 499H353H349Q331 499 331 505ZM1195 634Q1195 643 1195 648T1185 662T1157 671Q1130 671 1092 644T1019 579T952 502T901 436L882 409L891 410Q900 411 913 412T934 415Q1081 439 1144 520Q1195 590 1195 634Z" />
<glyph unicode="I" glyph-name="I" horiz-adv-x="809" d="M487 225Q398 255 398 342Q398 410 455 492Q491 545 552 582T669 636T800 673T918 712Q930 717 933 717Q939 717 942 706T946 689Q946 686 915 664T830 591T729 480Q691 429 657 351T615 260Q628 260 663
279T733 339T769 426Q769 442 767 459T764 479Q764 484 766 486Q769 488 781 493T797 498Q802 498 803 494T808 472Q813 442 813 425Q813 369 761 315Q692 246 605 224L592 220L584 209Q547 155 487 106T358 25Q270 -17 191 -17Q143 -17 101 1T59 59Q59 96 85 127T148
158Q169 158 179 146T189 119Q189 102 167 89T125 75Q116 75 109 77T101 81T97 80Q96 77 96 72Q96 50 123 36T204 21H216Q249 21 302 49T411 134Q439 161 459 187Q487 220 487 225ZM460 334Q460 308 472 290T498 268L510 263Q515 263 545 313T626 438T723 561Q751
589 775 609T808 636T817 644H816Q813 644 732 618Q681 601 645 584T585 548T549 514T518 476Q460 390 460 334Z" />
<glyph unicode="J" glyph-name="J" horiz-adv-x="1052" d="M829 148Q845 148 845 143T841 130T823 109T788 83T730 54T644 22Q637 20 634 19T627 16T622 13T618 10T612 3T604 -6Q510 -112 396 -203T201 -312Q190 -314 171 -314H166Q156 -314 147 -312T123 -304T101
-283T92 -245Q92 -203 117 -160T175 -93Q214 -65 280 -41T390 -6T509 22L532 27L547 47Q673 219 673 225L665 228Q657 231 648 235T627 249T606 270T591 300T584 341Q584 389 614 447T686 544Q735 588 799 615T959 667T1108 713Q1118 717 1119 717Q1125 717 1129
705T1133 689Q1133 686 1115 673Q1051 627 1001 579T918 481T867 403T828 328T805 277Q802 271 801 267T798 261T798 259Q849 270 900 317Q956 371 956 421Q956 438 953 457T950 480Q950 481 950 482L951 484Q953 487 966 492T985 498Q989 498 994 473Q1000 441
1000 423Q1000 362 934 302T790 223L775 220L767 207Q757 191 731 158T685 98T662 63Q662 61 690 70T755 99T811 142L816 148H829ZM646 332Q646 308 659 291T685 268L698 263L735 320Q828 465 865 511Q923 582 1003 643L1005 645Q1004 645 924 620Q775 572 716
492Q646 401 646 332ZM184 -278Q233 -278 311 -212T444 -80L498 -15H496Q468 -20 424 -30T293 -70T174 -133Q167 -140 158 -153T138 -190T127 -232Q127 -278 184 -278Z" />
<glyph unicode="K" glyph-name="K" horiz-adv-x="914" d="M521 506Q521 493 549 493Q608 493 660 527Q667 531 690 555L736 604Q750 619 777 646T825 694T848 716T852 717Q857 717 860 711T865 697L866 690Q866 687 812 615Q654 404 654 401Q655 401 656 401T659
402T665 403T680 404Q718 404 734 374Q735 370 743 376Q745 377 752 382Q806 416 852 466T933 563T982 623Q1028 666 1075 686T1155 706Q1165 706 1173 705T1186 703T1194 699T1199 695T1201 692T1202 688V687L1204 677Q1204 667 1191 670Q1189 670 1183 670T1174
671Q1137 671 1086 643T1001 564Q970 517 899 449T749 339L739 333L736 322Q730 295 703 253T652 165T628 77Q628 21 681 21Q692 21 698 23Q751 46 817 134L827 148H844Q861 148 864 146Q869 140 859 127Q818 75 761 29T665 -17Q649 -17 633 -12T598 4T569 40T558
100Q558 128 563 152T585 205T609 245T643 294Q647 300 645 300Q633 297 615 297Q607 297 600 298T589 300T584 301Q581 301 569 284T536 236T488 171T418 97T331 28Q233 -37 155 -37Q104 -37 68 -17T29 44Q29 82 55 120T123 158Q144 158 154 146T164 119Q164 102
143 89T100 75Q92 75 86 76T77 80T72 82Q68 82 68 59Q68 37 85 23T123 5T167 0Q203 0 238 21T311 85T382 174T468 288T563 410Q576 426 588 440T607 462T615 472L605 468Q568 456 533 456H527Q490 456 463 483Q451 496 451 508T468 545T486 581Q486 593 465 593Q448
593 425 568T384 518T364 493Q364 492 347 492Q326 492 326 499T351 537T414 599T477 630Q509 630 528 615T547 576Q547 556 534 533T521 506ZM675 357Q675 368 665 368Q656 368 644 363Q631 355 616 333H628Q640 334 672 341Q675 354 675 357Z" />
<glyph unicode="L" glyph-name="L" horiz-adv-x="874" d="M572 704Q607 704 607 693Q607 681 590 664H588Q586 664 584 664T578 663Q504 658 434 592T363 457Q363 426 386 401Q417 371 481 361Q490 360 527 360H562Q565 363 595 404T666 494T755 596T854 682T945
717Q986 717 1010 696T1035 637Q1035 593 996 531T873 414Q809 378 753 360T674 338T651 333Q650 333 633 308T588 245T544 185Q498 126 426 78L413 68H414Q498 47 575 47Q626 47 676 74T755 139L762 148H779H783Q802 148 802 142Q802 137 795 129Q760 81 691 33T544
-16Q470 -16 366 20L341 29L331 24Q239 -17 155 -17H141Q90 -17 61 -12T23 1T14 22Q14 44 39 65T103 95Q126 101 180 101Q224 101 258 98T309 90T330 86Q332 86 353 103T389 135Q401 146 412 158T431 179T450 203T466 225T485 252T505 280L535 322H509Q391 322
340 362T289 452Q289 495 321 547T396 630Q438 665 486 684T572 704ZM978 635Q978 644 977 650T973 661T968 668T961 673T954 676T946 678T938 680Q929 680 925 677Q893 659 795 531T682 377Q683 377 711 385T755 401T801 421T856 453T906 495Q927 516 952 557T978
635ZM274 50Q274 51 258 54T216 61T166 65Q160 65 151 65T140 64Q115 58 102 48T88 31Q88 20 159 20Q191 20 219 27T261 42L274 50Z" />
<glyph unicode="M" glyph-name="M" horiz-adv-x="1080" d="M112 -7Q86 -7 58 6T30 48T54 103T113 130Q129 130 141 121T153 94Q153 71 132 59T90 47H80Q95 30 133 30Q180 30 228 63T311 137T402 249T500 361Q566 425 703 529T910 693Q942 721 945 721T958 716T970
709Q974 704 964 691Q961 688 905 622T847 554L595 181Q553 121 527 77T496 19L492 5Q497 5 531 46Q579 98 685 224T850 409L972 524Q994 543 1004 556Q1012 567 1097 643T1186 720Q1194 720 1206 715T1215 703Q1215 701 1191 671T1133 599T1080 530Q1036 461 983
357T862 152Q802 64 799 17Q799 7 800 5T811 2Q836 2 882 37T969 126Q972 130 974 134T978 138T983 139T996 140H1012Q1018 134 1018 132Q1018 122 981 83T889 4T795 -35Q761 -35 745 -12T728 48Q728 122 781 190Q833 269 890 370L927 434L914 422Q848 360 752
245Q643 117 582 51T498 -33T461 -50Q424 -48 424 -4Q424 84 481 172L714 495Q591 406 523 333Q507 316 430 226T313 95Q263 48 221 24T162 -4T120 -7H112Z" />
<glyph unicode="N" glyph-name="N" horiz-adv-x="902" d="M764 513Q764 482 772 423T780 330Q780 304 778 285T775 256T773 245Q778 252 826 328T932 484T1042 617Q1077 652 1114 678T1173 715T1200 726Q1208 726 1208 717Q1208 711 1206 695L1203 679L1199 675Q1197
675 1187 670T1161 657T1133 639Q1050 583 959 456Q906 381 858 307T779 179T725 83T691 18T679 -6Q677 -8 660 -8H656Q639 -8 639 -1Q639 4 646 17Q685 93 685 173V196Q685 233 681 288T676 380Q676 438 687 487L664 454Q505 230 454 170Q366 64 290 14T163 -36H152Q87
-36 58 -11T29 46Q29 82 55 120T123 158Q144 158 154 146T164 119Q164 102 143 89T100 75Q92 75 86 76T77 80T72 82Q67 82 67 59Q67 37 89 19T167 1Q187 1 197 3Q221 9 246 22T292 52T336 91T375 132T411 174T440 212T463 245T478 266Q779 695 784 698Q786 700
802 700H818Q824 694 824 692T809 668T779 604T764 513Z" />
<glyph unicode="O" glyph-name="O" horiz-adv-x="738" d="M259 -8Q230 -7 205 0T153 24T112 74T96 153Q96 254 174 379T374 599T607 707H621Q732 707 778 661Q805 634 805 598Q805 558 775 517T696 452L684 447V441Q684 378 626 273T484 97Q379 7 288 -7Q279 -8
259 -8ZM760 594Q760 670 608 670Q562 670 493 622T347 472Q174 240 174 131Q174 76 205 53T279 29Q294 29 306 32Q405 60 507 205Q592 325 616 401Q625 426 625 435Q625 436 621 436T603 440T569 449Q524 466 515 475Q513 477 513 481T525 496T541 508L548 504Q555
501 565 497T587 488T609 480T625 476Q627 476 626 481Q626 486 623 494T613 513T589 533T548 541Q495 541 413 454T286 281Q265 241 254 201T240 141T235 120Q234 118 217 111T197 104Q195 104 192 107T189 112Q190 125 193 147T220 231T280 348Q335 428 407 493T539
576Q548 578 563 578Q594 578 617 568T653 546T672 518T681 494T683 482Q683 481 684 481Q690 481 707 495T742 538T760 594Z" />
<glyph unicode="P" glyph-name="P" horiz-adv-x="1013" d="M571 345Q571 384 612 418T687 452Q698 452 698 445Q698 436 679 417Q677 415 670 415Q650 412 633 389T615 350Q615 340 621 331T634 319T643 315L663 342Q751 462 817 536Q873 595 896 614L907 625Q843
680 701 680Q594 680 499 632T344 516Q317 486 296 449T267 384Q262 366 262 354Q262 332 276 316T326 299H327Q374 299 426 338Q481 376 537 456T597 598Q597 616 599 617Q601 619 614 624T630 630Q639 630 639 604V587V581Q639 519 597 456Q544 377 462 320T318
262Q278 262 250 282T222 350Q222 418 285 504Q360 597 480 656T702 716Q773 716 825 707T898 688T951 660Q962 670 985 685T1012 700Q1018 700 1022 690T1026 673Q1026 670 1019 664Q988 633 988 631Q988 630 999 618T1020 580T1031 522Q1031 471 1003 419T928
330Q854 275 765 264Q757 262 733 262H714L701 245Q615 121 473 42T218 -37Q159 -37 125 -15T90 46Q90 82 116 120T185 158Q203 158 213 147T224 121Q224 110 219 102Q198 75 159 75Q154 75 149 76T143 77T140 77Q137 72 137 53Q138 37 149 26T177 9T205 2T228
0Q313 0 419 74T602 257L620 281L614 285Q607 289 601 294T587 306T576 323T571 345ZM950 529Q950 576 943 576Q940 576 840 439T741 299H751Q804 300 845 334T924 438Q949 490 950 529Z" />
<glyph unicode="Q" glyph-name="Q" horiz-adv-x="883" d="M330 387Q330 331 402 331Q463 331 514 371T589 459T613 542Q613 559 608 570T598 588T593 596Q593 601 617 610Q632 617 636 616Q675 585 675 527Q675 464 629 409T516 324T387 294Q271 294 271 394V402Q271
438 292 478Q344 582 457 649T672 717Q765 717 825 675T885 548Q885 433 771 298T498 76Q493 73 491 72T486 69T484 67T485 66Q539 41 607 41Q655 41 703 71T780 139L787 148H804Q806 148 809 148Q826 149 826 140Q826 128 786 91T687 19T589 -16H576Q503 -16 414
20L396 27Q279 -17 192 -17Q130 -17 92 2T54 53Q54 92 107 123T222 155Q303 155 401 106L431 91L441 97Q476 118 527 157Q622 236 711 361T801 573Q801 591 795 607T775 641T732 668T660 679Q592 679 528 644T422 560T355 464T330 387ZM201 20Q232 20 267 27T322
40T342 49Q342 52 315 60T243 77T160 86Q150 88 144 88Q130 88 122 79T112 62L111 53Q111 20 201 20Z" />
<glyph unicode="R" glyph-name="R" horiz-adv-x="850" d="M224 266Q185 266 156 286T127 354Q127 419 176 487T282 594Q346 642 433 679T615 717Q732 717 802 680L815 673Q824 680 840 690T860 700Q864 700 867 693T872 680L873 673Q873 668 858 659L845 651L853
642Q887 605 887 561Q887 500 840 439Q790 379 681 336Q693 312 693 292Q692 276 689 263T672 229T653 198T620 152L575 87Q557 57 557 33Q557 24 560 17T566 8L569 5Q546 5 508 25T470 76Q470 83 473 92T545 198T616 310Q616 317 615 318T612 319Q603 319 575
315H560L545 291Q492 201 429 135T277 23Q202 -17 142 -17H130Q50 -17 16 17Q-2 35 -2 57Q-2 95 24 126T88 158Q106 158 116 147T127 121Q127 110 122 102Q116 93 99 84T63 75Q58 75 53 76T47 77T45 75T44 67Q45 52 57 42T88 27T120 21T144 19Q174 19 208 36T267
76T324 134T369 189T406 239Q462 319 504 374T616 503T755 631L770 644Q767 647 753 654T697 670T602 680Q493 680 399 631T247 516Q218 485 193 440T168 359Q168 328 188 316T234 303Q255 303 273 315T304 340T343 389T390 448Q428 490 441 510T456 548Q456 557
458 559Q459 560 476 567T496 575Q505 575 505 558Q505 511 434 412Q429 406 427 403Q397 360 378 343Q342 308 300 287T224 266ZM819 564Q819 595 800 619L784 606Q729 557 692 512T605 387L591 365L610 364Q622 364 631 363T641 361Q643 361 651 363Q725 388
772 449T819 564ZM794 141Q794 123 725 63T612 3Q609 3 612 5Q612 5 615 7Q639 19 678 57T742 131L755 148H772H780Q794 148 794 141ZM588 -3Q590 0 593 0H594L593 -1Q592 -1 590 -2L588 -3Z" />
<glyph unicode="S" glyph-name="S" horiz-adv-x="868" d="M346 463Q346 419 406 386T576 352H588L613 384L681 476Q767 594 842 651T973 708Q1016 708 1016 661Q1016 621 987 562T894 449Q802 375 696 338L682 334L665 312Q638 279 605 233T547 158T482 97Q418
46 332 5T158 -36Q87 -36 58 -11T29 48Q29 82 55 120T123 158Q144 158 154 146T164 119Q164 102 143 89T100 75Q92 75 86 76T77 80T72 82Q67 82 67 59Q67 28 98 14T166 0Q232 0 320 55T491 226Q530 279 551 305L558 314Q558 315 543 315Q417 321 353 365T289 460Q289
566 488 632Q578 662 660 665H679Q685 660 685 657T676 642Q670 633 666 629L664 628Q663 628 661 628T655 628Q606 628 546 615T426 568T350 486Q346 475 346 463ZM976 653Q976 671 959 671Q938 671 919 661T883 629T858 593T835 554Q832 548 830 545Q802 495
775 455T734 400T721 382L736 388Q876 449 946 568Q948 572 949 573Q976 622 976 653Z" />
<glyph unicode="T" glyph-name="T" horiz-adv-x="747" d="M354 350Q264 350 264 426Q264 442 265 448Q279 514 347 582T503 692T662 735Q719 735 774 714T882 672T983 651Q996 651 996 644Q996 639 977 612T954 581Q953 580 938 580Q909 582 884 587L869 591L870
587Q870 583 849 557T796 491T748 422Q729 391 692 313T620 188Q555 105 454 34T253 -37Q214 -37 181 -30T120 -2T92 53Q92 89 119 123T184 158Q205 158 215 146T225 119Q225 102 203 89T161 75Q153 75 145 78T135 81Q130 81 130 62Q130 39 153 24T204 5T267 0Q311
0 358 29T454 117T539 226T629 358T710 476Q726 496 744 516T778 551T807 577T828 595L836 601L785 623Q743 642 713 651T668 661T626 663Q564 663 509 644T418 596T356 535T317 475T305 431Q305 416 312 408Q323 388 369 388Q429 388 465 411T530 480Q557 526
557 565Q557 573 556 579T555 587T555 590Q555 591 568 600T584 611Q588 612 600 603Q622 581 622 549Q622 516 600 475T536 405Q454 350 354 350Z" />
<glyph unicode="U" glyph-name="U" horiz-adv-x="800" d="M55 377Q55 443 122 523T290 660T478 717Q533 717 575 689T618 594Q618 565 611 538T585 477T552 422T506 355T458 288L357 146Q307 68 307 31Q307 20 318 20Q326 20 331 21Q367 27 411 57T490 128L767
500L861 617H908H939Q953 617 956 616T960 609Q960 605 928 566T816 423T648 198Q587 113 571 86Q540 34 540 21Q540 20 545 20Q580 25 623 55T696 124Q702 132 704 133T722 134H739Q744 130 744 127T735 113Q713 80 655 38T548 -14Q527 -17 524 -17Q475 -17 473
47V63L462 55Q364 -17 302 -17Q235 -17 235 69Q235 88 239 105T248 135T268 171T292 205T328 251T369 304Q376 313 395 338T423 374T450 408T476 445T499 479T519 514T534 546T545 579T548 608Q548 647 522 663T460 680Q355 680 243 591T99 406Q97 399 97 383V377Q97
339 153 339Q169 339 175 340Q215 350 241 373T298 444Q333 496 349 535T367 588T374 603Q402 616 408 616Q416 616 416 608Q416 563 393 492T320 378Q233 302 140 302H132Q75 302 57 353Q55 361 55 377Z" />
<glyph unicode="V" glyph-name="V" horiz-adv-x="622" d="M540 717Q542 717 545 717Q562 717 562 710Q562 708 557 702T541 678T517 632T485 544T448 407Q447 405 443 388T438 366T433 345T427 321T420 299T411 274T400 250T387 223T372 197Q363 181 364 181L388
203Q476 284 527 354T620 490T718 612Q754 647 790 673T835 700Q839 700 842 691T848 672L850 662Q850 657 842 653Q803 630 768 600T699 527T653 467T610 405Q554 322 518 282T368 138Q307 84 273 51T231 9T218 -5L207 -17H175Q169 -11 169 -9Q169 -4 183 10Q227
56 258 120T302 234T330 350T356 445Q357 450 360 458L362 464Q317 434 276 434Q221 437 221 479Q221 498 240 521T259 552Q259 565 235 565Q209 565 174 546T105 482Q103 480 102 478T99 474T97 472T95 470T93 468T90 467T86 467T81 467H75Q56 467 56 475Q56 482
82 511T156 570T253 601Q289 601 311 590T334 557Q334 543 312 517T289 478Q289 471 297 471Q327 471 378 514Q384 519 390 531T412 571T451 632Q482 675 524 717H540Z" />
<glyph unicode="W" glyph-name="W" horiz-adv-x="805" d="M232 504Q232 492 263 492Q304 492 356 515L367 520L379 537Q443 632 515 705L527 717H543H552Q564 717 564 709Q564 705 562 703T554 694T540 677T518 643T488 589T448 504T398 385Q368 309 353 281L349
270L523 472L669 634Q726 695 737 706T757 717H765Q786 717 786 710Q786 704 776 691T738 627T675 497Q630 394 609 354T541 244Q456 120 449 111L447 107L448 108Q630 240 700 327Q734 368 788 463Q821 520 841 550T898 619T980 683Q1010 700 1018 700Q1020 700
1023 697T1026 692Q1026 688 1024 671T1020 652Q1018 650 1007 645T988 635Q940 609 902 565T842 477T781 374T699 272Q653 226 535 133Q423 47 373 -2L358 -17H342Q320 -17 320 -11Q320 -7 328 5T354 46T390 112Q416 161 439 217T488 326T564 453L589 490Q587
490 523 414T352 217T166 14Q138 -16 137 -16Q136 -17 120 -17Q106 -17 103 -16T99 -9Q99 -5 100 -3T106 3T116 14T132 35T154 72T184 129T222 212T270 327Q310 426 337 471L326 467Q278 455 243 455Q209 455 188 462T161 478T155 496Q155 508 176 533T198 576Q198
579 198 581T192 588T178 593Q151 593 100 519Q89 504 86 502T75 499H68Q46 499 46 506Q46 510 63 534T112 587T170 627Q178 629 195 629Q235 629 252 613T270 577Q270 556 251 532T232 504Z" />
<glyph unicode="X" glyph-name="X" horiz-adv-x="944" d="M351 351Q308 351 290 373T272 426Q272 487 329 566T478 688Q538 717 584 717Q635 717 681 696T745 620Q752 598 752 564T745 498L741 485Q742 486 769 516T825 573T889 634T962 689T1027 716Q1035 717
1060 717Q1083 716 1096 714T1120 705T1131 686Q1131 668 1109 647T1055 626Q1035 626 1026 638T1016 663Q1016 667 1020 679H1015Q971 671 886 589T728 413L688 360Q688 359 725 359H750Q762 359 766 357T770 348Q769 345 761 335T750 322Q748 321 704 321H660Q651
311 632 282T589 199T565 107Q565 25 653 20Q684 20 720 44T779 95T826 152T850 183L856 184Q861 184 865 184Q888 184 888 173Q883 163 845 117Q770 37 723 10T638 -17Q584 -14 554 17T523 101Q523 147 534 167L532 166Q530 164 526 160T518 153Q378 15 256 -15Q250
-16 226 -16Q161 -16 132 7T103 59Q103 93 129 125T194 158Q232 158 232 121Q233 118 233 113T221 96T188 77Q182 75 168 75T150 78V70Q150 43 178 32T241 20Q340 20 527 286L552 321H524Q489 321 489 330Q489 333 497 344T509 358Q511 359 545 359H579Q580 362
597 389T631 445T661 514T675 586Q675 637 645 658T572 680Q506 680 444 632T348 527T314 434Q314 388 361 388H364H366Q380 388 389 390T416 408T457 454Q487 497 505 536T526 594L529 613Q531 615 545 622T560 630Q568 630 573 613T578 577Q578 518 532 455Q504
413 453 382T351 351Z" />
<glyph unicode="Y" glyph-name="Y" horiz-adv-x="710" d="M155 280Q116 280 87 300T57 368Q57 409 87 466T192 589Q269 653 345 684T472 716Q572 716 613 675Q644 644 644 599Q644 585 643 574T637 550T629 529T616 505T600 481T578 450T554 416Q494 330 493 328L480
306Q466 278 466 256Q466 227 492 227H496Q514 227 534 234Q541 237 544 241T571 279L762 559Q777 579 792 595Q818 620 856 646T919 686T946 700Q951 700 955 692T959 677Q959 673 947 665T911 639T866 595Q816 538 749 408T640 225Q574 138 464 61T248 -17Q190
-17 144 1T98 62Q98 81 109 102T131 135Q156 156 183 158Q226 158 226 121Q226 111 224 107Q215 93 196 84T162 74Q154 74 147 77H144V70Q146 41 185 31T263 20Q363 20 493 175L507 192H504Q500 191 498 191Q484 189 476 189Q430 189 405 219T379 287Q379 294 379
299T382 311T385 322T391 335T398 347T408 363T420 379T434 399T450 422Q455 429 469 449T488 475T504 499T520 523T533 543T544 565T552 583T557 603T559 620Q559 680 467 680Q402 680 333 646T213 563T131 462T98 373Q98 343 119 330T169 317Q187 317 212 333Q242
354 291 423T352 555Q354 562 355 588Q355 612 356 612Q357 614 371 622T387 630Q391 630 397 623T409 597T415 556Q415 507 380 448T294 344Q216 280 155 280Z" />
<glyph unicode="Z" glyph-name="Z" horiz-adv-x="821" d="M221 428Q221 487 280 555T425 670T583 717H587Q641 717 665 695T689 646Q689 625 674 600T658 564Q658 550 671 541T695 530T710 528L718 539Q779 613 821 646Q894 707 964 707H970Q1010 707 1025 675Q1032
661 1032 645Q1032 626 1022 607Q1008 579 980 560T897 522Q867 512 836 505T788 496L771 493Q768 493 760 477T736 429T702 370Q700 367 698 363Q696 360 696 359H805Q809 355 809 350Q809 340 791 322Q789 321 728 321H668Q562 179 433 88L419 78L434 73Q505
54 554 54Q609 54 654 82T720 140H752Q758 134 758 132Q758 128 747 113Q711 67 657 32T552 -14Q540 -16 517 -16T480 -15T439 -3T375 27L354 38L338 30Q257 -8 191 -8H184Q154 -8 133 -5T103 1T88 10T83 19T83 29Q83 35 86 44T100 65T127 88T173 105T241 112Q286
112 342 99L360 95L372 105Q434 157 523 270L560 320Q560 321 533 321L507 322Q502 325 502 330Q502 339 521 358Q523 359 556 359H588L669 474L682 491Q676 492 665 494T647 498T632 503T614 510T596 521Q556 547 556 570Q556 585 579 618T603 663Q603 679 568
679Q510 679 452 650T354 581T288 500T262 431Q262 407 280 397T321 387Q331 387 341 390T360 398T376 409T390 423T400 435T409 447L414 454Q457 514 460 562Q460 575 461 576Q461 577 475 586T492 595Q496 595 503 588T514 572Q520 559 520 539Q520 473 452 412T308
351Q269 351 245 370T221 428ZM989 642Q989 667 953 671Q905 671 871 644Q853 632 832 604T799 554T787 531H788Q801 531 842 539T916 561Q989 592 989 642ZM198 29Q230 29 257 36T295 52L306 59Q306 63 259 73Q251 74 209 74Q177 74 158 66T134 48L130 40Q130
29 198 29Z" />
<glyph unicode="&#xa0;" glyph-name="uni00A0" horiz-adv-x="250" />
<glyph unicode="&#xeffd;" glyph-name="uniEFFD" horiz-adv-x="300" d="M0 0V100H100V0H0ZM200 0V100H300V0H200Z" />
<glyph unicode="&#xeffe;" glyph-name="uniEFFE" horiz-adv-x="300" d="M0 0V100H100V0H0ZM200 0V100H300V0H200Z" />
<glyph unicode="&#xefff;" glyph-name="uniEFFF" horiz-adv-x="100" d="M0 0V100H100V0H0Z" />
</font>
</defs>
</svg>
