<?xml version="1.0" standalone="no"?> <!DOCTYPE svg PUBLIC "-//W3C//DTD SVG 1.0//EN" "http://www.w3.org/TR/2001/REC-SVG-20010904/DTD/svg10.dtd" > <svg xmlns="http://www.w3.org/2000/svg" width="100%" height="100%">
<defs >
<font id="MathJax_Main-Italic" horiz-adv-x="421" ><font-face
    font-family="MathJax_Main"
    units-per-em="1000"
    panose-1="0 0 0 0 0 0 0 0 0 0"
    ascent="1018"
    descent="-451"
    alphabetic="0" />
<missing-glyph horiz-adv-x="250" d="M50 0V533H200V0H50ZM100 50H150V483H100V50Z" />
<glyph unicode=" " glyph-name="space" horiz-adv-x="250" />
<glyph unicode="!" glyph-name="exclam" horiz-adv-x="307" d="M330 716Q351 716 365 703T380 670V659L304 433Q230 207 227 204Q225 198 205 198Q184 198 184 207T220 439T260 669Q270 694 297 708Q300 709 304 710T311 713T316 714Q324 716 330 716ZM107 51Q110
83 133 102T179 121Q207 121 219 105T231 72Q231 45 209 23T156 0Q138 0 123 11T107 51Z" />
<glyph unicode="&quot;" glyph-name="quotedbl" horiz-adv-x="514" d="M214 620Q214 647 236 670T289 694Q312 694 326 677T341 633V624Q341 588 327 550T294 482T253 428T216 392T196 379Q191 379 184 388T176 401Q176 404 195 421T243 472T287 547Q299 576 299
582L295 580Q291 578 282 576T264 573Q241 573 228 585T214 620ZM411 620Q411 647 433 670T486 694Q509 694 523 677T538 633V624Q538 588 524 550T491 482T450 428T413 392T393 379Q388 379 381 388T373 401Q373 404 392 421T440 472T484 547Q496 576 496 582L492
580Q488 578 479 576T461 573Q438 573 425 585T411 620Z" />
<glyph unicode="#" glyph-name="numbersign" horiz-adv-x="818" d="M281 327Q270 327 253 327T228 327Q186 327 175 330T164 347Q164 359 176 365Q179 367 292 367H404L563 688Q569 694 578 694T593 686T597 670Q597 667 531 535L448 367H614L773 688Q779 694
787 694Q796 694 802 688T808 674Q808 672 807 670Q807 667 732 517L658 368L736 367H814Q828 357 828 347Q828 336 812 327H637L599 250Q561 174 561 173H662Q676 173 697 173T724 173Q760 173 769 170T779 153Q779 140 770 136T729 132Q722 132 696 132T651 133H540L380
-188Q374 -194 366 -194Q357 -194 351 -188T345 -174Q345 -172 346 -170Q346 -167 412 -35L495 133H330L170 -188Q164 -194 156 -194Q147 -194 141 -188T135 -174Q135 -172 136 -170Q136 -167 211 -17L285 133H207L130 134Q115 140 115 153Q115 164 131 173H306L344
250Q382 326 382 327H281ZM592 327H427L389 250Q351 174 351 173H516L554 250Q592 326 592 327Z" />
<glyph unicode="%" glyph-name="percent" horiz-adv-x="818" d="M301 348Q257 348 231 383T205 480Q205 553 244 629T346 736Q370 750 394 750Q416 750 429 742T458 714Q512 644 606 644Q722 644 802 732Q817 750 827 750Q835 750 841 744T847 730Q847 725 827
700T689 540Q586 421 512 335Q180 -50 176 -52Q171 -56 165 -56Q158 -56 152 -50T145 -35Q145 -29 162 -9T330 186Q392 258 430 302Q711 627 711 628L701 624Q652 607 604 607Q551 607 494 634L479 642V624Q479 544 439 467Q414 416 377 382T301 348ZM434 627Q434
713 390 713Q358 713 328 663Q307 631 289 556T270 451V443Q270 407 284 393Q293 384 306 385Q306 385 307 385T308 385Q326 385 348 407Q384 441 409 504T434 627ZM608 -56Q573 -56 543 -23T513 76Q513 129 536 190T604 296L627 318Q670 347 704 347Q747 347 767
310T788 222Q788 126 732 35T608 -56ZM742 222Q742 310 699 310Q677 310 655 285T620 227Q608 197 593 138T578 42Q578 42 578 41Q578 39 578 36Q578 -18 613 -18Q657 -18 699 64T742 222Z" />
<glyph unicode="&amp;" glyph-name="ampersand" horiz-adv-x="767" d="M209 444Q209 546 278 631T424 716Q473 716 501 683T530 601Q530 554 511 535T467 515Q446 515 437 527T427 553Q427 578 446 594T481 610H483V617Q480 641 464 660T419 679Q367 679 328 603Q316
578 305 538T288 470L282 443L295 449Q308 455 330 462T371 469Q397 469 413 450T430 404Q430 363 400 329T331 295Q291 295 256 322Q255 322 246 293T227 223T217 158Q217 117 232 88T273 43T327 22T387 15Q457 15 512 37T599 93T652 169T680 248T688 317T678
380T659 423T647 437Q643 435 637 431T613 416T581 392T554 364T538 332Q540 310 541 310Q554 335 587 335Q601 335 613 327T626 300Q626 290 622 279T603 255T563 242Q532 245 512 263T491 320Q494 351 511 377T547 418T600 456T652 494Q676 512 697 539T728 582T738
601Q738 602 736 602Q732 602 726 604T714 616T707 638Q707 661 724 677T764 694Q799 694 802 660Q802 625 767 562T688 467L694 458Q700 449 702 444T711 428T720 408T727 385T733 358T735 327Q735 281 724 235T685 141T617 59T515 1T375 -22Q270 -22 199 34T127
181Q127 216 147 270T207 374L216 386Q209 421 209 444ZM386 412Q386 432 366 432Q345 432 325 418T294 390T284 375Q284 371 289 362T306 343T335 332Q355 332 367 350T383 384T386 412Z" />
<glyph unicode="&apos;" glyph-name="quotesingle" horiz-adv-x="307" d="M250 620Q250 647 272 670T325 694Q348 694 362 677T377 633V624Q377 566 343 506T275 412T231 379Q226 379 220 388T213 401T232 421T279 472T323 547Q335 573 335 582L331 580Q327 578
318 576T300 573Q277 573 264 585T250 620Z" />
<glyph unicode="(" glyph-name="parenleft" horiz-adv-x="409" d="M241 -250Q203 -212 174 -140T144 39Q144 158 180 288T296 544T481 746L487 750H499Q517 750 517 740Q517 736 495 716Q399 630 331 491T236 228T208 3Q208 -56 218 -105T240 -179T261 -222T271
-244Q271 -250 252 -250H241Z" />
<glyph unicode=")" glyph-name="parenright" horiz-adv-x="409" d="M326 497Q326 546 320 588T304 655T285 699T269 728T262 740Q262 746 267 749L272 750Q276 750 281 750H293Q331 712 360 640T390 461Q390 332 339 171T188 -116Q161 -150 121 -188T47 -250H35Q17
-250 17 -240Q17 -236 39 -216Q135 -130 203 9T298 272T326 497Z" />
<glyph unicode="*" glyph-name="asterisk" horiz-adv-x="511" d="M239 616Q239 631 252 644T282 658Q290 658 295 654T335 615L378 573L391 647Q393 657 395 671T398 691T400 706T404 720T408 730T414 739T423 744T434 749Q435 749 439 749T445 750Q467 748 469
728Q469 723 457 685T432 610L420 573L481 613Q488 618 498 625T514 635T526 643T537 650T546 654T554 657T560 658Q568 658 575 651Q584 643 584 631Q584 625 583 620T577 611T569 603T556 595T540 587T519 578T494 566L428 536Q427 535 433 531T479 502Q525 475
532 469T539 450Q538 435 525 424T497 412Q489 412 482 418T442 456Q400 497 400 494L387 420Q376 353 373 343T352 323Q345 320 336 320H331Q322 320 316 327T309 343Q309 347 334 420L359 496Q358 496 297 456T234 414Q228 411 221 411Q212 411 204 417T195 439Q198
458 209 465T283 502L353 534L300 566Q255 593 247 599T239 616Z" />
<glyph unicode="+" glyph-name="plus" horiz-adv-x="767" d="M139 237T139 250T151 267T198 271Q207 271 238 271T293 270H431L465 407Q469 424 476 452Q494 528 500 542T519 557Q526 557 532 552T538 538Q538 536 507 409T472 272Q472 270 604 270Q737 270 741
268Q753 261 753 250Q753 237 742 233T696 229Q687 229 655 229T599 230H462L461 226Q461 224 427 91T392 -47Q387 -57 374 -57Q367 -57 361 -51T355 -37Q355 -31 388 99L421 230H288Q267 230 238 230T199 229Q163 229 151 233Z" />
<glyph unicode="," glyph-name="comma" horiz-adv-x="307" d="M106 46Q106 68 121 90T167 120Q168 120 173 120T180 121Q197 121 208 114T224 96T230 76T232 59Q232 58 232 56T232 54Q232 18 219 -20T186 -88T145 -143T109 -181T88 -194Q84 -194 77 -185T69 -171Q69
-168 70 -166T76 -161T85 -154T101 -139T124 -114Q146 -88 162 -58T183 -12T188 7Q187 7 183 5T172 2T156 0Q129 0 118 14T106 46Z" />
<glyph unicode="-" glyph-name="hyphen" horiz-adv-x="358" d="M205 180Q187 180 163 180T131 180Q115 180 107 180T94 181T86 185T84 190Q90 238 103 251H334Q341 244 341 241Q341 236 336 214T327 186Q325 181 312 181T205 180Z" />
<glyph unicode="." glyph-name="period" horiz-adv-x="307" d="M107 50Q107 76 129 98T181 121Q203 121 217 108T231 72Q231 47 210 24T156 0Q135 0 121 13T107 50Z" />
<glyph unicode="/" glyph-name="slash" horiz-adv-x="511" d="M596 750Q604 750 610 744T617 730L616 728Q616 727 616 726Q615 723 337 244T55 -242Q49 -250 40 -250Q30 -250 25 -243Q18 -238 20 -226Q21 -223 299 256T581 742Q589 750 596 750Z" />
<glyph unicode="0" glyph-name="zero" horiz-adv-x="511" d="M414 665Q562 665 562 490Q562 426 534 318Q451 -21 251 -21Q222 -21 202 -15Q155 2 134 40T110 144Q110 201 127 286T187 470T287 614Q348 665 414 665ZM187 98Q187 59 208 37T260 15Q320 15 365 83Q394
128 440 312T487 547Q487 580 471 600T433 627Q428 628 408 628Q381 628 353 609T311 569Q279 526 239 364T190 143Q187 120 187 98Z" />
<glyph unicode="1" glyph-name="one" horiz-adv-x="511" d="M248 491Q228 491 228 502Q228 516 236 532Q237 536 246 537T275 541T314 552Q350 567 382 595T430 644L446 664Q450 666 454 666Q468 666 468 658Q468 647 395 359Q321 63 321 59Q321 52 334 50T388
46H422Q428 37 428 35Q428 19 421 5Q416 0 405 0Q400 0 361 1T263 2Q215 2 185 2T142 1T127 0Q110 0 110 11Q110 13 113 25T118 40Q120 46 146 46Q196 46 212 49T235 61Q238 66 295 295L353 526L340 519Q328 512 302 503T248 491Z" />
<glyph unicode="2" glyph-name="two" horiz-adv-x="511" d="M159 404Q159 433 176 476T222 562T297 635T395 666Q466 666 508 617T551 497Q551 473 545 446Q534 388 482 333Q441 292 355 240T264 184Q216 151 179 101L171 91Q171 90 177 90Q206 90 269 77T366
64Q385 64 390 65Q418 73 441 98T475 156Q479 168 481 170T495 173H501H518Q524 167 524 166T521 152Q502 86 459 32T353 -22Q315 -22 259 15T172 53Q156 53 143 36T126 1L121 -16Q119 -22 98 -22H82Q76 -16 76 -13T80 5T98 50T132 111T189 178T274 242Q327 273
364 305T420 370T447 427T460 483Q466 514 466 538Q466 586 443 607T389 629Q338 629 293 584T226 487T204 399Q204 390 204 386T209 378T222 373Q258 376 282 422T307 493Q307 505 302 517T297 531Q297 539 317 552Q323 554 327 551Q329 550 333 543T340 523T344
497Q344 450 306 393T216 336Q186 336 173 355T159 396V404Z" />
<glyph unicode="3" glyph-name="three" horiz-adv-x="511" d="M258 412Q232 412 216 430T200 478Q200 552 281 618Q345 666 416 666Q489 666 525 625T562 530Q562 473 525 419T430 335L416 329Q479 288 479 206Q479 142 440 89T344 7T229 -22Q173 -22 135 12T96
106Q96 192 157 192Q192 192 197 157Q197 134 184 117T142 96Q153 47 180 29Q201 15 232 15Q249 15 275 22Q307 34 331 57Q363 90 379 153T396 246Q396 261 393 272T384 290T371 301T355 308T341 311T326 312H316Q314 312 311 312T307 312Q288 312 282 313T276
320Q276 324 279 335Q279 338 280 341T281 346T282 350L283 352Q284 356 290 357T325 358Q364 359 368 360Q386 365 400 372T433 397T464 448T485 527Q487 535 487 556Q487 629 414 629Q350 629 298 580T245 476Q245 450 263 450H264Q280 450 294 463T308 496Q308
508 302 518T296 531Q296 536 306 544Q317 553 322 553Q330 553 338 534T346 501Q346 468 319 440T258 412Z" />
<glyph unicode="4" glyph-name="four" horiz-adv-x="511" d="M292 -5Q231 29 169 29Q114 29 91 14Q72 -2 65 1Q46 20 46 28Q46 35 55 43T77 60T96 74Q306 257 396 623Q410 666 444 666Q459 666 468 657T478 634Q478 627 470 595T440 504T387 381T303 239T187 99L164
75H178Q217 75 260 59L304 43Q304 48 325 127Q342 195 346 207T358 228Q372 242 391 242Q403 242 413 235T423 214Q423 205 402 116T378 25Q378 23 387 23Q405 23 418 26T438 31T448 34Q453 34 463 22Q473 10 473 5Q473 -2 457 -7Q417 -22 383 -23H366L350 -91Q348
-98 345 -111T340 -130T335 -146T330 -161T325 -172T318 -182T310 -188T299 -193T286 -194Q256 -194 253 -165Q253 -159 271 -83T292 -5Z" />
<glyph unicode="5" glyph-name="five" horiz-adv-x="511" d="M196 304Q189 309 189 314Q189 317 231 487T275 660Q278 666 283 666Q287 666 302 658T346 643T413 635Q447 635 481 642T537 658T559 666Q561 666 564 663T567 658Q565 637 557 629Q528 600 474 573T359
545Q342 545 327 546T304 550T294 552L291 540Q288 529 283 507T273 465L251 379Q307 420 364 420Q415 420 456 382T497 261Q497 165 429 82T262 -20Q256 -20 247 -21T233 -22Q176 -22 141 15T106 112Q106 208 173 208Q192 208 203 197T214 169Q214 143 195 125T156
107H153V100Q155 73 174 47T239 21Q245 21 259 23Q354 46 390 190Q391 193 392 200Q393 205 394 207Q412 276 412 312Q412 352 396 367T358 383Q288 383 233 314Q226 306 224 305T209 304H196Z" />
<glyph unicode="6" glyph-name="six" horiz-adv-x="511" d="M377 434Q425 434 457 404T499 341T509 278Q509 243 496 194T456 105T383 27Q322 -22 256 -22Q142 -22 122 114Q120 130 120 159Q120 221 135 292T195 452T310 599Q390 665 465 665Q565 665 565 583Q565
583 565 580T565 574Q565 543 546 524Q528 506 504 506Q491 506 478 514T465 543Q465 585 515 602Q505 626 466 626Q419 626 372 587Q334 557 305 503T266 409L255 370Q287 410 339 429Q361 434 377 434ZM424 333Q424 359 411 378T365 397Q318 397 282 356T230
257T205 157T197 94Q197 67 211 45T260 22Q313 22 341 57T386 151Q424 283 424 333Z" />
<glyph unicode="7" glyph-name="seven" horiz-adv-x="511" d="M466 519Q448 519 435 528T416 550T400 571T376 581Q324 581 271 540T186 437Q185 435 183 432T181 428T180 426T178 424T175 423T171 422T165 422Q165 422 163 422T159 422Q141 422 141 423Q136 423
136 431Q136 433 190 548T247 665Q249 666 266 666H282Q288 660 288 657Q288 654 280 637Q279 635 278 632T276 628T274 624L273 621V620Q337 666 390 666Q413 666 425 652T438 620T444 584T457 559Q460 557 470 557Q497 557 524 582T571 635T594 665Q595 666 612
666H628Q634 660 634 657Q634 653 618 629T572 556T510 441T437 269T367 43Q356 -22 304 -22Q291 -22 278 -14T263 14Q263 36 281 95T354 269T486 507Q497 524 495 524Q482 519 466 519Z" />
<glyph unicode="8" glyph-name="eight" horiz-adv-x="511" d="M209 449Q209 545 278 605T416 666Q482 666 517 631T553 546Q553 513 539 482T504 430T463 394T426 370L410 360L430 343Q471 309 483 278T495 211Q495 141 441 75Q363 -21 253 -21Q182 -21 141 18T99
117Q99 161 119 201T170 268T222 308T259 331L272 338L259 349Q212 389 209 449ZM492 542Q492 586 469 605T415 625Q360 625 320 587T279 505Q279 495 281 487T286 474T295 460T306 449T321 436T337 422Q346 414 357 405T374 391L379 386Q379 386 380 386Q389 386
420 412T472 471Q486 499 491 520Q492 526 492 542ZM163 118Q163 76 189 49T258 21Q316 21 368 64T420 170Q420 193 412 208T395 233T350 271L302 312Q298 312 284 303T249 276T209 235T177 181T163 118Z" />
<glyph unicode="9" glyph-name="nine" horiz-adv-x="511" d="M297 211Q258 211 230 228T189 273T169 323T163 367Q163 411 183 472T254 585Q327 656 401 665Q403 665 412 665T427 666Q458 664 481 652T518 622T539 580T550 535T553 491Q553 448 544 395T515 277T454
148T358 37Q282 -22 213 -22Q166 -22 137 -1T107 55V64Q107 88 114 104T134 127T154 136T169 138Q185 138 196 128T207 101Q207 82 196 68T172 48L161 43Q161 40 167 36T187 26T219 21Q286 21 344 99Q364 126 382 169T408 241T417 275L412 269Q406 263 395 253T370
234T337 218T297 211ZM476 552Q476 626 417 626Q368 626 330 584Q312 563 300 533T270 433Q248 341 248 312Q248 286 262 267T310 248Q353 248 387 287T440 380T467 480T476 552Z" />
<glyph unicode=":" glyph-name="colon" horiz-adv-x="307" d="M184 358Q184 385 206 408T258 431Q279 431 293 418T308 383Q308 354 284 332T233 310Q212 310 198 324T184 358ZM107 50Q107 76 129 98T181 121Q203 121 217 108T231 72Q231 47 210 24T156 0Q135
0 121 13T107 50Z" />
<glyph unicode=";" glyph-name="semicolon" horiz-adv-x="307" d="M184 358Q184 385 206 408T258 431Q279 431 293 418T308 383Q308 354 284 332T233 310Q212 310 198 324T184 358ZM107 47Q107 77 130 99T180 121Q226 121 226 61Q226 25 214 -14T182 -84T144 -140T109
-180T88 -194T77 -185T70 -172Q70 -169 84 -155T121 -112T161 -48Q180 -10 180 3Q180 4 174 2Q172 2 166 1T156 0Q135 0 121 13T107 47Z" />
<glyph unicode="=" glyph-name="equal" horiz-adv-x="767" d="M776 357T776 347T761 327H470Q180 327 176 329Q164 334 164 347Q164 359 176 365Q179 367 470 367H761Q776 357 776 347ZM116 143T116 153T131 173H422Q713 173 717 171Q728 166 728 153T717 135Q713
133 422 133H131Q116 143 116 153Z" />
<glyph unicode="?" glyph-name="question" horiz-adv-x="511" d="M235 431Q217 431 206 442T195 468Q195 490 215 537T280 638T380 707Q403 716 423 716Q425 716 429 716T436 715Q485 715 518 681T551 590Q551 543 530 503T482 439Q471 428 400 375T318 310Q300
287 300 259Q300 236 315 236Q333 236 352 251T384 300Q386 306 407 306H423Q429 300 429 297Q429 272 393 235T308 198Q287 198 269 215T251 270Q251 330 293 374L374 436Q377 438 401 456T432 480T457 503T481 531T494 561T501 598Q501 614 499 626Q482 678 430
678Q429 678 428 678T426 678Q392 678 362 660T311 615T280 571T264 540L259 528Q259 527 266 526T283 516T294 492Q294 466 276 449T235 431ZM209 51Q212 83 235 102T281 121Q309 121 321 105T333 72Q333 45 311 23T258 0Q240 0 225 11T209 51Z" />
<glyph unicode="@" glyph-name="at" horiz-adv-x="767" d="M198 250Q198 155 248 91T394 26Q514 26 640 80L650 84H675Q676 84 679 84T683 84Q709 84 709 76Q709 74 708 71Q706 64 660 45T534 8T383 -11T260 24T181 115Q152 168 152 248Q152 410 268 552Q303 590
324 608Q439 705 551 705Q611 705 658 683T733 623T775 543T789 454Q789 380 766 304T720 192Q677 125 617 125Q591 125 573 137T548 160T541 176Q541 178 540 178L534 173Q527 168 515 160T488 144T454 131T417 125Q361 125 320 166T279 284Q279 393 356 481T523
569Q570 569 603 537Q623 515 632 490L637 480L657 479Q684 479 684 470Q684 465 650 333L617 199V185Q616 162 628 162Q677 162 712 278Q743 381 743 442Q743 555 687 611T553 668Q467 668 385 608T250 450T198 250ZM598 445Q598 453 594 470T569 510T518 532Q463
532 410 448T356 271Q356 220 374 191T423 162Q482 162 552 255L575 348Q598 440 598 445Z" />
<glyph unicode="A" glyph-name="A" horiz-adv-x="743" d="M85 46Q112 48 132 56T161 73T176 92T185 104Q185 106 353 407T524 709Q527 716 551 716Q568 716 572 712Q573 711 574 710Q576 708 594 384Q613 54 617 52H618Q626 46 672 46H689Q696 41 696 36Q696 13
683 0H670Q639 2 557 2Q526 2 500 2T459 2T441 1Q425 1 425 10Q425 14 427 24Q428 27 429 31T430 36T432 40T434 43T437 45T443 46T450 46Q514 46 514 69Q514 74 511 136L506 209H292L260 152Q222 84 222 74Q222 48 264 46Q280 46 280 35Q280 31 278 21Q275 7 272
4T259 0Q256 0 232 1T159 2Q135 2 109 1T78 0Q66 0 62 2T58 10Q58 14 61 26T66 40Q68 46 85 46ZM504 260Q503 263 496 407T486 553L466 520Q446 486 402 406L318 256Q318 255 411 255H504V260Z" />
<glyph unicode="B" glyph-name="B" horiz-adv-x="704" d="M57 11Q57 38 69 45L74 46Q78 46 85 46T99 46Q134 47 145 50T162 62Q164 66 233 344T303 626Q303 627 302 629V631Q296 637 241 637H223Q217 642 217 645T219 664Q223 677 229 683H411L593 682L605 680Q616
678 628 675T660 662T694 639T720 601T732 547Q732 519 726 503Q710 452 662 414T556 360L545 357L556 355Q604 346 641 312T678 221Q678 155 622 92T482 8Q459 2 439 2T256 0H154Q143 0 127 0T105 0Q74 0 66 2T57 11ZM629 549Q628 550 629 557T627 576T619 600T601
622T570 636Q564 637 490 637Q472 637 454 637T424 636T411 636Q399 635 395 622T364 500Q333 377 332 376Q332 374 408 374L485 375L495 377Q547 390 588 437T629 549ZM504 336Q500 337 410 337Q323 337 322 336Q322 334 305 263T270 122T252 51Q252 47 337 46Q346
46 361 46T384 45Q425 45 455 55T515 95Q574 156 574 235Q574 276 555 304T504 336Z" />
<glyph unicode="C" glyph-name="C" horiz-adv-x="716" d="M395 -21Q279 -21 215 56T150 244Q150 402 265 543Q339 630 421 667T562 704Q596 704 604 703Q627 698 647 689T679 669T699 649T711 633T716 627L753 665Q790 704 792 704Q793 705 798 705Q812 705 812
698Q812 694 780 561Q744 422 744 421Q742 416 739 415T721 413H705Q699 419 699 426Q701 432 701 444Q705 464 705 493Q705 524 700 551T681 604T643 644T583 659Q480 659 387 570Q321 502 287 397T252 213Q252 123 297 74Q347 24 421 24Q500 24 564 89T653 240Q656
253 659 255T677 257Q691 257 695 256T700 248Q700 243 694 222Q681 183 656 143T593 65T504 3T395 -21Z" />
<glyph unicode="D" glyph-name="D" horiz-adv-x="755" d="M56 11Q56 38 68 45L72 46Q77 46 84 46T98 46Q133 47 144 50T161 62Q163 66 232 344T302 626Q302 627 302 629L301 631Q295 637 240 637H222Q216 642 216 645T218 664Q222 677 228 683H403Q582 683 589
682Q672 674 723 608T775 440Q775 312 709 209T562 54Q502 14 432 2Q423 1 243 0H148Q138 0 123 0T102 0Q72 0 64 2T56 11ZM254 51Q254 46 348 46Q395 46 422 50T484 71Q585 121 633 255Q679 396 679 477Q679 522 665 554T629 603T587 626T548 636Q547 636 536
636T510 636T480 637Q420 637 411 636T398 627Q396 623 325 339T254 51Z" />
<glyph unicode="E" glyph-name="E" horiz-adv-x="678" d="M299 623Q299 630 292 631T248 634Q216 634 214 640Q213 642 213 646Q213 655 216 665T224 678Q226 680 481 680H736Q743 676 743 669Q743 665 729 557T713 447Q711 440 690 440H675Q667 445 667 454Q667
455 671 481T675 536Q675 583 658 604T592 632Q574 634 475 634Q439 634 424 633T405 631T399 625Q397 622 367 501T336 377Q336 376 367 376Q371 376 377 376T388 376Q424 376 442 378T477 389Q493 399 503 419T520 462T528 489Q531 493 549 493Q557 493 561 492T566
491T569 488T572 483L539 351Q507 221 503 216Q503 216 500 213H484Q468 213 465 216Q461 219 461 225Q461 228 466 249T472 290Q472 317 452 323T368 330H324Q323 326 289 191T255 51T331 46Q336 46 345 46T360 46Q440 46 489 58T570 113Q589 137 608 175T638
242T652 272Q656 274 670 274Q693 274 693 262L648 148Q590 4 588 2Q585 0 323 0H61Q54 4 54 11Q54 27 61 41Q65 46 95 46Q131 47 142 50T159 62L194 200Q229 337 264 477T299 623Z" />
<glyph unicode="F" glyph-name="F" horiz-adv-x="653" d="M299 623Q299 630 292 631T247 634H219Q213 640 213 642T215 661Q218 673 225 680H724Q731 676 731 669Q731 665 717 557T701 447Q699 440 678 440H663Q656 444 656 452Q656 457 659 485T663 538Q663 586
644 607T566 633Q564 633 535 633T486 634Q480 634 471 634T458 634Q425 634 414 633T399 625Q396 620 364 492L332 363H380Q446 365 464 373Q496 389 514 458Q518 477 523 479Q527 480 541 480H556Q563 475 563 470Q563 467 532 339T498 207Q496 200 475 200H460Q453
207 453 212Q454 213 456 225T461 254T464 278Q464 304 445 310T369 317H321L289 190Q257 66 257 59Q257 54 261 52T283 48T337 46Q347 46 351 46T360 45T366 42T368 37Q368 33 365 23Q360 4 355 2Q352 1 342 1Q336 1 297 1T199 2Q138 2 106 2T71 1Q71 1 70 1T68
1Q54 1 54 11Q54 38 66 45L70 46Q75 46 82 46T96 46Q131 47 142 50T159 62L194 200Q229 337 264 477T299 623Z" />
<glyph unicode="G" glyph-name="G" horiz-adv-x="774" d="M394 -22Q287 -22 219 52T150 244Q150 402 265 543Q339 630 421 667T562 704Q596 704 604 703Q627 698 647 689T679 669T699 649T711 633T716 627L753 665Q790 704 792 704Q793 705 798 705Q812 705 812
698Q812 694 780 561Q744 422 744 421Q742 416 739 415T721 413H705Q699 419 699 426Q701 432 701 444Q705 464 705 493Q705 524 700 551T681 604T643 644T583 659Q480 659 387 570Q319 501 286 394T252 208Q252 156 269 118T314 61T369 33T425 24Q470 24 509 46T566
104Q571 116 583 162T595 214Q595 222 583 223Q561 227 517 227H495Q488 230 488 238Q488 254 495 268Q500 273 511 273Q515 273 532 273T581 272T649 271Q731 271 752 273H761Q767 267 767 264T765 246Q761 233 755 227H742Q698 227 693 213L639 4Q636 -1 632
-1Q629 -1 614 14Q596 32 583 53Q508 -22 394 -22Z" />
<glyph unicode="H" glyph-name="H" horiz-adv-x="743" d="M61 0Q54 7 54 11Q54 27 61 41Q65 46 95 46Q131 47 142 50T159 62Q161 66 230 344T300 626Q300 627 300 629L299 631Q293 637 238 637H220Q214 642 214 645T216 664Q220 677 226 683H239Q307 681 372 681Q480
681 486 683H496Q502 677 502 674T500 656Q496 643 490 637H472Q418 637 406 630Q400 627 396 612T367 500Q360 474 352 442T340 395L336 380Q336 378 466 378H596Q657 622 657 626Q657 627 656 629V631Q650 637 595 637H577Q571 642 571 645T573 664Q577 677 583
683H596Q664 681 729 681Q837 681 843 683H853Q860 676 860 672Q858 647 848 637H819Q783 636 772 634T756 623Q753 618 684 340T614 57Q614 50 621 49T666 46Q697 46 699 40Q701 37 698 21Q693 3 689 1Q686 0 677 0Q673 0 657 0T611 1T546 2Q453 2 428 0H418Q411
7 411 11Q411 27 418 41Q422 46 452 46Q488 47 499 50T516 62Q517 64 550 196T584 331Q584 332 454 332H324L291 197Q257 64 257 56Q257 50 265 49T309 46Q340 46 342 40Q344 37 341 21Q336 3 332 1Q329 0 320 0Q316 0 300 0T254 1T189 2Q96 2 71 0H61Z" />
<glyph unicode="I" glyph-name="I" horiz-adv-x="386" d="M300 625Q300 637 235 637Q212 637 210 643Q209 645 209 649Q209 657 212 668T220 682Q222 683 237 683Q278 681 369 681Q404 681 441 682T483 683Q499 683 503 681T508 672Q508 670 505 658T500 643Q498
637 464 637Q425 635 415 633T398 621Q396 618 327 340T257 58T260 52T278 48T322 46Q338 46 343 45T349 36Q349 32 346 22Q342 4 337 1Q336 1 334 1T329 0Q325 0 307 0T258 1T190 2Q95 2 67 0H56Q49 7 49 11Q51 38 62 46H91Q129 47 141 50T159 62Q161 66 230 344T300
625Z" />
<glyph unicode="J" glyph-name="J" horiz-adv-x="525" d="M444 627Q444 637 361 637Q341 637 337 638T331 644Q330 645 330 649Q330 657 333 668T341 682Q343 683 360 683Q405 681 500 681Q551 681 577 681T607 682Q622 682 622 673Q622 665 616 647Q614 640 610
639T587 637Q547 636 541 624Q538 618 477 374T413 124Q391 64 333 22T207 -21T109 12T78 86Q78 130 101 150T149 170Q193 170 196 129Q196 100 178 80T137 58L132 57Q134 52 138 46T160 28T205 16Q242 16 273 48T319 122Q322 129 383 371T444 627Z" />
<glyph unicode="K" glyph-name="K" horiz-adv-x="769" d="M54 11Q54 38 66 45L70 46Q75 46 82 46T96 46Q131 47 142 50T159 62Q161 66 230 344T300 626Q300 627 300 629L299 631Q293 637 238 637H220Q214 642 214 645T216 664Q220 677 226 683H239Q307 681 372
681Q386 681 414 681T464 682L487 683H496Q502 677 502 674T500 656Q495 641 491 637H462Q426 636 415 634T399 623Q396 618 358 467L320 314Q321 314 484 452Q511 475 555 512Q626 571 647 590T668 621Q668 624 665 628Q659 635 645 637Q629 637 629 648Q629 650
632 662T637 677Q640 682 653 682Q657 682 688 681T764 680Q786 680 810 681T839 682Q851 682 855 680T859 672Q859 655 852 643Q849 637 839 637Q804 637 768 621T717 595T697 578Q696 578 600 497L505 417L508 408Q543 311 574 227T618 106T632 69Q645 47 688
46H707Q713 38 713 37T710 19Q706 6 700 0H688Q659 2 587 2Q557 2 532 2T492 2T474 1Q458 1 458 10Q458 15 460 23Q464 39 466 42T480 46Q526 46 526 72Q526 75 476 213L427 350Q426 350 396 325T334 272T302 242Q302 241 299 230T290 194T279 150Q257 61 257 55Q257
50 265 49T309 46H337Q343 40 343 38T341 19Q337 6 331 0H316Q280 2 190 2Q158 2 131 2T89 2T70 1Q54 1 54 11Z" />
<glyph unicode="L" glyph-name="L" horiz-adv-x="627" d="M61 0Q54 4 54 11Q54 27 61 41Q65 46 95 46Q131 47 142 50T159 62Q161 66 230 344T300 626Q300 627 300 629L299 631Q293 637 238 637H220Q214 642 214 645T216 664Q220 677 226 683H240Q275 681 371 681Q407
681 438 681T487 682T509 682Q519 682 523 681T527 674Q527 670 524 659Q523 657 522 653T521 647T519 643T517 640T514 639T509 637T503 637T494 637Q492 637 487 637T478 637Q433 636 417 633T396 617Q395 614 325 334T255 51Q255 47 319 47Q387 47 410 52Q459
65 494 98T543 163T570 229T589 273H622Q628 264 628 262Q628 259 584 133T539 5Q537 1 511 1Q482 0 296 0H61Z" />
<glyph unicode="M" glyph-name="M" horiz-adv-x="897" d="M72 1Q58 1 58 11Q58 33 66 41Q68 46 87 46Q150 50 168 84Q172 91 238 356T304 626Q304 627 304 629L303 631Q297 637 242 637H224Q218 642 218 645T220 664Q224 677 230 683H326Q344 683 366 683T394
683Q417 683 422 682T429 676L480 127L502 163Q523 199 560 262T642 400Q801 668 805 676L817 683H1003Q1010 678 1010 672Q1010 650 997 637H979Q915 637 906 623Q903 618 834 340T764 57Q764 50 771 49T817 46H845Q851 38 851 37T848 19Q845 7 838 0H824Q789
2 701 2Q670 2 644 2T603 2T584 1Q576 1 573 3T569 11Q569 16 571 25Q576 42 581 45L586 46Q590 46 597 46T611 46Q646 47 657 50T674 62L813 616L634 313Q453 7 452 7Q446 0 428 0Q409 0 407 6Q405 10 379 304T351 604L285 348Q220 83 220 82Q220 65 233 57T279
46H295Q301 38 301 37T298 19Q295 7 288 0H275Q244 2 171 2Q145 2 123 2T88 2T72 1Z" />
<glyph unicode="N" glyph-name="N" horiz-adv-x="743" d="M61 0Q54 7 54 11T57 27Q61 41 64 43T83 46Q146 50 164 84Q167 90 235 362L303 634Q300 635 253 637H220Q214 643 214 645T216 664Q220 677 226 683H314Q386 683 397 683T410 677Q412 675 501 428L591
179Q591 178 592 180T595 189T600 209T610 246T624 303T645 385Q698 595 698 606Q698 618 683 627T633 637Q624 637 620 640Q617 643 617 650Q617 670 630 683H641Q682 680 736 680Q836 680 845 683H853Q860 676 860 672Q858 647 848 637H832Q764 633 750 598Q746
590 673 300Q656 230 638 156T610 44L600 7Q598 0 576 0H559Q553 6 448 297L342 588Q341 588 279 336T216 81Q216 49 274 46Q293 46 295 40Q297 37 294 21Q293 19 292 16T291 11T290 7T289 4T287 2T284 1T280 1T275 0T263 0T229 1T167 2Q91 2 70 0H61Z" />
<glyph unicode="O" glyph-name="O" horiz-adv-x="767" d="M149 237Q149 326 186 413T282 563T412 665T552 704Q619 704 667 678T741 611T777 528T788 444Q788 328 728 219T572 44T377 -22Q275 -22 212 50T149 237ZM688 487Q688 570 650 617T548 665Q467 665 398
592T291 413T253 203Q253 119 290 70T387 20Q440 20 489 52T573 135T635 249T675 373T688 487Z" />
<glyph unicode="P" glyph-name="P" horiz-adv-x="678" d="M62 0Q55 7 55 11Q55 27 62 41Q66 46 96 46Q132 47 143 50T160 62Q162 66 231 344T301 626Q301 627 300 629V631Q294 637 239 637H221Q215 642 215 645T217 664Q221 677 227 683H404Q417 683 431 683Q445
683 468 683T502 683Q578 683 615 675T684 636Q729 595 729 531Q729 462 671 396T524 308Q499 302 404 301H318L288 182Q258 63 258 55T310 46Q341 46 343 40Q345 37 342 21Q337 3 333 1Q330 0 321 0Q317 0 301 0T255 1T190 2Q97 2 72 0H62ZM626 555Q626 556 626
558T626 562Q626 620 552 635Q546 636 481 637Q466 637 450 637T423 636T412 636Q401 635 398 627Q396 622 361 484Q353 452 344 416T330 362L325 344Q325 342 390 342Q396 342 408 342T427 342Q472 342 506 350T567 386Q596 415 611 473T626 555Z" />
<glyph unicode="Q" glyph-name="Q" horiz-adv-x="767" d="M460 -107Q460 -72 464 -42T468 -7L457 -10Q446 -14 424 -18T379 -22Q276 -22 213 50T149 237Q149 326 186 413T282 563T412 665T552 704Q664 704 726 631T788 442Q788 305 703 180Q627 64 517 13L506
8Q506 7 508 -12T513 -38T522 -59T538 -79T565 -85Q604 -85 634 -59T672 0Q676 11 684 11Q693 11 695 2Q695 -1 690 -20T673 -69T644 -126T599 -174T538 -194Q464 -194 460 -110Q460 -108 460 -107ZM689 481Q689 578 646 621T551 665Q468 665 391 586Q321 512 285
399T249 202Q249 106 295 58Q310 41 314 41Q315 41 315 46Q315 83 344 118T420 154Q450 154 473 135Q493 114 500 69L502 58L512 65Q571 110 613 192T672 348T689 481ZM472 49Q472 118 415 118Q393 118 373 98T353 51Q353 36 360 28T373 19T386 18Q387 18 387 18Q424
18 472 40V49Z" />
<glyph unicode="R" glyph-name="R" horiz-adv-x="729" d="M62 0Q55 7 55 11Q55 27 62 41Q66 46 96 46Q132 47 143 50T160 62Q162 66 231 344T301 626Q301 627 300 629V631Q294 637 239 637H221Q215 642 215 645T217 664Q221 677 227 683H386Q554 682 569 679Q571
678 580 676Q643 662 680 623T717 533Q717 473 667 420T528 337L538 330Q563 314 578 286T594 228Q594 212 588 147T581 65Q581 36 589 26T616 16Q616 16 617 16T618 16Q638 16 652 37Q668 57 677 94Q679 105 701 105T723 95Q723 89 717 72T698 33T662 -5T610 -22Q555
-22 513 3T471 88Q471 107 486 168T502 244Q502 303 452 320Q445 322 382 323H320L288 192Q255 63 255 55T307 46Q338 46 340 40Q342 37 339 21Q335 3 330 1Q326 0 320 0Q317 0 306 0T265 1T190 2Q99 2 73 0H62ZM612 558Q612 566 612 568T610 581T603 597T590 611T567
625T532 635Q526 636 470 637Q458 637 445 637T422 636T412 636Q402 635 397 627L390 598Q383 570 373 532T354 455T337 389T330 361Q356 360 384 360Q390 360 400 360T415 360Q484 360 527 382Q557 399 574 424T604 498Q612 533 612 558Z" />
<glyph unicode="S" glyph-name="S" horiz-adv-x="562" d="M198 460Q198 551 269 628T432 705Q516 705 557 644L583 673Q589 680 595 686T603 695T608 700T611 703T614 704T618 705H620Q633 705 633 698T605 577T573 459L570 456H554Q546 456 543 456T536 457T532
460T531 466Q531 469 533 489T536 532Q536 573 525 600T496 640T462 657T427 662Q369 662 325 612T281 503Q281 475 290 458T318 430T356 415T407 401T463 383Q506 360 522 323T538 258V244Q538 141 465 60T300 -22Q198 -22 152 41L143 31Q137 25 126 12T106 -10T95
-21L92 -22Q88 -22 86 -22Q81 -22 78 -20T74 -16V-14Q74 -11 132 221Q134 227 155 227H171Q177 221 177 215Q177 213 175 205T171 182T169 147Q171 99 195 70T246 33T306 25Q358 25 400 70T453 169Q455 180 455 203Q455 204 455 206T455 210Q455 263 414 285Q409
288 347 305Q271 328 254 339Q239 350 224 371Q198 409 198 460Z" />
<glyph unicode="T" glyph-name="T" horiz-adv-x="716" d="M178 437Q173 442 171 446Q171 451 238 654Q243 670 250 677H524H681Q702 677 728 677T762 677Q791 677 798 676T806 667Q806 661 788 553T768 444Q768 437 746 437Q727 437 723 445Q723 450 729 492T736
562Q736 589 728 602T693 624Q675 630 622 630Q616 630 607 630T595 630Q574 630 571 629T564 623Q562 621 492 342T422 59Q422 48 502 46H542Q548 38 548 37T545 19Q541 6 535 0H517Q475 2 357 2Q315 2 279 2T223 2T198 1Q187 1 183 2T179 9Q179 13 182 24Q183
26 184 30T185 36T186 39T188 42T190 44T194 46T199 46T206 46Q208 46 217 46T232 46Q289 47 301 49T326 65L395 344Q465 619 465 626Q465 629 462 629Q456 631 411 631Q364 631 336 625T288 597T255 549T224 467Q215 442 210 437H178Z" />
<glyph unicode="U" glyph-name="U" horiz-adv-x="743" d="M378 -22Q300 -22 247 31T194 167Q194 176 194 182T196 198T200 218T207 248T217 288T231 346T250 422Q300 618 300 626Q300 627 300 629L299 631Q293 637 238 637H220Q214 642 214 645T216 664Q220 677
226 683H239Q307 681 372 681Q480 681 486 683H496Q502 677 502 674T500 656Q496 643 490 637H472Q418 637 406 630Q400 627 394 603T344 410Q299 232 292 198T284 135Q284 102 294 78T322 44T355 29T387 24Q455 24 515 74T604 211Q605 215 653 404T701 607Q701
618 686 627T636 637Q627 637 623 640Q620 643 620 650Q620 670 633 683H644Q702 681 753 681Q760 681 772 681T796 681T820 682T838 683H845H853Q860 676 860 672Q858 647 848 637H832Q764 633 750 598Q745 588 698 400T648 204Q627 140 584 86Q484 -22 378 -22Z"
/>
<glyph unicode="V" glyph-name="V" horiz-adv-x="743" d="M229 637Q205 637 205 648Q205 654 208 666T217 682Q219 683 230 683Q276 680 329 680Q444 680 456 683H466Q472 677 472 674T470 656Q466 643 460 637H448Q384 637 384 615Q385 612 406 371T427 126Q427
125 495 240T632 473T704 596Q707 603 707 609Q707 632 667 637Q656 637 653 641Q650 644 650 650Q650 670 663 683H675Q704 681 772 681Q794 681 818 682T847 683Q859 683 863 681T868 672Q868 670 865 658T860 643Q857 637 848 637Q785 637 749 587L394 -15Q387
-22 366 -22Q346 -22 342 -16Q341 -13 313 303Q285 622 285 623Q283 631 273 634T229 637Z" />
<glyph unicode="W" glyph-name="W" horiz-adv-x="999" d="M234 637Q233 637 231 637T226 637Q205 637 205 648Q205 673 216 682Q218 683 231 683Q265 681 340 681Q371 681 404 682T443 683Q458 683 462 681T467 672Q467 670 464 658T459 643Q457 637 434 637Q407
636 394 632T378 623T376 613Q376 589 385 377T394 149L511 361Q542 419 596 519L613 551L612 585Q610 621 610 624Q608 637 559 637H555Q545 637 541 638T537 647Q537 653 540 664Q544 677 550 683H561Q600 680 656 680Q771 680 783 683H792Q798 677 798 675T796
658Q793 643 790 640T778 637H774Q721 637 708 620L717 385Q726 150 727 149Q727 148 752 193T812 303T882 433T942 546T969 596Q970 601 970 606Q970 617 962 624T945 633T924 637Q921 637 920 637Q910 637 907 639T903 648Q903 653 905 664Q909 677 915 683H928Q960
681 1031 681Q1050 681 1073 681T1101 682Q1115 682 1119 680T1124 672Q1124 655 1117 643Q1114 637 1104 637Q1085 637 1069 632T1043 618T1026 603T1014 588L1009 580L687 -16Q681 -22 660 -22Q643 -22 637 -16Q635 -14 627 223Q617 441 617 464L602 441Q578
397 487 228Q456 171 423 110T372 17T355 -15Q348 -22 328 -22Q312 -22 308 -20T303 -9Q303 -5 291 310T277 627Q273 636 234 637Z" />
<glyph unicode="X" glyph-name="X" horiz-adv-x="743" d="M64 0Q50 0 50 11Q50 15 53 27Q57 41 60 43T78 46Q154 49 205 100Q207 103 312 225L411 341L407 353Q404 360 381 428T336 560T310 627Q301 636 255 637H229Q223 643 223 645T225 664Q229 677 235 683H246Q288
680 346 680Q462 680 477 683H487Q493 677 493 674T491 656Q488 644 485 641T471 637Q461 635 454 635Q419 626 421 619Q421 617 453 524T486 430T554 509T624 593Q631 604 631 611Q631 622 621 629T598 637Q583 637 583 648Q583 653 585 660Q589 676 591 679T602
683Q606 683 637 682T715 680Q742 680 771 681T804 682Q825 682 825 672Q825 650 817 642Q814 637 797 637Q739 634 700 608Q684 597 659 569T505 389L501 384L557 222Q612 61 616 57Q625 47 671 46Q692 46 698 45T704 36Q704 33 702 23Q701 20 700 16T699 11T698
7T696 3T694 1T690 0T684 0T662 1Q645 2 569 2Q512 2 482 2T449 1Q433 1 433 10Q433 13 435 25Q437 34 438 37T442 43T448 45T459 46T476 49Q506 58 506 64Q506 65 467 179T426 295L382 244Q339 194 295 142T249 86Q245 79 245 72Q245 48 279 46Q293 46 293 32Q293
24 289 14T280 0H268Q206 2 151 2Q70 2 64 0Z" />
<glyph unicode="Y" glyph-name="Y" horiz-adv-x="743" d="M232 637Q198 637 198 647Q198 651 201 664T210 682Q212 683 223 683Q269 680 325 680Q443 680 455 683H465Q472 676 472 672Q472 656 465 642Q460 637 441 637Q395 634 395 623Q395 621 438 478T482 334T583
460T688 591Q688 593 694 601T700 617Q700 637 668 637H666Q655 637 655 648Q655 654 658 664Q660 672 660 673T663 678T668 682T677 683Q680 683 704 682T776 680Q801 680 828 681T858 682Q868 682 871 680T875 673Q875 669 872 657T867 643Q865 637 848 637Q788
634 749 597Q733 581 608 424L487 273L461 170Q454 145 448 118T438 76T434 60Q434 54 436 52T452 48T496 46H514Q520 41 520 38T518 19Q514 6 508 0H495Q427 2 364 2Q350 2 323 2T272 0H250H241Q234 7 234 11Q234 27 241 41Q245 46 275 46Q312 47 323 50T340 64Q340
65 344 79T355 120T368 171L393 274L341 448Q288 622 286 626Q278 636 232 637Z" />
<glyph unicode="Z" glyph-name="Z" horiz-adv-x="613" d="M303 0Q253 0 197 0T131 -1Q112 -1 103 -1T88 1T81 3T80 8Q80 30 89 39Q90 41 204 178T446 470T575 626L584 637H512Q508 637 504 637T490 637T475 637Q446 637 426 635T378 624T330 597T289 547T254 467Q247
446 243 444Q239 442 226 442Q213 442 209 444Q201 450 204 457Q266 673 270 677Q270 681 274 681Q276 683 488 683H699Q704 678 704 675Q704 663 697 649Q697 647 449 348L201 50L266 49Q271 49 282 49T301 49Q362 49 412 62T495 116Q525 155 556 251Q563 274
565 278T579 282H585Q609 285 609 271Q609 270 570 142T528 8Q526 2 518 1T466 0Q456 0 403 0T303 0Z" />
<glyph unicode="[" glyph-name="bracketleft" horiz-adv-x="307" d="M137 -250Q131 -250 121 -250T106 -250Q73 -250 73 -242Q73 -232 194 255T321 747L324 750H381Q389 750 401 750T417 750Q434 750 440 748T446 739Q446 730 443 723T437 712L434 710H350L349
706Q349 704 235 249T120 -208Q120 -210 159 -210Q166 -210 175 -210T187 -209Q197 -209 201 -211T205 -221Q205 -225 204 -232Q200 -244 194 -250H137Z" />
<glyph unicode="]" glyph-name="bracketright" horiz-adv-x="307" d="M83 -206Q83 -204 197 251T312 708Q312 710 273 710Q266 710 257 710T245 709Q235 709 231 711T227 721Q227 725 228 732Q232 744 238 750H295Q301 750 311 750T326 750Q359 750 359 742Q359
732 238 245T111 -247L108 -250H51Q43 -250 31 -250T15 -250Q-2 -250 -8 -248T-14 -239Q-14 -230 -11 -223T-5 -212L-2 -210H82L83 -206Z" />
<glyph unicode="^" glyph-name="asciicircum" horiz-adv-x="511" d="M528 555Q528 549 514 538T496 527Q491 527 470 554Q458 569 449 580L414 625L353 578Q339 567 323 555T298 536L290 529Q288 527 285 527Q281 527 278 530T271 536T266 544T262 550T260 553Q260
559 263 562Q265 564 342 628T421 693T425 694Q430 694 433 691Q528 563 528 555Z" />
<glyph unicode="_" glyph-name="underscore" horiz-adv-x="511" d="M98 -62Q91 -58 91 -51Q91 -31 100 -26Q102 -25 324 -25H442Q455 -25 474 -25T500 -25Q536 -25 545 -27T554 -36Q554 -50 548 -56Q546 -60 538 -61Q520 -62 319 -62H98Z" />
<glyph unicode="a" glyph-name="a" horiz-adv-x="511" d="M101 146Q101 260 177 351T333 442Q343 442 352 441T369 437T382 431T393 425T402 417T409 410T414 402T419 396Q423 406 436 414T461 422Q475 422 484 413T494 395Q494 384 459 244T420 88Q418 80 418
58Q418 56 418 53Q418 29 431 27Q434 26 438 26Q467 26 494 131Q500 151 504 152Q507 153 516 153H521Q531 153 534 153T540 150T543 144Q543 141 540 126T529 88T509 43T477 5T434 -11Q404 -11 383 3T354 30T347 48H346Q345 47 342 45T337 40Q282 -11 228 -11Q172
-11 137 34T101 146ZM397 323Q397 344 382 374T333 405Q302 405 271 372Q249 349 235 316T203 215Q184 135 184 108V100Q184 97 184 94Q184 54 207 35Q218 26 235 26Q279 26 330 91Q343 109 346 118T372 217Q397 317 397 323Z" />
<glyph unicode="b" glyph-name="b" horiz-adv-x="460" d="M158 683Q163 683 223 688T300 694Q312 694 312 685T279 544Q243 405 243 403L256 412Q268 422 292 432T338 442Q395 442 431 398T467 284Q467 175 393 82T229 -11Q175 -11 142 32T108 142Q108 176 115
207T166 412Q177 458 190 510T209 588T216 616Q216 629 209 632T170 637H149Q143 643 143 645T145 664Q150 683 158 683ZM178 109Q178 27 234 27Q247 27 254 29Q295 44 323 94Q343 129 363 208T384 332Q384 354 382 361Q369 405 332 405Q282 405 228 326L222 317L205
250Q178 142 178 109Z" />
<glyph unicode="c" glyph-name="c" horiz-adv-x="460" d="M257 -10Q183 -10 143 37T103 155Q103 257 173 341T337 440Q341 441 348 441H358Q421 441 445 415T469 356Q469 320 450 305T410 289Q392 289 381 299T370 325Q370 362 404 378L414 383Q392 402 365 405Q322
405 285 375T227 294Q217 271 202 213T187 119Q187 27 263 27Q299 27 330 40Q361 51 386 71T424 106T440 121Q444 121 455 110T466 96Q466 92 458 81T432 54T391 24T332 0T257 -10Z" />
<glyph unicode="d" glyph-name="d" horiz-adv-x="511" d="M413 683Q418 683 478 688T555 694Q567 694 567 686Q567 676 495 389L419 86Q418 80 418 61Q418 61 418 59T418 54Q418 29 431 27Q434 26 438 26Q467 26 494 131Q500 151 504 152Q507 153 516 153H521Q522
153 523 153T526 153Q536 153 539 152T543 144Q543 140 541 129Q531 91 521 65T487 14T434 -11T383 3T354 30T347 48H346Q345 47 342 45T337 40Q282 -11 228 -11Q172 -11 137 34T101 146Q101 255 174 348T337 441Q354 441 368 437T390 427T404 414T413 404T417
400Q418 400 444 504T471 616Q471 629 464 632T425 637H404Q398 643 398 645T400 664Q405 683 413 683ZM397 323Q397 329 394 340T385 367T365 394T333 405Q302 405 271 372Q249 349 235 316T203 215Q184 135 184 108V100Q184 71 191 56Q204 26 235 26Q267 26 300
57T344 112Q347 117 372 217T397 323Z" />
<glyph unicode="e" glyph-name="e" horiz-adv-x="460" d="M107 166Q107 230 131 283T193 369T270 420T345 441Q346 441 352 441T361 442H364Q409 442 439 418T470 355Q470 270 366 239Q308 223 218 223H205Q189 164 189 125Q189 83 206 55T261 27Q309 27 353 50T426
109Q436 121 440 121T453 111T466 97Q469 92 455 77Q424 41 372 16T258 -10Q184 -10 146 41T107 166ZM416 333T416 354T401 390T360 405Q322 405 292 384T246 336T223 288T215 261Q215 260 240 260Q262 261 276 262T314 266T353 275T384 291T408 317Z" />
<glyph unicode="f" glyph-name="f" horiz-adv-x="307" d="M-23 -134Q-23 -100 -3 -85T37 -69Q54 -69 65 -79T76 -108Q76 -113 75 -119Q70 -134 61 -144T46 -158L39 -161Q39 -162 42 -163T50 -166T61 -168Q67 -168 72 -166Q81 -161 91 -145Q98 -128 105 -95L125
-1Q145 90 146 98Q149 109 163 180T189 317T202 384T158 385H114Q108 390 108 393T110 412Q113 424 120 431H165Q211 431 211 433Q213 435 219 473T237 561T266 639Q282 667 310 686T367 705Q402 705 426 686T450 635Q450 600 430 585T390 569Q373 569 362 579T351
608Q351 613 352 619Q360 645 389 661Q368 668 365 668Q358 668 352 664Q349 663 347 661T342 654T337 647T333 637T330 627T327 614T324 601T321 587T318 571L291 432Q291 431 343 431H394Q400 426 400 423T398 404Q394 390 389 386L335 385H282L255 246Q212 20
189 -51Q136 -199 58 -204Q22 -204 0 -185T-23 -134Z" />
<glyph unicode="g" glyph-name="g" horiz-adv-x="460" d="M103 163Q106 263 173 347T320 441Q322 441 329 441T341 442Q387 439 419 398Q420 399 420 400Q421 402 425 406T440 416T464 422Q476 421 485 413T494 396Q494 386 465 268T407 38T377 -77Q365 -123 310
-164T179 -205Q46 -205 46 -139Q46 -114 64 -97T106 -79Q127 -79 136 -91T146 -115Q146 -127 141 -138T130 -155T124 -162T125 -163Q133 -166 170 -168Q200 -168 217 -162Q242 -153 264 -130T297 -78Q298 -74 305 -46T320 10T327 38Q326 38 317 31T291 15T256 2Q249
1 231 1Q182 1 143 38T103 163ZM398 324Q398 330 395 346T375 383T332 405Q330 405 326 405T320 404Q291 396 263 365Q230 324 208 239T185 115Q185 38 238 38Q258 38 279 50T312 77T336 106L348 122Q349 125 373 223T398 324Z" />
<glyph unicode="h" glyph-name="h" horiz-adv-x="511" d="M158 683Q163 683 223 688T300 694Q312 694 312 685Q312 674 277 539Q241 395 241 393Q242 394 249 399T259 407T271 415T285 424T300 431T318 437T338 440T362 442Q423 442 449 410T475 338Q475 300 456
238T417 121T398 44Q398 41 398 38Q400 26 414 26Q432 26 451 43Q477 71 496 136Q499 148 501 150T515 153H521Q531 153 534 153T541 150T544 143Q544 133 534 105T496 41T432 -8Q424 -10 408 -10Q370 -10 348 12T326 72Q326 93 342 135Q397 288 397 349Q397 367
396 372Q386 405 357 405Q283 405 228 310Q217 290 212 274T180 152Q153 42 148 26T135 3Q121 -11 102 -11Q89 -11 80 -3T69 19L216 616Q216 629 209 632T170 637H149Q143 643 143 645T145 664Q150 683 158 683Z" />
<glyph unicode="i" glyph-name="i" horiz-adv-x="307" d="M234 599Q234 620 251 638T292 656Q306 656 319 647T332 617Q332 594 313 577T273 560Q260 560 247 569T234 599ZM75 287Q75 292 82 313T103 362T142 413T196 441H207H214Q248 441 270 419T293 357Q292
338 289 330T245 208Q193 72 193 46Q193 26 209 26Q228 26 247 43Q273 71 292 136Q295 148 297 150T311 153H317Q327 153 330 153T337 150T340 143Q340 133 330 105T292 41T228 -8Q220 -10 204 -10Q160 -10 141 15T122 71Q122 98 171 227T221 384Q221 396 218 400T203
405Q175 403 156 374T128 312T116 279Q115 278 97 278H81Q75 284 75 287Z" />
<glyph unicode="j" glyph-name="j" horiz-adv-x="307" d="M266 600Q266 622 283 639T322 656Q340 656 352 645T364 616Q364 596 347 578T305 560Q291 560 279 569T266 600ZM75 287Q75 293 86 316T117 369T168 420T236 442Q282 442 304 415T327 358V349V332L278
134Q269 98 260 60T246 3T236 -36T227 -66T220 -85T213 -101T204 -114Q181 -150 139 -177T46 -204Q8 -204 -12 -186T-32 -140Q-32 -112 -14 -96T27 -79Q48 -79 57 -91T67 -114Q67 -146 38 -166Q42 -168 49 -168Q75 -168 98 -147T130 -108T146 -71Q150 -59 199 138T250
346Q253 359 253 373Q253 405 230 405Q206 405 184 386T149 345T126 301L117 280Q115 278 98 278H81Q75 284 75 287Z" />
<glyph unicode="k" glyph-name="k" horiz-adv-x="460" d="M158 683Q163 683 223 688T300 694Q312 694 312 686Q312 679 262 478L211 273Q212 272 219 276T248 299T296 349Q317 371 328 382T360 410T399 434T439 442Q462 442 480 427T498 373Q498 329 479 313T437
296Q420 296 409 305T398 331Q398 357 413 372T445 391Q454 392 448 399Q444 405 431 405Q407 405 377 385Q351 368 314 327T250 261Q243 257 243 254Q249 254 279 243T328 220Q366 192 366 146Q366 131 361 109T355 62V54Q355 26 376 26Q381 26 387 28Q420 36
443 130Q449 151 454 152Q457 153 465 153H470Q484 153 488 152T492 144Q492 141 489 126T476 88T454 42T420 5T372 -11Q331 -11 306 17T280 88Q280 100 283 119T287 146Q287 172 265 190T221 215T198 220Q197 220 173 121Q152 37 148 24T135 3Q121 -11 102 -11Q89
-11 80 -3T69 19L216 616Q216 629 209 632T170 637H149Q143 643 143 645T145 664Q150 683 158 683Z" />
<glyph unicode="l" glyph-name="l" horiz-adv-x="256" d="M158 683Q163 683 223 688T300 694Q312 694 312 686Q312 676 240 389L164 86Q162 74 162 61Q162 30 176 27Q179 26 183 26Q212 26 239 131Q245 151 249 152Q252 153 261 153H266Q267 153 268 153T271 153Q281
153 284 152T288 144Q288 140 286 129Q276 91 266 65T232 14T179 -11Q144 -11 116 12T87 81Q87 96 88 102L216 616Q216 629 209 632T170 637H149Q143 643 143 645T145 664Q150 683 158 683Z" />
<glyph unicode="m" glyph-name="m" horiz-adv-x="818" d="M81 278Q75 284 75 289Q77 299 89 338Q101 374 114 397T142 428T166 439T186 442Q186 442 187 442T189 442Q225 440 251 417Q266 401 271 384L275 374L286 386Q342 442 414 442Q428 442 440 440T461 435T479
427T493 418T503 407T511 397T516 387T520 378T523 370L524 366Q546 395 583 418T667 442Q729 442 755 411T782 338Q782 290 743 178T704 45Q704 26 720 26Q773 26 802 136Q805 148 807 150T822 153H828Q838 153 841 153T848 150T851 143Q851 137 843 115T821 63T778
12T715 -10Q671 -10 652 16T632 71Q632 88 668 191T704 349Q704 367 703 372Q693 405 664 405Q637 405 613 393T571 360T547 329T534 309Q523 290 518 274T487 151Q455 24 452 16Q438 -11 408 -11T376 18Q376 26 411 167T447 314Q449 325 449 346Q449 372 444 384Q431
405 408 405Q334 405 276 305Q266 289 262 273T231 151Q199 24 196 16Q182 -11 152 -11T120 18Q120 26 159 182T200 347Q202 361 202 372Q202 405 181 405Q168 405 159 391Q145 374 132 328T117 280T98 278H81Z" />
<glyph unicode="n" glyph-name="n" horiz-adv-x="562" d="M75 287Q76 293 78 303T90 341T110 388T141 425T184 442Q195 442 204 441T221 436T235 429T247 421T256 412T262 403T267 394T271 387T273 381L274 378V374L287 387Q342 442 414 442Q474 442 500 410T526
338Q526 300 507 238T468 121T449 44Q449 41 449 38Q451 26 465 26Q483 26 502 43Q528 71 547 136Q550 148 552 150T566 153H572Q582 153 585 153T592 150T595 143Q595 133 585 105T547 41T483 -8Q475 -10 459 -10Q421 -10 399 12T377 72Q377 93 393 135Q448 288
448 349Q448 367 447 372Q437 405 408 405Q381 405 357 393T315 360T291 329T278 309Q267 290 262 274T231 151Q199 24 196 16Q182 -11 152 -11T120 18Q120 23 159 181Q199 343 199 346Q202 360 202 372Q202 406 183 406Q164 406 148 374Q142 360 135 338T124 299T117
280T98 278H81Q75 284 75 287Z" />
<glyph unicode="o" glyph-name="o" horiz-adv-x="511" d="M103 155Q103 266 185 354T366 442Q435 442 476 394T517 275Q517 169 436 79T255 -11Q194 -11 149 32T103 155ZM187 119Q187 67 209 47T260 26Q290 26 321 47Q354 68 380 113T426 260Q432 291 432 315Q432
361 408 385Q388 405 358 405Q319 405 283 374T227 294Q217 271 202 213T187 119Z" />
<glyph unicode="p" glyph-name="p" horiz-adv-x="511" d="M81 278Q75 284 75 287Q93 379 131 417Q154 442 189 442Q222 440 243 423T272 382L280 390Q335 442 389 442Q446 442 482 398T518 284Q518 212 480 137T375 19Q321 -10 291 -10Q289 -10 287 -10T282 -10Q281
-10 280 -10T278 -10Q236 -10 204 28L202 32L181 -51Q160 -135 160 -139Q160 -147 205 -148H230Q236 -155 236 -157T233 -175Q230 -187 227 -190T214 -194Q211 -194 202 -194T169 -193T108 -192Q40 -192 21 -194H13Q6 -187 6 -183T9 -167Q13 -153 16 -151T39 -148Q73
-147 78 -136Q82 -128 139 104Q199 337 199 347Q202 362 202 372Q202 406 182 406Q169 406 159 391Q145 374 132 328T117 280T98 278H81ZM221 111Q234 26 286 26Q307 26 336 47T385 116Q398 147 416 217T435 332Q435 354 433 361Q420 405 383 405Q333 405 279 326L273
317L221 111Z" />
<glyph unicode="q" glyph-name="q" horiz-adv-x="460" d="M228 -11Q172 -11 137 33T101 147Q101 205 125 266T201 377T318 441Q322 442 333 442Q388 442 420 394L429 403Q439 413 455 423T481 437T494 442Q498 442 501 439T504 434Q504 425 435 149Q364 -135 364
-139Q364 -147 409 -148H434Q440 -155 440 -157T437 -175Q433 -191 429 -193Q425 -194 418 -194Q416 -194 406 -194T372 -193T309 -192Q259 -192 233 -192T204 -193Q190 -193 190 -184Q190 -180 192 -169Q196 -153 199 -151T219 -148Q266 -148 277 -141Q283 -137
305 -51L325 29L316 22Q270 -11 228 -11ZM397 323Q397 329 394 340T385 367T365 394T333 405Q302 405 271 372Q249 349 235 316T203 215Q184 135 184 108V100Q184 71 191 56Q204 26 235 26Q267 26 300 57T344 112Q347 117 372 217T397 323Z" />
<glyph unicode="r" glyph-name="r" horiz-adv-x="422" d="M81 278Q75 284 75 289Q77 301 89 339Q122 442 183 442Q219 442 241 425T271 384L283 396Q327 442 384 442Q424 442 454 421T484 362Q484 327 464 312T424 296Q407 296 396 305T385 331Q385 352 394 365T414
384T424 390Q409 405 378 405Q322 405 276 315L268 300L234 161Q200 25 196 16Q182 -11 152 -11T120 18Q120 23 159 181Q199 343 199 346Q202 360 202 372Q202 405 182 405Q164 405 150 377T128 316T117 280Q115 278 98 278H81Z" />
<glyph unicode="s" glyph-name="s" horiz-adv-x="409" d="M153 285Q153 349 197 395T311 442Q355 442 386 420T418 356Q418 321 401 308T365 294Q336 294 331 326Q331 336 334 345T343 359T353 368T362 374L366 376Q365 379 362 383T344 396T308 404Q265 404 246
377T226 325T244 289T287 275T339 258T383 212Q395 188 395 163Q395 132 379 95T333 32Q279 -11 207 -11Q154 -11 115 13T76 86Q76 108 83 123T102 145T121 153T135 156Q154 156 164 145T175 117Q175 82 142 66L132 62Q131 62 131 61Q131 57 139 49T166 34T210
26Q250 26 277 44T312 83T321 123Q321 153 301 166T248 185T204 198Q176 211 162 241Q153 258 153 285Z" />
<glyph unicode="t" glyph-name="t" horiz-adv-x="332" d="M94 385Q87 392 87 395Q87 399 90 411T95 425Q97 430 103 430T149 431H196L215 511Q218 521 222 539T228 565T234 585T242 603T251 615T264 623T281 626Q311 626 315 597Q315 591 296 513T275 433Q275
431 320 431H366Q373 424 373 420Q373 398 360 385H263L189 86Q188 80 188 61Q188 61 188 60Q188 57 188 54Q188 29 201 27Q213 23 229 30Q253 37 276 66T316 138Q321 149 324 151T342 153Q343 153 344 153T347 153Q364 153 364 146Q364 141 360 130Q331 63 290
26T202 -11Q158 -11 135 18T111 81Q111 93 129 168T166 314L184 383Q184 385 139 385H94Z" />
<glyph unicode="u" glyph-name="u" horiz-adv-x="537" d="M75 287Q75 299 89 333T135 404T205 441Q246 441 269 420T293 357Q292 338 259 245T225 95Q225 26 274 26Q301 26 324 43T358 77T369 99Q369 102 406 249T446 404Q460 431 490 431T522 402Q522 394 485
245T446 89Q443 74 443 56Q443 28 461 26Q487 26 507 86Q524 130 524 146Q524 147 530 153H547Q570 153 570 144Q570 138 561 109T544 62Q530 29 512 12Q492 -11 454 -11Q429 -9 410 2T385 23T376 41L363 28Q350 16 325 3T269 -10Q204 -10 176 25T148 108Q148 161
184 262T221 383Q221 405 206 405Q178 405 158 375T128 313T116 279Q115 278 97 278H81Q75 284 75 287Z" />
<glyph unicode="v" glyph-name="v" horiz-adv-x="460" d="M387 386Q387 407 406 425T445 443Q466 443 479 423T492 371Q492 330 473 253Q411 18 307 -8Q298 -10 279 -10Q208 -10 179 26T149 114Q149 162 185 261T221 384Q221 405 206 405Q177 405 157 375T128
313T116 279Q115 278 97 278H81Q75 284 75 287T79 304T93 342T119 388T158 425T210 441H218Q243 441 268 421T293 357Q292 337 259 245T226 102Q226 26 285 26Q328 26 360 72T422 237Q429 265 429 290Q428 324 408 349T387 386Z" />
<glyph unicode="w" glyph-name="w" horiz-adv-x="664" d="M591 386Q591 407 610 425T649 443Q670 443 683 423T696 371Q696 327 672 232T621 85Q575 -11 493 -11Q469 -11 449 -6T418 8T398 24T386 38L382 43Q347 -10 293 -10H286Q221 -10 186 21T150 115Q150 164
185 262T221 384Q221 405 206 405Q177 405 157 375T128 313T116 279Q115 278 97 278H81Q75 284 75 287T79 304T93 342T119 388T158 425T210 441H218Q243 441 268 421T293 357Q292 336 260 246T227 108Q227 26 292 26Q292 26 293 26T295 26Q332 26 361 93L366 103V119Q366
122 367 133T369 150Q372 167 401 282T433 404Q446 431 477 431Q507 431 509 402Q509 396 500 358T474 254T446 140Q444 126 444 104V92Q444 66 459 46T502 26H505Q527 28 545 43T577 88T602 149T623 226Q633 265 633 290Q632 324 612 349T591 386Z" />
<glyph unicode="x" glyph-name="x" horiz-adv-x="464" d="M275 356Q275 383 262 394T233 405Q196 405 166 371T121 289Q119 280 116 279T98 278H81Q77 282 76 283T75 288T78 300Q88 332 109 363T153 411Q195 442 235 442Q306 442 333 386Q373 442 427 442Q461
442 487 421T513 364T494 312T453 296Q436 296 425 305T414 331Q414 352 424 366T446 386L456 390Q448 404 421 404Q420 404 418 404Q410 404 403 401T382 383T358 341Q355 332 328 227T298 105Q295 90 295 75Q295 26 339 26Q365 26 388 43T424 82T444 123T451
146L457 153H474Q490 153 493 152T496 144Q496 133 486 110T456 58T404 10T333 -11Q276 -11 237 45Q197 -11 146 -11Q108 -11 83 10T58 67Q58 99 76 117T119 135Q136 135 147 125T158 96Q158 91 157 85Q149 57 125 45L115 41Q125 26 151 26Q171 26 187 45T214 93Q217
102 244 210T273 330Q275 339 275 356Z" />
<glyph unicode="y" glyph-name="y" horiz-adv-x="486" d="M75 287Q75 299 89 333T135 404T205 441Q246 441 269 420T293 357Q292 338 259 245T225 95Q225 26 274 26Q325 26 367 93L405 245Q442 393 446 404Q460 431 490 431T522 402Q522 400 416 -24Q389 -102
327 -153T196 -205Q152 -205 122 -181T91 -119Q91 -84 110 -67T152 -49Q170 -49 180 -60T191 -87Q191 -108 174 -128Q167 -134 157 -138T146 -144Q155 -153 159 -156T173 -163T199 -167Q229 -167 255 -149T297 -105T325 -52T342 -6T347 15Q315 -10 269 -10Q204
-10 176 25T148 108Q148 161 184 262T221 383Q221 405 206 405Q178 405 158 375T128 313T116 279Q115 278 97 278H81Q75 284 75 287Z" />
<glyph unicode="z" glyph-name="z" horiz-adv-x="409" d="M60 -11Q54 -5 54 -2Q54 3 61 14Q103 88 233 215Q349 329 349 338L302 351Q269 362 247 362Q227 362 212 356T192 342T183 327T178 320Q175 317 160 317Q141 317 137 321Q136 322 136 324Q136 334 144
352T167 391T207 427T260 442Q292 442 321 410T365 375Q367 375 369 375Q380 375 392 390T413 423T425 441Q427 442 444 442H460Q466 436 466 434Q466 419 426 367Q387 314 294 222T178 105L170 95L181 94Q198 93 236 81T295 68Q328 68 356 89T395 141Q398 150
401 151T419 153Q441 153 441 144Q441 110 394 50T282 -11Q251 -11 221 23T171 57Q157 57 143 47T121 26T104 3T95 -10Q93 -11 76 -11H60Z" />
<glyph unicode="~" glyph-name="asciitilde" horiz-adv-x="511" d="M266 208Q262 208 255 215T247 228Q247 233 250 236T274 259Q335 318 369 318Q394 318 420 292T464 265Q485 265 516 291T550 318Q554 318 562 311T571 297Q570 293 551 273T502 231T451 209H447Q421
209 396 235T355 261Q334 261 301 235T266 208Z" />
<glyph unicode="&#xa0;" glyph-name="uni00A0" horiz-adv-x="250" />
<glyph unicode="&#xa3;" glyph-name="sterling" horiz-adv-x="769" d="M253 332Q253 350 265 370H300L334 371L355 453Q356 457 360 477T366 501T372 522T379 545T387 565T397 587T409 606T425 627Q453 664 497 689T583 714Q640 714 669 676T699 578Q699 531 687
505Q671 473 635 473Q597 473 595 508Q595 559 654 569V576Q654 619 637 648T581 677Q545 677 513 647T463 561Q460 554 437 464T414 371Q414 370 458 370H502Q508 364 508 362Q505 334 495 324H402L382 241Q377 224 373 206T366 180T361 163T358 151T354 142T350
133T344 120Q340 112 338 107T336 101L354 90Q398 63 422 54T476 44Q515 44 539 73T574 133Q578 144 580 146T598 148Q612 148 617 147T622 139Q622 136 620 130Q602 74 555 32T447 -11Q395 -11 317 38L294 51Q271 28 233 9T155 -10Q117 -10 103 5T88 39Q88 73
126 106T224 139Q236 139 247 137T266 134T273 132Q275 132 302 239L323 324H259Q253 330 253 332ZM245 76Q211 85 195 85Q173 85 158 71T142 42Q142 26 160 26Q161 26 162 26T163 26Q211 30 245 76Z" />
<glyph unicode="&#x131;" glyph-name="dotlessi" horiz-adv-x="307" d="M75 287Q75 292 82 313T103 362T142 413T196 441H207H214Q248 441 270 419T293 357Q292 338 289 330T245 208Q193 72 193 46Q193 26 209 26Q228 26 247 43Q273 71 292 136Q295 148 297 150T311
153H317Q327 153 330 153T337 150T340 143Q340 133 330 105T292 41T228 -8Q220 -10 204 -10Q160 -10 141 15T122 71Q122 98 171 227T221 384Q221 396 218 400T203 405Q175 403 156 374T128 312T116 279Q115 278 97 278H81Q75 284 75 287Z" />
<glyph unicode="&#x237;" glyph-name="uni0237" horiz-adv-x="332" d="M75 284T75 287T81 305T101 343T133 389T180 426T240 442Q273 440 300 420T327 350V332L278 134Q267 92 253 37T233 -45T225 -73Q208 -123 162 -163T54 -204Q8 -204 -15 -181Q-32 -164 -32
-140Q-32 -112 -14 -96T27 -79Q48 -79 57 -91T67 -114Q67 -146 39 -166L44 -167H59Q59 -167 60 -167Q67 -167 74 -165T94 -155T120 -127T145 -74Q148 -65 198 134T251 347Q252 353 252 370Q252 382 251 388T245 399T230 405Q204 405 175 378Q157 360 145 337T126
298T117 280T98 278H81Q75 284 75 287Z" />
<glyph unicode="&#x300;" glyph-name="gravecomb" horiz-adv-x="0" d="M-222 651Q-222 668 -206 682T-174 697Q-155 697 -145 680Q-140 671 -107 599T-74 526Q-74 522 -88 511T-107 500Q-109 500 -113 502T-167 568T-219 637Q-222 643 -222 651Z" />
<glyph unicode="&#x301;" glyph-name="acutecomb" horiz-adv-x="0" d="M-148 500Q-154 500 -163 511T-173 528Q-173 529 -172 530V532Q-170 534 -97 610T-21 688Q-8 697 4 697Q19 697 29 688T39 663T30 638Q26 631 -50 573L-135 507Q-144 500 -148 500Z" />
<glyph unicode="&#x302;" glyph-name="uni0302" horiz-adv-x="0" d="M17 555Q17 549 3 538T-15 527Q-20 527 -41 554Q-53 569 -62 580L-97 625L-158 578Q-172 567 -188 555T-212 536L-221 529Q-223 527 -226 527Q-239 527 -251 553Q-251 559 -248 562Q-246 564
-169 628T-90 693T-86 694Q-81 694 -78 691Q17 563 17 555Z" />
<glyph unicode="&#x303;" glyph-name="tildecomb" horiz-adv-x="0" d="M-245 558Q-249 558 -256 565T-264 578Q-264 583 -261 586T-237 609Q-176 668 -142 668Q-117 668 -91 642T-47 615Q-26 615 5 641T39 668Q43 668 51 661T60 647Q59 643 40 623T-9 581T-60
559H-64Q-90 559 -115 585T-156 611Q-177 611 -210 585T-245 558Z" />
<glyph unicode="&#x304;" glyph-name="uni0304" horiz-adv-x="0" d="M-275 544Q-282 548 -282 554Q-282 561 -279 573T-271 588Q-269 589 -111 589H-27Q-18 589 -6 589T12 589Q38 589 46 587T54 578Q54 574 51 563T47 550Q45 546 32 545Q15 544 -118 544H-275Z" />
<glyph unicode="&#x306;" glyph-name="uni0306" horiz-adv-x="0" d="M-237 641Q-237 694 -218 694Q-217 694 -215 694T-213 694Q-195 694 -195 684Q-195 683 -195 679T-197 667T-198 650Q-198 611 -176 589T-117 566Q-74 566 -34 597T23 678Q27 689 30 691T43
694Q62 694 62 684Q62 671 49 645T14 589T-46 537T-123 515Q-175 515 -206 550T-237 641Z" />
<glyph unicode="&#x307;" glyph-name="uni0307" horiz-adv-x="0" d="M-165 599Q-162 631 -139 650T-93 669Q-65 669 -53 653T-41 620Q-41 593 -63 571T-116 548Q-134 548 -149 559T-165 599Z" />
<glyph unicode="&#x308;" glyph-name="uni0308" horiz-adv-x="0" d="M-251 601Q-251 626 -230 647T-180 669Q-139 669 -133 625Q-133 595 -155 575T-203 554Q-223 554 -237 567T-251 601ZM-72 599Q-72 632 -48 650T-2 669Q18 669 31 657T45 623Q45 592 22 573T-25
554Q-68 554 -72 599Z" />
<glyph unicode="&#x30a;" glyph-name="uni030A" horiz-adv-x="0" d="M-199 610Q-199 654 -161 685T-79 716Q-39 716 -16 693Q3 674 3 647Q3 607 -34 575T-118 542Q-199 542 -199 610ZM-41 631T-41 655T-83 679Q-84 679 -86 679T-89 679Q-129 679 -142 656Q-146
650 -151 632T-156 604Q-156 578 -113 578H-108Q-94 578 -86 579T-69 586T-52 605Q-41 631 -41 655Z" />
<glyph unicode="&#x30b;" glyph-name="uni030B" horiz-adv-x="0" d="M-217 503Q-221 503 -234 510T-248 523Q-248 528 -205 602Q-200 610 -192 623T-180 644T-170 661T-159 676T-151 686T-142 694T-134 696Q-132 697 -121 697Q-88 694 -88 664Q-88 652 -97 640T-152
574Q-214 504 -217 503ZM-64 503Q-68 503 -81 510T-95 523Q-95 528 -52 602Q-47 610 -39 623T-27 644T-17 661T-6 676T2 686T11 694T19 696Q21 697 32 697Q65 694 65 664Q65 652 56 640T1 574Q-61 504 -64 503Z" />
<glyph unicode="&#x30c;" glyph-name="uni030C" horiz-adv-x="0" d="M11 637Q16 637 22 624T29 607Q29 606 27 602Q26 600 -47 552T-125 502Q-125 502 -125 502T-127 502Q-133 502 -184 553Q-236 602 -236 608Q-236 612 -224 625T-206 638L-202 637L-196 632Q-190
628 -179 620T-158 603L-116 570Q-109 572 -52 604T11 637Z" />
<glyph unicode="&#x393;" glyph-name="Gamma" horiz-adv-x="627" d="M299 623Q299 630 292 631T248 634Q216 634 214 640Q213 642 213 646Q213 655 216 665T224 678Q226 680 462 680H698Q705 676 705 669Q705 665 691 557T675 447Q673 440 652 440H637Q630 445
630 451Q630 452 632 467T636 504T638 543Q638 569 632 586T615 613T586 627T549 633T500 634Q491 634 487 634Q426 634 414 633T399 625Q397 621 327 342T257 59Q257 54 261 52T283 48T337 46Q356 46 360 45T366 39Q367 37 367 34Q367 28 364 18T359 5Q356 0 343
0Q339 0 320 0T268 1T196 2Q98 2 72 0H61Q54 7 54 11Q54 27 61 41Q65 46 95 46Q131 47 142 50T159 62L194 200Q229 337 264 477T299 623Z" />
<glyph unicode="&#x394;" glyph-name="increment" horiz-adv-x="818" d="M409 0Q345 0 267 0T170 0Q131 0 112 0T83 1T72 3T70 6L557 707Q561 716 582 716Q584 716 586 716Q587 716 587 716Q608 716 613 710Q616 704 683 358Q752 9 750 6Q750 2 747 2Q745 0 409
0ZM581 342L531 597Q530 597 352 342T174 85T403 84T632 86Q632 87 581 342Z" />
<glyph unicode="&#x398;" glyph-name="Theta" horiz-adv-x="767" d="M149 237Q149 326 186 413T282 563T412 665T552 704Q619 704 667 678T741 611T777 528T788 444Q788 328 728 219T572 44T377 -22Q275 -22 212 50T149 237ZM691 480Q691 569 652 618T551 668Q458
668 367 562Q307 485 277 382T246 202Q246 147 260 108T298 51T343 24T387 16Q408 16 433 22T494 51T562 109T626 211T677 363Q691 423 691 480ZM302 275Q302 281 317 346T338 415L341 418H356Q380 418 380 408Q380 406 378 398T375 385Q375 384 480 384H585L588
398Q592 412 598 418H613Q636 418 636 409Q636 406 621 340Q617 326 612 306Q603 272 598 267L597 266H582Q558 266 558 276Q558 278 560 286T563 299Q563 300 458 300H353L350 286Q346 272 340 266H325Q302 266 302 275Z" />
<glyph unicode="&#x39b;" glyph-name="Lambda" horiz-adv-x="692" d="M71 0Q58 0 58 11Q58 33 68 43Q71 46 77 46Q106 46 128 59T156 79T173 104Q174 106 255 256T416 556T497 707Q502 716 519 716Q521 716 523 716T525 716Q543 716 547 711Q550 707 561 398T572
65Q573 57 574 54T587 49T623 46Q646 46 646 36Q646 35 643 23Q642 21 641 17T640 12T639 8T638 5T636 3T633 1T629 1T624 0Q622 0 612 0T578 1T514 2Q466 2 434 2T398 1Q381 1 381 11Q381 16 383 23Q387 40 390 43T406 46Q460 46 472 63L464 298Q457 533 455 536V537Q452
537 335 317T214 90Q211 80 211 75Q211 53 244 47Q246 47 251 47T258 46Q270 46 270 34Q270 29 268 19Q264 6 258 0H247Q185 2 143 2Q77 2 71 0Z" />
<glyph unicode="&#x39e;" glyph-name="Xi" horiz-adv-x="664" d="M243 668Q243 670 250 677H498H640Q661 677 687 677T719 678Q742 678 748 676T754 667Q754 660 740 595T726 522Q725 521 724 520T723 517T720 516T714 515T704 514Q694 514 690 514T683 517T680
525T683 543Q690 578 690 590V597H686Q670 600 468 600Q282 599 275 596Q267 591 251 539Q246 521 243 518T228 514H224Q200 511 200 525Q200 526 220 594T243 668ZM611 438Q615 434 616 432L618 430Q618 423 599 352Q597 342 593 325Q583 284 580 276T568 267Q566
267 563 267T558 267Q544 267 540 269T535 277Q535 282 538 294Q542 311 543 312Q543 314 411 314H278L277 310Q277 309 272 291T266 272Q264 267 245 267Q237 267 233 268T228 269T225 272T222 277L241 354Q245 368 250 389Q261 432 266 437L267 438H299Q306 431
306 428Q306 423 302 409L297 391H430L562 392L567 412Q572 431 579 438H611ZM81 0Q74 4 74 11Q74 14 89 89T106 168Q112 174 127 174Q137 174 141 174T148 171T151 164Q151 159 147 143Q140 101 139 92Q139 81 140 81Q143 78 265 78Q281 78 309 78T349 78Q383
78 427 78T484 78Q516 78 531 78T555 80T565 83T570 91Q575 103 589 145Q595 166 598 170T611 174H617Q619 174 622 174Q641 174 641 163Q641 162 619 86T595 7Q592 2 584 1T530 0Q519 0 455 0T334 0H81Z" />
<glyph unicode="&#x3a0;" glyph-name="Pi" horiz-adv-x="743" d="M299 623Q299 630 292 631T248 634Q216 634 214 640Q213 642 213 646Q213 655 216 665T224 678Q226 680 539 680H852Q859 676 859 669Q859 653 852 639Q848 634 818 634Q782 633 771 630T754 618L719
480Q684 343 649 203T614 57Q614 50 621 49T666 46Q697 46 699 40Q701 37 698 21Q693 3 689 1Q686 0 677 0Q673 0 657 0T611 1T546 2Q453 2 428 0H418Q411 7 411 11Q411 27 418 41Q422 46 452 46Q488 47 499 50T516 62Q518 67 553 209T624 491T660 632Q660 634
530 634H400L399 630Q399 629 390 593T363 484T328 344Q257 60 257 57Q257 50 264 49T309 46Q340 46 342 40Q344 37 341 21Q336 3 332 1Q329 0 320 0Q316 0 300 0T254 1T189 2Q96 2 71 0H61Q54 7 54 11Q54 27 61 41Q65 46 95 46Q131 47 142 50T159 62L194 200Q229
337 264 477T299 623Z" />
<glyph unicode="&#x3a3;" glyph-name="Sigma" horiz-adv-x="716" d="M87 0Q80 7 80 11Q80 14 81 15Q81 16 231 161Q381 304 381 305L310 475Q239 646 239 648T242 662T247 677Q247 681 251 681Q253 683 514 683H775Q780 678 782 674Q782 668 767 559T751 448Q747
443 729 443Q715 443 711 445T707 453Q707 455 710 479T713 529Q713 549 711 564T701 590T686 609T662 622T633 630T594 634T548 636T492 637Q487 637 475 637T457 637Q356 637 356 635Q358 634 417 489T478 343Q478 340 474 335T436 297T330 196L185 57L294 56Q302
56 317 56T339 56Q449 56 498 65T581 109Q603 131 620 164T646 221T657 248Q660 250 675 250Q699 253 699 239L681 188Q663 138 643 81T617 9Q615 5 614 4T607 2T589 0T552 -1Q541 -1 475 -1T348 0H87Z" />
<glyph unicode="&#x3a5;" glyph-name="Upsilon" horiz-adv-x="767" d="M213 543Q213 576 262 640T379 705Q507 705 507 531Q507 514 505 492L504 482L514 505Q524 528 543 561T587 626T653 682T738 705Q783 705 807 675T832 594Q832 535 808 535Q807 535 805 535T802
535Q780 535 780 542Q780 544 781 550T783 563Q783 589 765 606T716 623Q588 623 521 354Q521 353 485 208T448 59Q448 46 529 46Q547 46 553 45T559 36Q559 32 556 22Q552 4 547 1Q546 1 544 1T538 0Q534 0 514 0T458 1T380 2Q271 2 241 0H228Q222 6 222 9T224
27Q228 40 234 46H257Q322 46 336 52Q346 54 349 62Q351 64 372 145T416 324T445 461Q446 471 446 506Q446 528 445 541T436 577T410 610T361 622Q319 622 295 600T261 552Q257 539 249 536Q245 535 233 535T218 536L214 540V541Q213 542 213 543Z" />
<glyph unicode="&#x3a6;" glyph-name="Phi" horiz-adv-x="716" d="M467 624Q467 631 454 633T400 637Q361 637 359 643Q358 645 358 649Q358 657 361 668T369 682Q371 683 387 683Q430 681 532 681Q569 681 600 681T650 682T672 683Q689 683 689 672Q689 670 686
658T681 643Q679 637 640 637Q595 636 579 633T558 617Q556 613 547 575T538 533Q538 532 541 532Q555 532 582 524T643 500T703 450T728 374Q728 311 673 256Q621 203 550 177T445 151Q443 151 441 149Q440 146 430 104T419 59Q419 46 500 46Q518 46 524 45T530
36Q530 32 527 22Q523 4 518 1Q517 1 515 1T510 0Q505 0 486 0T431 1T355 2Q248 2 218 0H205Q199 6 199 9T201 27Q205 40 211 46H234Q300 46 313 52Q323 54 326 62Q328 64 334 86T344 129L349 150Q349 151 346 151Q333 151 307 158T245 182T185 231T159 309Q159
311 159 314Q159 325 162 338T174 374T206 421T264 468Q334 518 435 531L446 533L457 577Q467 620 467 624ZM436 494Q429 494 417 492T373 477T319 442Q288 408 274 362T260 284Q260 257 269 239T298 210T328 196T359 188L436 494ZM626 398Q626 438 605 460T539
493L528 495Q527 495 489 342T451 188Q455 188 462 189T490 197T528 212T566 241T598 285Q626 341 626 398Z" />
<glyph unicode="&#x3a8;" glyph-name="Psi" horiz-adv-x="767" d="M494 626Q493 627 493 628T491 629T489 631T484 632T477 634T465 635T449 636T426 637Q387 637 385 643Q384 645 384 649Q384 657 387 668T395 682Q397 683 413 683Q456 681 558 681Q595 681 626
681T676 682T698 683Q715 683 715 672Q715 670 712 658T707 643Q705 637 666 637Q621 636 605 633T584 617L478 193Q486 195 498 199T542 229T597 291Q626 335 646 415Q658 460 670 487T698 527T726 543T759 546Q762 546 768 546T777 546Q782 546 790 546T801 546Q824
546 824 536Q822 509 809 509Q762 509 735 406Q707 300 642 234T481 153L467 151L456 106Q445 62 445 59Q445 46 526 46Q544 46 550 45T556 36Q556 32 553 22Q549 4 544 1Q543 1 541 1T536 0Q531 0 512 0T457 1T381 2Q274 2 244 0H231Q225 6 225 9T227 27Q231 40
237 46H260Q326 46 339 52Q349 54 352 62Q354 64 365 106T376 151Q374 152 371 152Q360 153 347 156T310 172T270 201T239 250T225 323Q225 359 235 405T245 470T239 498T226 507T213 510T207 520Q207 528 209 534T215 544L218 546H257Q305 546 314 540Q338 530
338 485Q338 455 326 402T313 312Q313 218 379 193Q386 192 387 192Q387 196 441 408Q494 621 494 626Z" />
<glyph unicode="&#x3a9;" glyph-name="Omega" horiz-adv-x="716" d="M183 393Q183 451 206 502T267 590T348 652T435 691T510 704Q513 705 525 705Q631 705 695 650T759 505Q759 454 732 397T672 299T593 203T527 117Q503 81 503 76Q503 75 521 75Q576 75 588
77Q589 77 592 78T595 79T598 80T602 82T605 86T609 92T614 101T620 112T627 127T636 147Q646 169 649 170Q651 172 667 172H682Q689 167 689 162Q689 158 654 81T617 2Q614 0 530 0H447Q441 5 441 9T444 28Q461 85 498 158T569 285T628 408T654 534Q654 592 621
630T527 668Q488 668 448 649T371 593T310 487T286 330Q286 302 290 247T294 137Q294 34 280 6Q278 1 268 1T190 0H107Q100 5 100 12Q100 24 103 94T108 165Q110 172 131 172H146Q150 169 153 165L152 141V116Q152 84 153 82Q156 75 217 75H252V84Q252 126 218
231T183 393Z" />
<glyph unicode="&#x2013;" glyph-name="endash" horiz-adv-x="511" d="M98 248Q91 252 91 259Q91 279 100 284Q102 285 324 285H442Q455 285 474 285T500 285Q536 285 545 283T554 274Q554 260 548 254Q546 250 538 249Q520 248 319 248H98Z" />
<glyph unicode="&#x2014;" glyph-name="emdash" horiz-adv-x="1022" d="M124 248Q117 252 117 259Q117 279 126 284Q128 285 579 285T1033 284Q1037 280 1037 278Q1038 276 1038 274Q1038 253 1029 250Q1026 248 575 248H124Z" />
<glyph unicode="&#x2018;" glyph-name="quoteleft" horiz-adv-x="307" d="M249 379Q228 379 213 396T197 448Q197 533 271 627L278 635Q286 643 295 652T314 671T332 687T344 694Q349 694 355 685T362 671Q362 668 345 654T301 608T256 537Q238 493 240 491Q241
491 245 493T258 498T275 500Q296 500 311 488T326 454Q326 426 304 403T249 379Z" />
<glyph unicode="&#x2019;" glyph-name="quoteright" horiz-adv-x="307" d="M250 620Q250 647 272 670T325 694Q348 694 362 677T377 633V624Q377 566 343 506T275 412T231 379Q226 379 220 388T213 401T232 421T279 472T323 547Q335 573 335 582L331 580Q327 578
318 576T300 573Q277 573 264 585T250 620Z" />
<glyph unicode="&#x201c;" glyph-name="quotedblleft" horiz-adv-x="514" d="M295 379Q274 379 259 396T243 448Q243 533 317 627Q326 638 354 666T391 694Q395 694 402 685T409 673Q409 669 398 659T372 635T337 595T302 537Q284 493 286 491Q287 491 291 493T304
498T321 500Q342 500 357 488T372 454Q372 426 350 403T295 379ZM492 379Q471 379 456 396T440 448Q440 533 514 627Q523 638 551 666T588 694Q592 694 599 685T606 672T589 654T544 608T499 537Q481 493 483 491Q484 491 488 493T501 498T518 500Q539 500 554
488T569 454Q569 426 547 403T492 379Z" />
<glyph unicode="&#x201d;" glyph-name="quotedblright" horiz-adv-x="514" d="M214 620Q214 647 236 670T289 694Q312 694 326 677T341 633V624Q341 588 327 550T294 482T253 428T216 392T196 379Q191 379 184 388T176 401Q176 404 195 421T243 472T287 547Q299
576 299 582L295 580Q291 578 282 576T264 573Q241 573 228 585T214 620ZM411 620Q411 647 433 670T486 694Q509 694 523 677T538 633V624Q538 588 524 550T491 482T450 428T413 392T393 379Q388 379 381 388T373 401Q373 404 392 421T440 472T484 547Q496 576
496 582L492 580Q488 578 479 576T461 573Q438 573 425 585T411 620Z" />
<glyph unicode="&#x210f;" glyph-name="uni210F" horiz-adv-x="540" d="M150 475Q147 475 118 466T82 457Q73 457 64 467T54 487Q54 490 55 492Q63 506 64 506Q67 512 118 526Q162 541 169 546Q173 559 175 575Q181 596 181 604Q181 613 166 617Q164 617 153 618T135
619Q119 619 114 621T109 630Q109 636 114 656T122 681Q125 685 202 688Q272 695 286 695Q304 695 304 684Q304 682 291 628L278 577L386 612Q466 635 476 635T492 627T499 607Q499 593 489 586Q485 583 373 546L262 512Q262 511 248 455T233 397T236 397T244 404Q295
441 357 441Q405 441 445 417T485 333Q485 284 449 178T412 58T426 44Q447 44 466 68Q485 87 500 130L509 152H531Q533 152 537 152T543 152Q555 152 558 151T562 144Q562 128 546 93T494 23T415 -13Q385 -13 359 3T322 44Q318 52 318 77Q318 99 352 196T386 337Q386
386 346 386Q318 386 286 370Q267 361 245 338T211 292Q207 287 193 235T162 113T138 21Q128 7 122 4Q105 -12 83 -12Q66 -12 54 -2T42 26Q42 45 98 257L151 475H150Z" />
<glyph unicode="&#xeffd;" glyph-name="uniEFFD" horiz-adv-x="700" d="M0 0V100H100V0H0ZM600 0V100H700V0H600Z" />
<glyph unicode="&#xeffe;" glyph-name="uniEFFE" horiz-adv-x="300" d="M0 0V100H100V0H0ZM200 0V100H300V0H200Z" />
<glyph unicode="&#xefff;" glyph-name="uniEFFF" horiz-adv-x="100" d="M0 0V100H100V0H0Z" />
</font>
</defs>
</svg>
