<?xml version="1.0" standalone="no"?> <!DOCTYPE svg PUBLIC "-//W3C//DTD SVG 1.0//EN" "http://www.w3.org/TR/2001/REC-SVG-20010904/DTD/svg10.dtd" > <svg xmlns="http://www.w3.org/2000/svg" width="100%" height="100%">
<defs >
<font id="MathJax_AMS-Regular" horiz-adv-x="756" ><font-face
    font-family="MathJax_AMS"
    units-per-em="1000"
    panose-1="0 0 0 0 0 0 0 0 0 0"
    ascent="1270"
    descent="-663"
    alphabetic="0" />
<missing-glyph horiz-adv-x="250" d="M50 0V533H200V0H50ZM100 50H150V483H100V50Z" />
<glyph unicode=" " glyph-name="space" horiz-adv-x="250" />
<glyph unicode="A" glyph-name="A" horiz-adv-x="722" d="M130 -1H63Q34 -1 26 2T17 17Q17 24 22 29T35 35Q49 35 64 44T88 66Q101 93 210 383Q331 693 335 697T346 701T357 697Q358 696 493 399Q621 104 633 83Q656 35 686 35Q693 35 698 30T703 17Q703 5 693
2T643 -1H541Q388 -1 386 1Q378 6 378 16Q378 24 383 29T397 35Q412 35 434 45T456 65Q456 93 428 170L419 197H197L195 179Q184 134 184 97Q184 82 186 71T190 55T198 45T205 39T214 36L219 35Q241 31 241 17Q241 5 233 2T196 -1H130ZM493 68Q493 51 481 35H619Q604
56 515 256Q486 321 468 361L348 637Q347 637 330 592T313 543Q313 538 358 436T448 219T493 68ZM404 235Q404 239 355 355T295 488L275 430Q241 348 208 232H306Q404 232 404 235ZM155 48Q151 55 148 88V117L135 86Q118 47 117 46L110 37L135 35H159Q157 41 155
48Z" />
<glyph unicode="B" glyph-name="B" horiz-adv-x="667" d="M11 665Q11 672 22 683H213Q407 681 431 677Q582 649 582 515Q582 488 573 468Q554 413 484 372L474 366H475Q620 317 620 178Q620 115 568 69T420 6Q393 1 207 -1H22Q11 10 11 18Q11 35 51 35Q79 37 88
39T102 52Q107 70 107 341T102 630Q97 640 88 643T51 648H46Q11 648 11 665ZM142 341Q142 129 141 88T134 37Q133 36 133 35H240L233 48L229 61V623L233 635L240 648H133L138 639Q142 621 142 341ZM284 370Q365 378 391 411T417 508Q417 551 406 581T378 624T347
643T320 648Q298 648 278 635Q267 628 266 611T264 492V370H284ZM546 515Q546 551 531 577T494 617T454 635T422 641L411 643L420 630Q439 604 445 579T452 510V504Q452 481 451 467T441 430T415 383Q420 383 439 391T483 413T527 455T546 515ZM585 185Q585 221
570 249T534 294T490 320T453 334T436 337L435 336L440 330Q445 325 452 315T467 288T479 246T484 188Q484 145 474 110T454 62T442 48Q442 47 444 47Q450 47 470 54T517 75T564 119T585 185ZM449 184Q449 316 358 332Q355 332 335 333T302 335H264V199Q266 68
270 57Q275 50 289 43Q300 37 324 37Q449 37 449 184Z" />
<glyph unicode="C" glyph-name="C" horiz-adv-x="722" d="M684 131Q684 125 672 109T633 71T573 29T489 -5T386 -19Q330 -19 276 -3T174 46T91 134T44 261Q39 283 39 341T44 421Q66 538 143 611T341 699Q344 699 364 700T395 701Q449 698 503 677T585 655Q603
655 611 662T620 678T625 694T639 702Q650 702 657 690V481L653 474Q640 467 628 472Q624 476 618 496T595 541Q562 587 507 625T390 663H381Q337 663 299 625Q212 547 212 336Q212 249 233 179Q274 30 405 30Q533 30 641 130Q658 147 666 147Q671 147 677 143T684
131ZM250 625Q264 643 261 643Q238 635 214 620T161 579T110 510T79 414Q74 384 74 341T79 268Q89 213 113 169T164 101T217 61T260 39L277 34Q270 41 264 48Q199 111 181 254Q178 281 178 344T181 434Q200 559 250 625ZM621 565V625Q617 623 613 623Q603 619 590
619H575L588 605Q608 583 610 579L621 565Z" />
<glyph unicode="D" glyph-name="D" horiz-adv-x="722" d="M16 666Q16 675 28 683H193Q329 683 364 682T430 672Q534 650 600 585T686 423Q688 406 688 352Q688 274 673 226Q641 130 565 72T381 1Q368 -1 195 -1H28Q16 5 16 16Q16 35 53 35Q68 36 75 37T87 42T95
52Q98 61 98 341T95 630Q91 640 83 643T53 648Q16 648 16 666ZM237 646Q237 648 184 648H128Q128 647 133 632Q136 620 136 341Q136 64 133 50L128 35H237L230 48L226 61V343Q228 620 231 633Q232 636 237 646ZM264 61Q278 40 310 35Q363 35 401 55T461 112T496
193T513 295Q515 333 515 349Q515 411 504 459Q481 598 373 641Q351 648 321 648Q304 648 292 643T277 635T264 621V61ZM461 628Q462 627 471 616T489 594T509 559T529 509T544 441T550 352Q550 165 479 75L468 59Q474 61 484 65T522 87T573 128T618 195T650 290Q654
322 654 354Q654 418 638 464T581 552Q559 576 529 595T480 621L461 628Z" />
<glyph unicode="E" glyph-name="E" horiz-adv-x="667" d="M12 666Q12 675 24 683H582Q590 680 593 672V588Q593 514 591 502T575 490Q567 490 563 495T555 517Q552 556 517 590Q486 623 445 634T340 648H282Q266 636 264 620T260 492V370H277Q329 375 358 391T404
439Q420 480 420 506Q420 529 436 529Q445 529 451 521Q455 517 455 361Q455 333 455 298T456 253Q456 217 453 207T437 197Q420 196 420 217Q420 240 406 270Q377 328 284 335H260V201Q261 174 261 134Q262 73 264 61T278 38Q281 36 282 35H331Q400 35 449 50Q571
93 602 179Q605 203 622 203Q629 203 634 197T640 183Q638 181 624 95T604 3L600 -1H24Q12 5 12 16Q12 35 51 35Q92 38 97 52Q102 60 102 341T97 632Q91 645 51 648Q12 648 12 666ZM137 341Q137 131 136 89T130 37Q129 36 129 35H235Q233 41 231 48L226 61V623L231
635L235 648H129Q132 641 133 638T135 603T137 517T137 341ZM557 603V648H504Q504 646 515 639Q527 634 542 619L557 603ZM420 317V397L406 383Q394 370 380 363L366 355Q373 350 382 346Q400 333 409 328L420 317ZM582 61L586 88Q585 88 582 83Q557 61 526 46L511
37L542 35H577Q577 36 578 39T580 49T582 61Z" />
<glyph unicode="F" glyph-name="F" horiz-adv-x="611" d="M584 499Q569 490 566 490Q558 490 552 497T546 515Q546 535 533 559Q526 574 506 593T469 621Q415 648 326 648Q293 648 287 647T275 641Q264 630 263 617Q262 609 260 492V370L275 372Q323 376 350 392T393
441Q409 473 409 506Q409 529 427 529Q437 529 442 519Q444 511 444 362Q444 212 442 206Q436 197 426 197Q409 197 409 217Q409 265 375 299Q346 328 280 335H260V206Q260 70 262 63Q265 46 276 41T326 35Q362 35 366 28Q377 17 366 3L360 -1H24Q12 5 12 16Q12
35 51 35Q92 38 97 52Q102 60 102 341T97 632Q91 645 51 648Q12 648 12 666Q12 675 24 683H573Q576 678 584 670V499ZM137 341Q137 131 136 89T130 37Q129 36 129 35H182Q233 35 233 39Q226 54 225 92T224 346L226 623L231 635L235 648H129Q132 641 133 638T135
603T137 517T137 341ZM549 603V648H495L506 641Q531 621 533 619L549 603ZM409 317V395L400 386Q390 376 375 366L357 355L373 346Q394 331 397 328L409 317Z" />
<glyph unicode="G" glyph-name="G" horiz-adv-x="778" d="M737 285Q749 277 749 268Q749 260 744 255T730 250Q695 250 677 217Q666 195 666 119Q666 52 664 50Q656 36 555 3Q483 -16 415 -19Q364 -19 348 -17Q226 -3 146 70T44 261Q39 283 39 341T44 421Q66 538
143 611T341 699Q344 699 364 700T395 701Q449 698 503 677T585 655Q603 655 611 662T620 678T625 694T639 702Q650 702 657 690V481L653 474Q640 467 628 472Q624 476 618 496T595 541Q562 587 507 625T390 663H381Q337 663 299 625Q213 547 213 337Q213 75 341
23Q357 19 397 19Q440 19 462 22T492 30T513 45V119Q513 184 506 203Q491 237 435 250Q421 250 415 257Q404 267 415 281L421 285H737ZM250 43Q250 45 243 55T225 87T203 139T185 224T177 343V361Q184 533 250 625Q264 643 261 643Q238 635 214 620T161 579T110
510T79 414Q74 384 74 341T79 268Q106 117 230 52L250 43ZM621 565V625Q617 623 613 623Q603 619 590 619H575L588 605Q608 583 610 579L621 565ZM655 250H517L524 241Q548 213 548 149V114V39Q549 39 562 44T592 55T615 63L630 70V134Q632 190 634 204T648 237Q655
245 655 250Z" />
<glyph unicode="H" glyph-name="H" horiz-adv-x="778" d="M14 666Q14 675 26 683H344L351 679Q361 665 351 655Q344 648 317 648Q287 645 282 641Q270 637 269 623T266 497V370H511V497Q511 519 510 553Q509 615 507 626T496 641H495Q489 645 459 648Q420 648
420 665Q420 672 426 679L433 683H751Q762 676 762 666Q762 648 724 648Q684 645 677 632Q675 626 675 341Q675 57 677 52Q684 38 724 35Q762 35 762 16Q762 6 751 -1H433L426 3Q420 10 420 17Q420 35 459 35Q501 38 506 52Q511 64 511 190V323H266V190Q266 60
271 52Q276 38 317 35Q342 35 351 28Q360 17 351 3L344 -1H26Q14 5 14 16Q14 35 53 35Q94 38 99 52Q104 60 104 341T99 632Q93 645 53 648Q14 648 14 666ZM233 341V553Q233 635 239 648H131Q134 641 135 638T137 603T139 517T139 341Q139 131 138 89T132 37Q131
36 131 35H239Q233 47 233 129V341ZM639 341V489Q639 548 639 576T640 620T642 639T646 648H537L542 639Q546 625 546 341Q546 130 545 88T538 37Q537 36 537 35H646Q643 41 643 42T641 55T639 84T639 140V341Z" />
<glyph unicode="I" glyph-name="I" horiz-adv-x="389" d="M20 666Q20 676 31 683H358Q369 676 369 666Q369 648 331 648Q288 645 282 632Q278 626 278 341Q278 57 282 50Q286 42 295 40T331 35Q369 35 369 16Q369 6 358 -1H31Q20 4 20 16Q20 35 58 35Q84 37 93
39T107 50Q113 60 113 341Q113 623 107 632Q101 645 58 648Q20 648 20 666ZM249 35Q246 40 246 41T244 54T242 83T242 139V341Q242 632 244 639L249 648H140Q146 634 147 596T149 341Q149 124 148 86T140 35H249Z" />
<glyph unicode="J" glyph-name="J" horiz-adv-x="500" d="M79 103Q108 103 129 83T151 38Q151 9 130 -15Q116 -34 130 -37Q133 -39 157 -39Q208 -39 219 -8L226 3V305Q226 612 224 621Q220 636 211 641T166 647Q137 647 128 654Q119 665 128 679L135 683H466Q478
677 478 666Q478 647 439 647Q399 644 393 632Q388 620 388 347Q386 69 384 59Q364 -6 316 -39T184 -77H172Q102 -77 56 -48T6 30Q6 62 26 82T79 103ZM353 354Q353 556 354 596T361 645Q362 646 362 647H253Q257 639 258 628T261 547T262 312V-4L255 -17Q248 -29
250 -29Q253 -29 258 -28T277 -20T302 -5T327 22T348 65Q350 74 353 354ZM115 36Q115 47 105 57T79 67Q73 67 67 66T52 56T44 34Q44 9 62 -8Q66 -11 71 -15T81 -22T86 -24L90 -13Q100 3 102 5Q115 22 115 36Z" />
<glyph unicode="K" glyph-name="K" horiz-adv-x="778" d="M22 666Q22 676 33 683H351L358 679Q368 665 358 655Q351 648 324 648Q288 645 280 637Q275 631 274 605T273 477L275 343L382 446Q473 530 492 553T512 599Q512 617 502 631T475 648Q455 651 455 666Q455
677 465 680T510 683H593H720Q732 676 732 666Q732 659 727 654T713 648Q670 648 589 581Q567 562 490 489T413 415Q413 413 554 245T711 61Q737 35 751 35Q758 35 763 29T768 15Q768 6 758 -1H624Q491 -1 486 3Q480 10 480 17Q480 25 487 30T506 35Q518 36 520
38T520 48L400 195L302 310L286 297L273 283V170Q275 65 277 57Q280 41 300 38Q302 37 324 35Q349 35 358 28Q367 17 358 3L351 -1H33Q22 4 22 16Q22 35 60 35Q101 38 106 52Q111 60 111 341T106 632Q100 645 60 648Q22 648 22 666ZM240 341V553Q240 635 246 648H138Q141
641 142 638T144 603T146 517T146 341Q146 131 145 89T139 37Q138 36 138 35H246Q240 47 240 129V341ZM595 632L615 648H535L542 637Q542 636 544 625T549 610V595L562 606Q565 608 577 618T595 632ZM524 226L386 388Q386 389 378 382T358 361Q330 338 330 333Q330
332 330 332L331 330L533 90Q558 55 558 41V35H684L671 50Q667 54 524 226Z" />
<glyph unicode="L" glyph-name="L" horiz-adv-x="667" d="M12 666Q12 675 24 683H333L340 679Q350 665 340 655Q333 648 309 648Q287 646 279 643T266 630Q264 623 264 346Q264 68 266 57Q274 40 284 35H340Q413 37 460 55Q514 78 553 117T602 197Q605 221 622
221Q629 221 634 215T640 201Q638 194 625 105T611 12Q611 6 600 -1H24Q12 5 12 16Q12 35 51 35Q92 38 97 52Q102 60 102 341T97 632Q91 645 51 648Q12 648 12 666ZM137 341Q137 131 136 89T130 37Q129 36 129 35H237Q235 41 233 48L229 61L226 339Q226 621 229
628Q230 630 231 636T233 643V648H129Q132 641 133 638T135 603T137 517T137 341ZM580 48Q580 59 583 74T586 97Q586 98 585 97T579 92T571 86Q549 64 513 43L500 35H577L580 48Z" />
<glyph unicode="M" glyph-name="M" horiz-adv-x="944" d="M18 666Q18 677 27 680T73 683H146Q261 683 266 679L465 215Q469 215 566 443Q663 676 668 681Q673 683 790 683H908L915 679Q924 664 915 655Q912 648 897 648Q851 639 835 606L833 346Q833 86 835 79Q838
69 849 58T873 41Q877 40 887 38T901 35Q926 35 926 16Q926 6 915 -1H604L597 3Q588 19 597 28Q600 35 615 35Q660 42 673 68L679 79V339Q679 409 679 443T679 520T679 580T677 597Q646 521 584 375T473 117T424 3Q416 -1 410 -1T401 1Q399 3 273 301L148 599L146
343Q146 86 148 79Q152 69 163 58T186 41Q190 40 200 38T215 35Q226 35 235 28Q244 17 235 3L228 -1H28Q17 4 17 17Q17 35 39 35Q84 42 97 68L104 79V639L88 641Q72 644 53 648Q34 648 26 651T18 666ZM457 166Q451 169 449 171T435 198T404 268T344 412L244 648H157L166
637Q169 633 293 346L413 66Q424 88 435 117L457 166ZM817 646Q817 648 766 648H715V72L708 57Q701 45 697 41L695 37Q695 35 757 35H819L813 46Q802 61 800 76Q797 105 797 346L799 612L804 626Q812 638 815 641L817 646ZM124 42Q119 42 119 38Q119 35 128 35Q132
35 132 36Q125 42 124 42Z" />
<glyph unicode="N" glyph-name="N" horiz-adv-x="722" d="M20 664Q20 666 31 683H142Q256 683 258 681Q259 680 279 653T342 572T422 468L582 259V425Q582 451 582 490T583 541Q583 611 573 628T522 648Q500 648 493 654Q484 665 493 679L500 683H691Q702 676
702 666Q702 657 698 652Q688 648 680 648Q633 648 627 612Q624 601 624 294V-8Q616 -20 607 -20Q601 -20 596 -15Q593 -13 371 270L156 548L153 319Q153 284 153 234T152 167Q152 103 156 78T172 44T213 34Q236 34 242 28Q253 17 242 3L236 -1H36Q24 6 24 16Q24
34 56 34Q58 35 69 36T86 40T100 50T109 72Q111 83 111 345V603L96 619Q72 643 44 648Q20 648 20 664ZM413 419L240 648H120L136 628Q137 626 361 341T587 54L589 68Q589 78 589 121V192L413 419Z" />
<glyph unicode="O" glyph-name="O" horiz-adv-x="778" d="M131 601Q180 652 249 676T387 701Q485 701 562 661Q628 629 671 575T731 448Q742 410 742 341T731 234Q707 140 646 81Q549 -19 389 -19Q228 -19 131 81Q57 155 37 274Q34 292 34 341Q34 392 37 410Q58
528 131 601ZM568 341Q568 613 437 659Q406 664 395 665Q329 665 286 625Q232 571 213 439Q210 408 210 341Q210 275 213 245Q232 111 286 57Q309 37 342 23Q357 19 389 19Q420 19 437 23Q469 38 491 57Q568 132 568 341ZM174 341Q174 403 177 441T197 535T249
639Q246 639 224 627T193 608Q189 606 183 601T169 589T155 577Q69 488 69 344Q69 133 231 52Q244 45 246 45Q248 45 246 48Q231 69 222 85T200 141T177 239Q174 269 174 341ZM708 341Q708 415 684 475T635 563T582 610Q578 612 565 619T546 630Q533 637 531 637Q530
637 530 636V635L531 634Q562 591 577 543Q602 471 602 341V316Q602 264 599 230T580 144T531 48L530 47V46Q530 45 531 45Q533 45 547 52T583 75T622 105Q708 195 708 341Z" />
<glyph unicode="P" glyph-name="P" horiz-adv-x="611" d="M16 666Q16 675 28 683H195Q334 683 370 682T437 672Q511 657 554 611T597 495Q597 343 404 309Q402 308 401 308Q381 303 319 303H261V181Q261 157 262 120Q262 60 267 50T304 36Q310 35 313 35Q352 35
352 17Q352 10 346 3L339 -1H28Q16 5 16 16Q16 35 53 35Q68 36 75 37T87 42T95 52Q98 61 98 341T95 630Q91 640 83 643T53 648Q16 648 16 666ZM235 35Q228 46 227 84Q226 129 226 337V621L230 635L237 648H128Q128 647 133 632Q136 620 136 341Q136 64 133 50L128
35H235ZM301 341H313Q339 341 354 344T389 362T417 410T426 498Q426 586 401 616T322 647Q301 647 293 643Q271 637 264 621Q261 617 261 479V341H301ZM429 350Q431 350 443 353T476 367T515 391T548 432T562 490Q562 550 524 592Q507 607 484 619Q481 621 448
635L433 639L439 621Q462 578 462 506Q462 448 454 413T437 366T428 350H429Z" />
<glyph unicode="Q" glyph-name="Q" horiz-adv-x="778" d="M480 -10Q480 -13 486 -24T507 -50T541 -80T588 -104T648 -114Q666 -114 688 -110T714 -106Q724 -106 728 -114T729 -130Q723 -145 663 -163T548 -181Q503 -181 463 -169T395 -139T343 -97T307 -56T284
-19L280 -3L262 1Q188 24 131 81Q57 155 37 275Q34 292 34 342T37 410Q58 528 131 601Q179 652 248 676T388 701Q485 701 562 661Q698 595 731 448Q742 410 742 341T731 235Q707 141 646 81Q616 50 575 27T493 -5L480 -10ZM568 342Q568 613 437 659L395 666Q329
666 286 626Q232 570 213 439Q210 408 210 342T213 246Q231 113 286 57Q309 37 342 23Q357 19 389 19Q420 19 437 23Q469 38 491 57Q568 134 568 342ZM174 341V354Q174 393 175 419T183 484T205 561T246 635L249 639Q246 639 224 627T193 608Q189 606 183 601T169
589T155 577Q69 491 69 344Q69 133 231 52Q247 42 247 46Q247 46 246 48Q231 69 222 85T200 141T177 239Q174 269 174 341ZM708 341Q708 410 689 467T640 556T588 606T546 630Q532 638 531 638Q530 638 531 635Q563 590 577 543Q602 472 602 341V316Q602 264 599
230T580 144T531 48Q529 44 532 45T546 52Q575 68 596 84T642 128T683 200T706 299Q708 327 708 341ZM391 -17H333Q329 -15 326 -15Q324 -15 324 -17Q324 -21 362 -68Q424 -130 506 -143Q518 -144 544 -144Q569 -144 577 -143L589 -141L575 -139Q544 -127 509 -101T453
-37L442 -19L391 -17Z" />
<glyph unicode="R" glyph-name="R" horiz-adv-x="722" d="M17 665Q17 672 28 683H221Q415 681 439 677Q461 673 481 667T516 654T544 639T566 623T584 607T597 592T607 578T614 565T618 554L621 548Q626 530 626 497Q626 447 613 419Q578 348 473 326L455 321Q462
310 473 292T517 226T578 141T637 72T686 35Q705 30 705 16Q705 7 693 -1H510Q503 6 404 159L306 310H268V183Q270 67 271 59Q274 42 291 38Q295 37 319 35Q344 35 353 28Q362 17 353 3L346 -1H28Q16 5 16 16Q16 35 55 35Q96 38 101 52Q106 60 106 341T101 632Q95
645 55 648Q17 648 17 665ZM241 35Q238 42 237 45T235 78T233 163T233 337V621L237 635L244 648H133Q136 641 137 638T139 603T141 517T141 341Q141 131 140 89T134 37Q133 36 133 35H241ZM457 496Q457 540 449 570T425 615T400 634T377 643Q374 643 339 648Q300
648 281 635Q271 628 270 610T268 481V346H284Q327 346 375 352Q421 364 439 392T457 496ZM492 537T492 496T488 427T478 389T469 371T464 361Q464 360 465 360Q469 360 497 370Q593 400 593 495Q593 592 477 630L457 637L461 626Q474 611 488 561Q492 537 492
496ZM464 243Q411 317 410 317Q404 317 401 315Q384 315 370 312H346L526 35H619L606 50Q553 109 464 243Z" />
<glyph unicode="S" glyph-name="S" horiz-adv-x="556" d="M54 238Q72 238 72 212Q72 174 106 121Q113 110 132 90T166 59Q221 23 264 23Q315 23 348 41Q368 50 384 79Q393 102 393 129Q393 181 356 219T221 299Q120 343 74 390T28 501Q28 561 55 610Q98 682 212
699Q214 699 231 700T261 701Q309 698 340 687T408 675Q431 678 445 690T465 702Q474 702 481 690V497L477 490Q464 481 450 490Q446 500 446 501Q446 546 386 606T260 666Q215 666 182 639T148 565Q148 528 186 496T319 428Q352 414 370 405T418 379T468 338T506
284Q528 239 528 191Q528 102 456 46T266 -10Q211 -10 176 2T110 15Q86 9 73 -1T53 -12Q44 -12 37 -1V112V182Q37 214 40 226T54 238ZM446 619Q446 648 444 648Q439 646 435 644Q425 644 415 639H404L417 624Q435 606 439 601L446 592V619ZM124 619L128 635Q126
635 108 617Q64 576 64 502Q64 489 65 479T76 449T102 414T150 376T228 335Q335 291 381 245T427 128Q427 94 419 75L415 61Q421 61 448 88Q490 127 490 190Q490 233 475 264Q456 299 430 321Q402 349 369 367T287 404T204 441Q138 481 119 526Q113 544 113 565Q113
596 124 619ZM75 43Q76 43 90 46T110 50H119L106 64L74 101Q72 101 72 72T75 43Z" />
<glyph unicode="T" glyph-name="T" horiz-adv-x="667" d="M33 672Q36 680 44 683H624Q632 680 635 672V490L631 483Q621 479 617 479Q611 479 606 485T600 499Q600 525 584 552Q577 567 558 588T524 617Q479 642 426 646L415 648V355Q415 62 422 52Q425 42 434
40T473 35Q500 35 509 28Q518 17 509 3L502 -1H166L160 3Q149 17 160 28Q167 35 195 35Q224 37 234 39T249 52Q253 66 253 355V648L242 646Q192 642 144 617Q129 609 110 588T84 552Q69 527 69 499Q69 490 64 484T50 478Q39 478 33 490V672ZM113 639L126 648H69V597L84
612Q93 623 113 639ZM389 35Q382 46 381 86Q380 134 380 350V648H289V350Q289 199 288 131T286 53T280 35H389ZM600 597V648H542L555 639Q575 623 584 612L600 597Z" />
<glyph unicode="U" glyph-name="U" horiz-adv-x="722" d="M16 666Q16 677 28 683H341L348 679Q359 665 348 654Q342 648 315 648Q270 644 266 632Q262 627 262 598T261 399Q261 372 261 325T260 260Q260 149 274 99T339 30Q355 25 393 25Q430 25 457 33T494 49T519
72Q562 115 575 205Q576 219 576 379Q576 538 575 550Q568 597 550 622T506 648Q498 648 493 654T487 667T499 683H697Q709 675 709 667T704 654T690 648Q653 648 633 597Q624 573 622 546T619 377Q617 193 613 174Q596 95 544 41Q477 -19 355 -19H344Q275 -16
226 5T153 57T120 110T106 154Q101 172 99 399Q99 618 95 632Q88 644 53 648Q16 648 16 666ZM228 639L233 648H128Q128 647 133 632Q135 621 135 412Q135 197 137 185Q148 115 181 79Q209 51 235 41Q242 36 258 31T277 25Q276 27 268 38T254 59T241 92T228 145Q226
161 226 399Q226 632 228 639ZM604 621Q606 626 619 648H577L586 634Q587 632 591 625T595 614L597 608L604 621Z" />
<glyph unicode="V" glyph-name="V" horiz-adv-x="722" d="M316 683Q327 676 327 666Q327 648 302 648Q272 642 258 628Q249 621 249 608Q252 589 263 556T289 485T322 406T357 325T388 256T411 205L420 185Q423 185 473 317Q547 497 547 590Q547 621 541 632T516
648Q501 648 498 654Q488 664 498 679L504 683H607H660Q695 683 707 680T719 667Q719 660 714 654T700 648Q678 648 658 628L642 614L513 301Q484 231 449 148T397 25T380 -15Q373 -20 368 -20Q361 -20 358 -15Q354 -13 287 135T149 438T67 610Q45 648 18 648Q11
648 6 653T0 666Q0 677 9 680T59 683H164H316ZM216 614Q216 620 216 622T216 628T216 633T217 635T218 638T219 640T221 644T224 648H84L96 632Q118 592 236 330L367 43L387 88L404 132L380 185Q250 468 222 568Q216 590 216 614ZM576 645Q584 628 584 597L587
568L598 597Q609 624 618 637L624 648H600Q576 648 576 645Z" />
<glyph unicode="W" glyph-name="W" horiz-adv-x="1000" d="M785 664Q785 670 795 683H982Q994 675 994 665Q994 650 975 648Q953 643 939 619Q931 593 823 292T710 -15Q706 -19 699 -19T688 -15Q682 -6 639 107T555 328T513 437Q513 438 500 409T462 325T413 212Q315
-14 310 -17Q308 -19 302 -19T288 -15L57 619Q45 643 24 648Q5 650 5 665Q5 677 17 683H146H200Q256 683 270 681T285 666Q285 659 280 654T268 648Q253 648 239 634Q230 630 230 619Q230 598 264 481L362 192Q363 193 428 341T493 492Q493 496 473 546T446 608Q426
648 399 648Q392 648 387 653T382 667Q382 678 393 683H679Q690 670 690 665Q690 662 685 655T673 648Q653 648 633 632L622 625V610Q626 576 657 479T719 300T751 218Q754 218 779 294Q847 492 847 581Q847 648 802 648Q796 648 791 652T785 664ZM194 623Q194
630 199 648H82L90 632Q99 616 199 332L302 50Q303 50 322 94T342 141Q342 142 305 245T231 467T194 623ZM585 620Q585 634 593 648H530Q466 648 466 645Q479 632 595 323L699 54Q701 56 718 103T735 154L702 245Q585 562 585 620ZM884 572L890 587Q896 602 903
620T915 645Q915 648 893 648H868L875 634Q883 598 883 576Q883 572 884 572Z" />
<glyph unicode="X" glyph-name="X" horiz-adv-x="722" d="M22 666Q22 677 31 680T80 683H184H335Q346 675 346 667Q346 660 341 655Q335 648 315 648Q280 644 273 637Q273 630 300 583T356 492T386 448Q430 504 450 535T474 577T478 601Q478 620 469 634T444 648Q428
648 428 666Q428 678 436 680T488 683H559H630Q673 683 681 681T690 666Q690 648 673 648Q652 648 619 637Q571 615 517 550Q490 517 450 464T410 408Q415 399 501 273T617 106Q648 61 661 48T688 35Q705 35 705 16Q705 5 695 -1H539Q384 -1 379 3Q373 10 373 17Q373
27 380 31T408 35Q459 40 459 49Q459 59 418 129T335 259Q334 260 332 260Q328 260 273 197Q210 127 208 117Q199 104 199 82Q199 57 213 46T239 35Q247 35 252 29T257 15Q257 10 256 7T253 3T248 0L246 -1H28Q16 7 16 15T21 29T35 35Q61 35 117 88Q289 279 304
297Q307 303 255 377Q117 586 79 626Q60 648 39 648Q32 648 27 653T22 666ZM237 639V648H173Q113 647 113 646Q113 642 137 612Q186 546 302 373T453 139Q497 63 497 43Q497 39 495 35H559Q622 35 622 37Q622 38 583 94T486 233T373 399T277 552T237 639ZM553 637L566
648H504L508 637Q510 630 515 615V603L528 615Q529 616 539 625T553 637ZM170 46Q169 49 167 58T164 70V83L137 59L113 35H175Q175 38 170 46Z" />
<glyph unicode="Y" glyph-name="Y" horiz-adv-x="722" d="M16 659T16 667T28 683H295Q306 676 306 666Q306 648 284 648Q258 648 255 641Q255 634 265 615T339 479Q418 339 421 339L455 394Q489 448 523 502L557 557Q560 566 560 582Q560 637 504 648Q489 648
486 655Q475 664 486 679L493 683H693Q704 675 704 667Q704 650 684 648Q672 645 653 623Q633 604 614 576T517 426L439 301V183Q442 62 444 59Q449 35 504 35Q521 35 528 30Q538 16 528 3L521 -1H195L188 3Q178 16 188 30Q195 35 213 35Q266 35 273 59Q274 61
277 163V261L75 621Q64 638 58 643T37 648Q28 648 22 653ZM219 637V648H101Q110 634 215 446L313 270V166Q310 59 306 48L301 35H415L410 48Q404 65 404 175V290L317 443Q230 601 226 612Q219 625 219 637ZM608 630L624 648H575Q584 632 588 623L595 610L608 630Z"
/>
<glyph unicode="Z" glyph-name="Z" horiz-adv-x="667" d="M39 -1Q29 9 29 12Q29 23 60 77T219 337L410 648H364Q261 648 210 628Q168 612 142 588T109 545T97 509T88 490Q85 489 80 489Q72 489 61 503L70 588Q72 607 75 628T79 662T81 675Q84 677 88 681Q90 683
341 683H592Q604 673 604 666Q604 662 412 348L221 37Q221 35 301 35Q406 35 446 48Q504 68 543 111T597 212Q602 239 617 239Q624 239 629 234T635 223Q635 215 621 113T604 8L597 1Q595 -1 317 -1H39ZM148 637L166 648H112V632Q111 629 110 622T108 612Q108 608
110 608T116 612T129 623T148 637ZM552 646Q552 648 504 648Q452 648 450 643Q448 639 266 343T77 37Q77 35 128 35H179L366 339L552 646ZM572 35Q581 89 581 97L561 77Q542 59 526 48L508 37L539 35H572Z" />
<glyph unicode="k" glyph-name="k" horiz-adv-x="556" d="M519 443Q519 426 497 426Q458 422 361 335Q328 308 315 295Q307 289 310 286T383 193T466 88Q507 35 517 35Q534 35 534 16Q534 5 524 -1H304L297 3Q288 19 297 28Q300 35 317 35Q320 36 324 36T330 37T333
39Q334 39 334 40Q334 47 304 86T244 162L215 199Q212 202 206 199Q201 195 201 137V121Q201 35 230 35Q238 35 243 29T248 15Q248 4 237 -1H28L21 3Q17 13 17 17Q17 24 22 29T35 35Q55 35 61 70Q63 78 63 341T61 612Q55 648 35 648Q27 648 22 654T17 668Q17 678
26 682Q27 683 28 683H108H147Q156 683 162 683T174 683T182 683T187 682T191 681T194 680T197 678T201 675V461L204 246L244 281Q254 291 272 307Q317 349 326 360T339 386Q340 390 340 398Q340 426 321 426Q314 426 309 431T304 445Q304 456 315 461H508Q519
448 519 443ZM166 359V648H126Q89 648 89 645Q89 644 89 644T90 643T91 640T93 634T95 626Q99 612 99 341T95 57Q94 53 93 49T91 43T90 39L89 37Q89 35 133 35Q176 35 176 37Q175 38 175 39Q175 42 170 57Q166 70 166 359ZM410 423Q412 425 407 426Q404 426 393
426Q373 426 373 423Q374 422 375 417T377 410Q377 399 379 399Q406 419 410 423ZM460 37Q460 41 368 152L281 263Q280 263 259 246L239 228Q298 157 355 79Q370 61 370 41V35H417Q460 35 460 37Z" />
<glyph unicode="&#xa0;" glyph-name="uni00A0" horiz-adv-x="250" />
<glyph unicode="&#xa5;" glyph-name="yen" horiz-adv-x="750" d="M515 0Q494 3 374 3Q256 3 235 0H224V46H257Q316 47 324 58Q327 62 327 137V213H133Q121 213 113 213T97 213T86 213T78 213T73 214T70 215T69 216T68 218T67 220Q64 225 66 231T73 240Q76 242
202 242H327V273L247 407H115Q81 407 75 408T67 414Q64 419 66 425T73 434Q76 436 153 436Q228 436 228 437Q227 440 173 530T115 623Q101 637 31 637H11V683H20Q66 681 153 681Q169 681 202 681T262 682L288 683H298V637H280Q230 636 230 621Q230 619 250 584Q255
576 264 561T286 526T305 494L340 437L403 436H467L513 514Q564 596 564 605Q564 608 560 616Q550 634 517 637H508V683H516Q531 680 633 680Q722 680 731 683H738V637H723Q644 632 617 595Q614 591 568 515T521 437T597 436T676 434Q681 432 683 426T682 414T671
409T589 407H503L422 273V242H547Q673 242 676 240Q681 238 683 232T682 220Q682 219 682 218T681 217T679 216T677 215T672 214T664 213T652 213T637 213T616 213H422V139V87Q422 64 425 58T441 49Q456 46 503 46H525V0H515ZM449 406Q449 407 403 407Q358 407
358 406L370 387Q381 368 392 350L404 331Q447 404 449 406Z" />
<glyph unicode="&#xae;" glyph-name="registered" horiz-adv-x="947" d="M915 266Q915 140 852 38T689 -120T474 -175Q312 -175 188 -71T38 190Q32 220 32 266V287Q32 345 57 416T129 545Q192 624 282 666T464 709Q513 709 522 708Q599 698 665 666T776 590T853
493T900 387T915 287V266ZM875 285Q875 339 853 399T789 517T676 616T519 668Q510 669 465 669Q380 669 299 630T155 514T77 336Q72 312 72 285V266V256Q72 123 163 11Q290 -135 474 -135Q614 -135 727 -46Q875 81 875 266V285ZM276 457Q275 458 274 460T272 463T270
465T267 467T264 469T258 471T252 472T243 473T232 474T218 474H204V514H335Q477 514 499 510Q560 502 610 467T661 375Q661 362 658 350T648 327T635 308T618 292T601 280T583 269T568 262T554 256L547 253Q548 252 556 247T570 237T586 223T602 202T614 174Q616
169 626 123T638 72Q652 23 683 23Q715 23 720 68Q721 78 724 81T740 84T756 82T760 70Q760 47 747 25T715 -7Q700 -14 673 -14Q672 -14 662 -14T643 -12T619 -7T593 2T568 16T547 37T534 67Q531 80 531 97Q531 103 531 116T532 136Q532 218 472 236Q466 238 413
239H360V148L361 58Q366 47 375 44T418 40H432V0H424Q409 3 318 3T212 0H204V40H218Q242 40 253 42T268 47T276 58V457ZM376 473Q365 471 363 464T360 430V366V276H416Q421 276 434 276T453 276T469 277T486 279T501 282T517 287T529 294T542 305Q561 324 561 375Q561
424 545 444T482 472Q478 473 427 474Q415 474 403 474T384 474L376 473Z" />
<glyph unicode="&#xf0;" glyph-name="eth" horiz-adv-x="556" d="M75 566V604Q75 624 79 629T102 635Q124 635 127 629T131 588L133 550L191 588L249 628L231 635Q176 654 124 657Q116 657 106 658L95 659Q94 661 94 687T95 715Q99 717 113 717Q195 717 282 679L309
668L331 681Q351 697 391 721Q428 748 435 748Q437 749 446 749Q470 749 473 746Q478 744 478 681V621Q466 615 456 615Q435 615 424 624L422 661V699L382 675L344 648Q353 639 366 630Q480 538 504 413Q509 393 509 333V313Q509 284 507 257T495 184T466 102T413
33T329 -16Q311 -21 275 -21Q226 -21 195 -10Q150 7 110 50T53 141Q42 179 42 227Q42 332 101 403T245 474Q282 474 314 461T359 436T380 415Q386 405 389 408Q389 426 378 475Q368 505 355 529T329 567T306 590T288 603L282 606L120 501Q116 500 102 500Q84 500
75 506V566ZM388 225Q388 376 309 410Q299 416 273 419Q216 419 191 390Q174 371 168 342T162 218Q162 112 184 79Q212 39 273 39Q312 39 342 62T380 121Q388 159 388 225Z" />
<glyph unicode="&#x127;" glyph-name="hbar" horiz-adv-x="540" d="M182 599Q182 611 174 615T133 619Q118 619 114 621T109 630Q109 636 114 656T122 681Q125 685 202 688Q272 695 286 695Q304 695 304 684Q304 682 295 644T282 597Q282 592 360 592H399Q430
592 445 587T460 563Q460 552 451 541L442 535H266L251 468Q247 453 243 436T236 409T233 399Q233 395 244 404Q295 441 357 441Q405 441 445 417T485 333Q485 284 449 178T412 58T426 44Q447 44 466 68Q485 87 500 130L509 152H531H543Q562 152 562 144Q562 128
546 93T494 23T415 -13Q385 -13 359 3T322 44Q318 52 318 77Q318 99 352 196T386 337Q386 386 346 386Q318 386 286 370Q267 361 245 338T211 292Q207 287 193 235T162 113T138 21Q128 7 122 4Q105 -12 83 -12Q66 -12 54 -2T42 26L166 530Q166 534 161 534T129
535Q127 535 122 535T112 534Q74 534 74 562Q74 570 77 576T84 585T96 589T109 591T124 592T138 592L182 595V599Z" />
<glyph unicode="&#x2c6;" glyph-name="circumflex" horiz-adv-x="2333" d="M1 561Q-3 563 -6 577T-12 604L-14 618Q-14 625 -7 628T23 635Q31 636 36 637Q63 641 621 745Q1148 845 1165 845Q1167 845 1752 739L2338 630Q2346 630 2346 618Q2340 565 2332 561Q2329
561 1749 654Q1617 675 1466 699T1241 736T1167 748Q1165 748 1093 737T867 700T583 654Q3 561 1 561Z" />
<glyph unicode="&#x2dc;" glyph-name="tilde" horiz-adv-x="2333" d="M804 788Q717 788 606 772T397 732T213 685T75 645T18 628Q11 628 11 632Q8 637 4 668T2 704Q2 713 36 732Q55 739 242 795Q622 898 826 898Q893 898 947 895Q1009 887 1056 872T1187 819Q1286
776 1356 758T1527 739Q1614 739 1725 755T1934 795T2118 842T2256 882T2313 899Q2320 899 2320 895Q2323 890 2327 860T2329 824Q2329 818 2296 795Q2273 787 2089 732Q1810 657 1598 632Q1562 629 1492 629Q1389 629 1320 644T1144 708Q1048 751 977 769T804
788Z" />
<glyph unicode="&#x302;" glyph-name="uni0302" horiz-adv-x="0" d="M-2332 561Q-2336 563 -2340 577T-2346 604L-2347 618Q-2347 625 -2340 628T-2310 635Q-2302 636 -2297 637Q-2270 641 -1712 745Q-1185 845 -1168 845Q-1166 845 -581 739L5 630Q13 630 13
618Q7 565 -1 561Q-4 561 -584 654Q-716 675 -867 699T-1092 736T-1166 748Q-1168 748 -1240 737T-1466 700T-1750 654Q-2330 561 -2332 561Z" />
<glyph unicode="&#x303;" glyph-name="tildecomb" horiz-adv-x="0" d="M-1529 788Q-1616 788 -1727 772T-1936 732T-2120 685T-2258 645T-2315 628Q-2322 628 -2322 632Q-2325 637 -2329 668T-2331 704Q-2331 713 -2297 732Q-2278 739 -2091 795Q-1711 898 -1507
898Q-1440 898 -1386 895Q-1324 887 -1277 872T-1146 819Q-1047 776 -977 758T-806 739Q-719 739 -608 755T-399 795T-215 842T-77 882T-20 899Q-13 899 -13 895Q-10 890 -6 860T-4 824Q-4 818 -37 795Q-60 787 -244 732Q-523 657 -735 632Q-771 629 -841 629Q-944
629 -1013 644T-1189 708Q-1285 751 -1356 769T-1529 788Z" />
<glyph unicode="&#x3dd;" glyph-name="uni03DD" horiz-adv-x="778" d="M477 261Q477 257 473 256T455 253T417 251T348 250H235L155 -77L146 -82Q137 -85 109 -85Q55 -85 55 -77L139 261Q224 596 226 598Q229 603 239 603Q240 603 254 603T290 603T341 604T405
605T477 605Q656 603 687 602T719 596Q719 589 692 588T513 585H319L282 427L242 272Q242 270 351 270Q388 270 410 270T444 269T460 267T469 265T477 261Z" />
<glyph unicode="&#x3f0;" glyph-name="uni03F0" horiz-adv-x="667" d="M228 325Q170 322 156 316T127 309Q108 309 104 314Q99 319 99 322T108 341Q125 376 171 400T268 425H271Q302 425 319 396Q328 377 328 358Q328 332 324 314Q311 270 286 221Q274 194 274
192H275Q339 234 484 325T639 421Q669 434 691 434T723 425T734 406Q734 394 719 381Q715 376 644 330L575 287L566 267Q543 233 526 176Q520 160 515 143T508 115T506 105Q506 103 533 103Q585 103 607 110T641 118Q670 118 670 107Q670 100 661 85Q643 50 598
27T504 3Q465 3 450 36Q441 51 441 73Q441 84 444 96Q452 146 484 205L497 236L324 125Q143 12 135 10Q103 -6 77 -6Q61 -6 49 2T37 21Q37 36 49 46T124 96L195 141L204 156Q219 179 243 248T264 323Q264 325 228 325Z" />
<glyph unicode="&#x2035;" glyph-name="uni2035" horiz-adv-x="275" d="M12 501Q12 527 31 542T63 558Q73 560 77 560Q114 560 128 528Q133 518 188 293T244 61Q244 56 223 50T195 43Q192 43 190 45T102 263T14 486Q12 496 12 501Z" />
<glyph unicode="&#x210f;" glyph-name="uni210F" horiz-adv-x="540" d="M150 475Q147 475 118 466T82 457Q73 457 64 467T54 487Q54 490 55 492Q63 506 64 506Q67 512 118 526Q162 541 169 546Q173 559 175 575Q181 596 181 604Q181 613 166 617Q164 617 153 618T135
619Q119 619 114 621T109 630Q109 636 114 656T122 681Q125 685 202 688Q272 695 286 695Q304 695 304 684Q304 682 291 628L278 577L386 612Q466 635 476 635T492 627T499 607Q499 593 489 586Q485 583 373 546L262 512Q262 511 248 455T233 397T236 397T244 404Q295
441 357 441Q405 441 445 417T485 333Q485 284 449 178T412 58T426 44Q447 44 466 68Q485 87 500 130L509 152H531H543Q562 152 562 144Q562 128 546 93T494 23T415 -13Q385 -13 359 3T322 44Q318 52 318 77Q318 99 352 196T386 337Q386 386 346 386Q318 386 286
370Q267 361 245 338T211 292Q207 287 193 235T162 113T138 21Q128 7 122 4Q105 -12 83 -12Q66 -12 54 -2T42 26Q42 45 98 257L151 475H150Z" />
<glyph unicode="&#x2127;" glyph-name="uni2127" horiz-adv-x="722" d="M126 584Q119 584 110 539T97 493Q95 490 73 490Q44 490 44 501Q44 515 62 590Q75 672 82 679Q84 684 177 684Q193 684 214 684T241 685Q265 685 271 682T277 664V648Q271 572 229 434T186
231Q186 173 203 132T247 70T302 42T360 33Q391 33 419 42T474 72T517 133T533 231Q533 297 491 437T442 648Q442 675 446 679Q448 684 542 684Q635 684 637 681Q640 678 657 594T675 501Q675 490 646 490Q624 490 622 493Q620 493 609 538T593 584Q591 585 585
585T569 586T551 588H513Q514 586 518 573T538 531T582 453Q647 340 660 277Q663 259 663 232Q663 194 657 177Q652 151 629 112T560 39Q495 -5 424 -19Q403 -22 360 -22Q318 -22 297 -19Q239 -8 193 18T120 74T80 131T62 177Q56 194 56 229Q56 281 74 328T137
453Q160 491 174 518T193 555T201 575T206 588H168Q160 587 150 587T134 586T126 584Z" />
<glyph unicode="&#x2132;" glyph-name="uni2132" horiz-adv-x="556" d="M457 681Q471 695 477 695Q485 695 497 681V12L484 -1H68Q55 14 55 19T68 39H457V328H215L211 335Q198 346 211 359L217 368H457V681Z" />
<glyph unicode="&#x2136;" glyph-name="uni2136" horiz-adv-x="667" d="M56 706V726Q56 763 76 763Q83 763 87 759T98 741Q108 726 116 721L127 717L340 715Q547 712 564 709Q575 705 587 692Q599 680 605 663L609 650V137H676Q687 124 687 115Q687 110 678 100T622
43L558 -21H-9Q-22 -6 -22 -1T-13 14T42 72L107 137H569V339Q569 541 567 546Q558 555 554 557L545 563H329Q118 566 101 569Q90 573 78 586Q54 610 54 661Q54 670 56 706Z" />
<glyph unicode="&#x2137;" glyph-name="uni2137" horiz-adv-x="444" d="M56 750Q68 764 76 764Q88 764 97 743T125 717Q131 715 240 715T358 713Q421 691 421 640Q421 608 399 588T358 566Q353 566 352 565T351 557L356 526Q356 488 379 346T402 97Q400 21 385
-12Q366 -43 351 -43Q335 -43 329 -10Q316 40 316 64Q316 67 315 67Q313 67 269 26L222 -21H-9Q-22 -7 -22 -1Q-22 4 -14 14T42 73L107 137H311V564H211H164Q115 564 93 573T60 615Q56 630 56 690V750Z" />
<glyph unicode="&#x2138;" glyph-name="uni2138" horiz-adv-x="667" d="M62 757Q69 764 75 764Q87 764 97 741Q102 731 105 728T117 721L129 715H349Q569 715 580 710Q618 701 635 670Q640 661 640 639Q640 609 622 590Q617 583 604 575T580 566H573V553Q575 547
576 531T582 469T600 353Q624 205 624 104Q624 46 617 17T591 -32Q581 -43 573 -43Q550 -43 540 44Q535 73 533 319V564H322Q117 566 100 570Q90 573 77 586Q54 609 54 663Q54 689 55 706Q55 738 56 745T62 757Z" />
<glyph unicode="&#x2141;" glyph-name="uni2141" horiz-adv-x="639" d="M239 665Q194 665 154 653T90 629T66 617Q59 617 53 623T46 637Q46 652 66 659Q129 695 197 701Q218 705 248 705Q293 705 335 693Q371 684 435 644Q543 562 573 417Q577 393 577 341Q577
290 573 266Q531 83 384 10Q346 -9 315 -16T234 -23H206Q202 -23 183 -23T152 -21T120 -18T88 -10T63 3T44 24L37 35V297L50 310H235Q248 297 248 290Q248 285 235 270H77V103Q77 88 77 80T77 63T78 50T80 43T82 38T85 35T89 32T95 30Q126 20 206 17Q289 17 330
30Q407 55 460 120T533 275Q538 305 538 342Q538 486 452 575T239 665Z" />
<glyph unicode="&#x2190;" glyph-name="arrowleft" horiz-adv-x="500" d="M292 419Q292 400 261 347T211 275H306Q319 275 338 275T364 276Q399 276 410 271T422 250T411 230T366 225H306H211Q214 222 232 197T271 136T292 82Q292 71 285 68T262 64H250H241Q221
64 216 67T205 83Q186 127 153 167T78 230Q64 238 64 250Q64 258 69 263T82 272T106 288T139 318Q162 342 177 365T198 402T209 425T223 436Q224 437 252 437H258Q292 437 292 419Z" />
<glyph unicode="&#x2192;" glyph-name="arrowright" horiz-adv-x="500" d="M188 417Q188 437 221 437H233Q256 437 263 434T275 417Q294 373 327 333T402 270Q417 261 417 250Q417 241 410 236T382 217T341 182Q315 155 299 128T275 85T263 66Q259 64 231 64H219Q197
64 191 72T193 100Q202 124 215 147T239 185T257 210T267 223L269 225H174H116Q80 225 69 229T58 250T70 271T114 276Q121 276 140 276T174 275H269L267 277Q266 280 257 291T233 325T205 374Q188 408 188 417Z" />
<glyph unicode="&#x219a;" glyph-name="uni219A" horiz-adv-x="1000" d="M942 250Q942 244 928 230H511L457 148Q440 124 420 93Q404 68 400 64T389 60Q381 60 375 66T368 81Q368 88 415 159L462 230H175L188 214Q210 188 235 145T264 85Q264 75 260 74T231 72L206
74L191 103Q169 142 164 150Q130 195 64 239Q56 244 56 250T64 261Q115 294 142 323T191 397L206 428H231Q255 428 259 426T264 414Q260 397 235 355T188 288L175 272L331 270Q488 270 491 272Q491 275 542 352T597 432Q602 437 609 437Q617 437 622 432T628 417T582
341L537 272L735 270H931Q942 257 942 250Z" />
<glyph unicode="&#x219b;" glyph-name="uni219B" horiz-adv-x="1000" d="M54 250Q54 258 66 270H277L488 272L542 350Q596 431 602 435Q604 437 609 437Q617 437 622 432T628 417T582 341L537 272L608 270H751L822 272L808 288Q786 313 761 355T733 414Q733 424
737 426T766 428H793L806 397Q829 354 864 314Q896 284 928 263Q942 257 942 250T928 237Q887 208 864 185Q829 147 806 103L793 74L766 72Q742 72 738 73T733 85Q735 102 756 137T797 198L817 225L822 230H511L457 148Q440 124 420 93Q404 68 400 64T389 60Q381
60 375 66T368 81Q368 88 415 159L462 230H264L66 232Q54 239 54 250Z" />
<glyph unicode="&#x219e;" glyph-name="uni219E" horiz-adv-x="1000" d="M56 250Q103 277 142 322T199 417H221Q244 417 244 416Q244 414 237 397T208 344T158 278L151 270H276L285 277Q322 306 349 345T388 417H434Q434 413 424 392T393 338T349 279L340 270H634Q933
270 937 266L938 265Q944 259 944 250T938 235L937 234Q933 230 634 230H340L349 221Q372 196 393 163T424 108T434 83H388Q377 116 350 155T285 223L276 230H151L158 222Q186 191 207 156T236 104T244 84Q244 83 221 83H199Q181 133 142 178T56 250Z" />
<glyph unicode="&#x21a0;" glyph-name="uni21A0" horiz-adv-x="1000" d="M943 250Q895 221 856 177T801 83H778Q755 83 755 84Q755 86 762 103T791 156T841 222L848 230H723L714 223Q677 194 650 155T611 83H565Q565 87 575 108T606 162T650 221L659 230H365Q66
230 62 234L61 235Q55 241 55 250T61 265L62 266Q66 270 365 270H659L650 279Q627 304 606 337T575 392T565 417H611Q622 384 649 345T714 277L723 270H848L841 278Q813 309 792 344T763 396T755 416Q755 417 778 417H801Q817 367 856 323T943 250Z" />
<glyph unicode="&#x21a2;" glyph-name="uni21A2" horiz-adv-x="1111" d="M56 250Q103 277 142 322T199 417H221Q244 417 244 416Q244 414 237 397T208 344T158 278L151 270H873L882 277Q919 306 946 345T985 417H1031Q1031 413 1021 392T990 338T946 279L937 270V230L946
221Q969 196 990 163T1021 108T1031 83H985Q974 116 947 155T882 223L873 230H151L158 222Q186 191 207 156T236 104T244 84Q244 83 221 83H199Q181 133 142 178T56 250Z" />
<glyph unicode="&#x21a3;" glyph-name="uni21A3" horiz-adv-x="1111" d="M1054 250Q1006 221 967 177T912 83H889Q866 83 866 84Q866 86 873 103T902 156T952 222L959 230H237L228 223Q191 194 164 155T125 83H79Q79 87 89 108T120 162T164 221L173 230V270L164
279Q141 304 120 337T89 392T79 417H125Q136 384 163 345T228 277L237 270H959L952 278Q924 309 903 344T874 396T866 416Q866 417 889 417H912Q928 367 967 323T1054 250Z" />
<glyph unicode="&#x21ab;" glyph-name="uni21AB" horiz-adv-x="1000" d="M56 250Q103 277 142 322T199 417H221Q244 417 244 416Q244 414 237 397T208 344T158 278L151 270H622V305Q622 356 624 388T635 460T661 521T709 559T785 575Q813 575 833 573T880 561T923
534T952 483T964 405Q964 374 959 350T942 307T918 276T884 255T847 242T804 235T760 231T713 230H662V-27Q654 -41 644 -41H642H640Q628 -41 622 -27V230H151L158 222Q186 191 207 156T236 104T244 84Q244 83 221 83H199Q181 133 142 178T56 250ZM924 403Q924
474 894 505T794 536Q758 536 734 526T696 500T675 453T665 395T662 319V270H699Q826 270 875 295T924 403Z" />
<glyph unicode="&#x21ac;" glyph-name="uni21AC" horiz-adv-x="1000" d="M35 405Q35 454 48 489T86 542T137 567T195 575Q229 575 251 571T301 554T345 510T370 429Q377 384 377 305V270H848L841 278Q813 309 792 344T763 396T755 416Q755 417 778 417H801Q817
367 856 323T943 250Q896 221 857 177T801 83H778Q755 83 755 84Q755 86 762 103T791 156T841 222L848 230H377V-27Q369 -41 359 -41H357Q342 -41 337 -25V230H286Q247 231 225 232T169 238T115 255T75 284T45 333T35 405ZM75 406Q75 322 123 296T300 270H337V319Q335
432 317 477T240 534Q232 535 197 535Q140 535 108 507T75 406Z" />
<glyph unicode="&#x21ad;" glyph-name="uni21AD" horiz-adv-x="1389" d="M57 250Q159 311 200 417H246L242 407Q215 340 159 278L152 270H276L315 310Q354 349 358 351Q366 356 376 351Q378 350 455 273L530 196L606 273Q683 350 686 351Q694 354 703 351Q705
350 782 273L858 196L933 273Q1010 350 1012 351Q1022 356 1030 351Q1034 349 1073 310L1112 270H1236L1229 278Q1173 340 1146 407L1142 417H1188Q1233 306 1331 250Q1231 192 1188 83H1142L1146 93Q1173 160 1229 222L1236 230H1168Q1155 230 1139 230T1119 229Q1112
229 1108 229T1099 231T1092 233T1085 238T1078 245T1068 256T1056 269L1021 304L984 267Q948 230 910 191T867 149Q857 144 848 150Q844 151 770 227T694 304T618 228T540 150Q531 144 521 149Q517 152 479 191T404 267L367 304L332 269Q328 264 320 256T310 246T303
239T296 234T289 231T280 229T269 229Q265 229 249 229T220 230H152L159 222Q215 160 242 93L246 83H223L200 84L195 96Q152 190 57 250Z" />
<glyph unicode="&#x21ae;" glyph-name="uni21AE" horiz-adv-x="1000" d="M491 272Q491 275 542 352T597 432Q602 437 609 437Q617 437 622 432T628 417T582 341L537 272L608 270H751L822 272L808 288Q786 313 761 355T733 414Q733 424 737 426T766 428H793L806
397Q829 354 864 314Q896 284 928 263Q942 257 942 250T928 237Q887 208 864 185Q829 147 806 103L793 74L766 72Q742 72 738 73T733 85Q735 102 756 137T797 198L817 225L822 230H511L457 148Q440 124 420 93Q404 68 400 64T389 60Q381 60 375 66T368 81Q368 88
415 159L462 230H175L188 214Q210 188 235 145T264 85Q264 75 260 74T231 72L206 74L191 103Q169 142 164 150Q130 195 64 239Q56 244 56 250T64 261Q115 294 142 323T191 397L206 428H231Q255 428 259 426T264 414Q260 397 235 355T188 288L175 272L331 270Q488
270 491 272Z" />
<glyph unicode="&#x21b0;" glyph-name="uni21B0" horiz-adv-x="500" d="M56 555Q74 567 79 570T107 592T141 625T170 667T198 722H221Q244 722 244 721Q244 718 236 699T207 647T161 587L151 576L291 575H292H293H294H296H297H298H299H300H301H302H304H305H306H307H308H309H310H311H312H314H315H316H317H318H319H320H321H322H323H324H325H327H328H329H330H331H332H333H334H335H336H337H338H339H340H341H342H343H345Q435
574 438 570L439 569L440 568Q444 564 444 287Q444 15 442 12Q436 0 424 0T406 12Q404 15 404 275V535H151L162 523Q187 495 207 462T236 410T244 389H198L193 402Q171 457 131 497T56 555Z" />
<glyph unicode="&#x21b1;" glyph-name="uni21B1" horiz-adv-x="500" d="M301 722Q339 618 443 555L437 551Q431 547 422 541T401 526T377 504T352 477T327 443T306 402L301 389H255Q255 392 263 410T291 461T337 523L348 535H95V275Q95 15 93 12Q87 0 75 0T57
12Q55 15 55 287Q55 564 59 568L60 569Q64 573 76 573T208 575L348 576L338 587Q314 613 294 646T264 698T255 721Q255 722 278 722H301Z" />
<glyph unicode="&#x21b6;" glyph-name="uni21B6" horiz-adv-x="1000" d="M361 210Q373 210 373 182V177Q373 155 370 151T348 139Q303 118 267 84T216 28T201 1Q197 -1 196 -1Q189 -1 184 8Q166 39 143 64T99 104T61 129T32 144T19 150Q17 152 17 179Q17 203 21
208Q28 210 39 206Q106 178 157 135L175 119V126Q179 130 179 155Q182 173 193 201Q228 305 312 374T510 459Q532 461 551 461H567Q678 461 784 386Q835 344 861 301Q902 245 926 173T950 32Q950 15 944 8Q930 -6 917 8Q910 12 910 43Q901 208 801 314T561 421Q453
421 359 359Q300 319 263 258T217 126L216 125Q216 124 216 123T217 122Q219 122 229 131T260 156T301 181Q314 189 336 199T361 210Z" />
<glyph unicode="&#x21b7;" glyph-name="uni21B7" horiz-adv-x="1000" d="M972 209Q980 209 981 204T982 179Q982 155 979 151T957 139Q915 121 878 86T815 8Q808 -1 803 -1Q801 -1 797 1Q797 6 783 28T732 84T650 139L628 150Q626 152 626 177Q626 201 630 206Q636
210 637 210Q650 210 697 181Q727 166 764 137L784 119L782 132Q767 239 689 318T499 417Q474 421 442 421Q343 421 261 369T130 219Q86 121 86 28Q86 15 79 8Q73 1 66 1T53 8Q46 15 46 30Q46 102 77 192T186 361Q274 443 386 459Q396 460 426 460Q515 460 588
431T703 361T773 271T812 187T822 132Q822 123 825 123Q936 209 972 209Z" />
<glyph unicode="&#x21ba;" glyph-name="uni21BA" horiz-adv-x="778" d="M369 543T369 563T397 583Q408 583 440 579L454 577L464 581Q492 592 516 609T552 638T565 650Q604 638 607 637Q606 636 598 628T585 614T570 601T548 584T523 568L510 560L516 558Q522
555 527 553T541 546T559 536T580 523T603 506T626 485Q722 384 722 250Q722 106 622 12T387 -83Q253 -83 155 12T56 250Q56 357 110 433T235 545Q244 550 252 550Q270 550 270 531Q270 522 261 515T238 501T202 477T159 433Q95 352 95 250Q95 131 178 45T388 -42Q511
-42 596 43T682 250Q682 340 636 408T522 511Q495 526 488 526Q488 525 488 525T487 522T485 515L490 506Q505 481 516 451T531 404T535 384L532 385Q529 386 524 387T513 390L491 397L488 408Q472 483 413 542L399 543Q369 543 369 563Z" />
<glyph unicode="&#x21bb;" glyph-name="uni21BB" horiz-adv-x="778" d="M170 637L213 650Q270 597 313 581L323 577L337 579Q369 583 380 583Q408 583 408 563T380 543H378L364 542Q305 483 289 408L286 397L264 390Q259 389 254 388T245 385L242 384Q242 387
246 403T261 450T287 506L292 515Q291 519 291 521T290 524T289 526Q284 526 265 517T216 486T160 434T114 354T95 249Q95 132 178 45T388 -42Q513 -42 597 44T682 250Q682 337 638 404T532 506Q529 508 525 510T519 514T515 516T511 519T509 522T508 526T507 531Q507
550 525 550Q533 550 542 545Q569 532 596 511T653 454T702 366T721 250Q721 151 672 74T547 -43T388 -83Q254 -83 155 12T56 250Q56 385 151 485Q164 498 179 509T205 528T228 542T247 551T260 558L267 560L254 568Q215 590 170 637Z" />
<glyph unicode="&#x21be;" glyph-name="uni21BE" horiz-adv-x="417" d="M188 258V694H208L215 682Q246 628 293 594T375 551V528Q375 505 374 505Q369 505 351 510T299 534T237 578L228 587V205Q228 -178 226 -182Q221 -194 208 -194T190 -182Q188 -178 188 258Z" />
<glyph unicode="&#x21bf;" glyph-name="uni21BF" horiz-adv-x="417" d="M41 551Q76 559 123 592T201 682L208 694H228V258Q228 -178 226 -182Q221 -194 208 -194T190 -182Q188 -178 188 205V587L179 578Q151 552 117 534T65 511T42 505Q41 505 41 528V551Z" />
<glyph unicode="&#x21c2;" glyph-name="uni21C2" horiz-adv-x="417" d="M190 682Q195 694 208 694T226 683Q228 679 228 296V-87L237 -78Q265 -52 299 -34T351 -11T374 -5Q375 -5 375 -28V-51Q340 -60 293 -92T215 -182L208 -194H188V242Q188 678 190 682Z" />
<glyph unicode="&#x21c3;" glyph-name="uni21C3" horiz-adv-x="417" d="M188 295V573Q188 657 189 672T200 692Q206 694 208 694Q221 694 226 683Q228 679 228 242V-194H208L201 -182Q170 -128 123 -94T41 -51V-28Q41 -5 42 -5Q47 -5 65 -10T117 -34T179 -78L188
-87V295Z" />
<glyph unicode="&#x21c4;" glyph-name="uni21C4" horiz-adv-x="1000" d="M943 500Q895 471 856 427T801 333H778Q755 333 755 334Q755 336 762 353T791 406T841 472L848 480H459Q70 480 67 482Q55 488 55 500T67 518Q70 520 459 520H848L841 528Q813 559 792 594T763
646T755 666Q755 667 778 667H801Q817 617 856 573T943 500ZM56 167Q102 194 141 238T198 333H221Q244 333 244 332Q221 265 161 198L151 187H539Q928 187 930 186Q944 182 944 167Q944 155 934 149Q930 147 541 147H151L160 137Q185 110 205 77T235 24T244 1Q244
0 221 0H199Q158 106 56 167Z" />
<glyph unicode="&#x21c6;" glyph-name="uni21C6" horiz-adv-x="1000" d="M56 500Q103 527 142 572T199 667H221Q244 667 244 666Q244 664 237 647T208 594T158 528L151 520H539Q928 520 932 518Q944 513 944 500T932 482Q928 480 539 480H151L158 472Q186 441
207 406T236 354T244 334Q244 333 221 333H199Q181 383 142 428T56 500ZM943 167Q835 101 801 0H778Q755 0 755 1T758 9T765 25T771 39Q800 94 839 137L848 147H458Q68 147 66 149Q55 154 55 167Q55 182 69 186Q71 187 460 187H848L838 198Q811 228 791 261T762
314L755 332Q755 333 778 333H801Q841 227 943 167Z" />
<glyph unicode="&#x21c7;" glyph-name="uni21C7" horiz-adv-x="1000" d="M930 437Q944 426 944 416T934 399Q930 397 540 397H150L159 387Q185 360 205 328T234 277T243 252Q243 237 217 191T159 113L150 103H540Q930 103 934 101Q944 94 944 84Q944 71 930 64L540
63H151Q180 34 203 -2T236 -61L244 -83H198Q178 -31 142 11T66 77L55 83L65 89Q157 145 197 246Q199 250 190 269Q150 359 65 411L55 417L66 423Q106 447 142 489T198 583H244Q202 488 151 437H930Z" />
<glyph unicode="&#x21c8;" glyph-name="uni21C8" horiz-adv-x="833" d="M83 551Q190 590 250 694Q251 689 263 671T307 621T380 567Q409 551 416 551Q422 551 447 563T511 608T577 684L582 694Q642 591 749 551V528Q749 505 748 505Q745 505 724 515T669 546T612
590L602 599V-181Q595 -193 585 -193H582H581Q568 -193 565 -183L563 -179L562 209V598L552 589Q517 556 473 531T414 506H412Q411 506 393 514T361 530T324 553T280 589L270 598V-179Q255 -192 250 -193H247Q237 -193 230 -181V599L220 590Q197 567 164 546T110
515T84 505Q83 505 83 528V551Z" />
<glyph unicode="&#x21c9;" glyph-name="uni21C9" horiz-adv-x="1000" d="M55 416Q55 427 70 437H848Q819 466 796 502T764 561L755 583H801Q821 531 857 489T933 423L944 417L934 411Q843 355 802 254Q800 250 809 231Q849 141 934 89L944 83L933 77Q893 53 857
11T801 -83H755Q797 12 848 63H459L70 64Q55 70 55 84Q55 94 65 101Q69 103 459 103H849L840 113Q806 148 779 196T756 254Q756 255 760 264T770 286T786 315T809 351T840 387L849 397H459Q69 397 65 399Q55 406 55 416Z" />
<glyph unicode="&#x21ca;" glyph-name="uni21CA" horiz-adv-x="833" d="M230 681Q240 694 251 694Q260 693 270 680V-98L280 -89Q297 -73 314 -60T348 -38T374 -24T397 -13T412 -6H414Q428 -6 473 -32T552 -89L562 -98V291L563 680Q570 693 582 693Q593 694 602
681V-99L612 -90Q635 -68 668 -47T723 -15T748 -5Q749 -5 749 -28V-51Q642 -91 582 -194L577 -184Q551 -141 512 -108T447 -63T416 -51T385 -63T321 -108T255 -184L250 -194Q189 -89 83 -51V-28Q83 -5 84 -5Q88 -5 109 -15T164 -46T220 -90L230 -99V681Z" />
<glyph unicode="&#x21cb;" glyph-name="uni21CB" horiz-adv-x="1000" d="M195 504L198 514H221Q244 514 244 512Q244 508 239 490T215 437T171 376L162 367H545Q928 367 932 365Q944 360 944 347T932 329Q928 327 492 327H55V347L67 354Q113 379 146 420T195 504ZM67
171Q70 173 507 173H944V153L932 146Q839 95 804 -4L801 -14H778Q755 -14 755 -12Q768 59 828 124L837 133H454Q71 133 67 135Q55 140 55 153Q55 165 67 171Z" />
<glyph unicode="&#x21cc;" glyph-name="uni21CC" horiz-adv-x="1000" d="M755 512Q755 514 778 514H801L804 503Q805 501 812 486T824 462T839 437T862 408T892 381T932 354L944 347V327H507Q70 327 67 329Q55 335 55 347T67 365Q70 367 454 367H837L828 376Q803
403 785 437T761 489T755 512ZM55 153V173H492Q928 173 932 171Q944 166 944 153T932 135Q928 133 545 133H162L171 124Q198 95 216 61T239 8L244 -12Q244 -14 221 -14H198L195 -4Q160 95 67 146L55 153Z" />
<glyph unicode="&#x21cd;" glyph-name="uni21CD" horiz-adv-x="1000" d="M397 525Q410 525 414 524T418 516Q418 506 394 467T331 381L319 367H473L624 369L657 445Q674 487 684 507T699 531T709 534Q717 534 722 528T728 516Q728 510 695 434Q689 418 683 402T672
377T668 367H928Q942 355 942 347Q942 341 928 327H791Q651 327 651 325Q649 324 620 251T586 174Q586 172 757 172H928Q942 158 942 152Q942 143 928 132H568L537 54Q510 -9 503 -22T486 -35Q479 -35 473 -29T466 -17T495 61L526 132H319L331 118Q364 81 391 37T418
-17Q418 -23 415 -24T401 -26Q398 -26 397 -26L384 -24L377 -13Q344 49 301 97T218 170T143 210T84 233T55 245Q54 253 59 256T86 267Q281 327 377 512L384 525H397ZM606 325Q606 327 439 327H275Q258 312 179 265L148 249Q228 206 262 181L275 172H544L575 247L606
325Z" />
<glyph unicode="&#x21ce;" glyph-name="uni21CE" horiz-adv-x="1000" d="M395 -24T395 -19T417 57T440 132H255L266 116Q308 64 340 -6Q342 -17 337 -21Q335 -26 320 -26T302 -19Q302 -15 294 4T265 54T217 117T145 182T49 236Q30 243 33 254Q40 261 49 263Q98
283 142 315T214 379T263 442T293 493T302 519Q305 525 320 525T337 521Q342 516 340 505Q308 435 266 383L255 370L384 367H515Q561 522 569 530Q574 534 580 534Q587 534 594 528T602 516Q602 512 580 441T557 367H651L742 370L731 383Q689 435 657 505Q655 516
660 521Q662 525 677 525T695 519Q695 515 703 496T732 446T780 383T853 317T949 263Q967 258 964 245Q959 240 949 236Q897 215 852 182T779 116T731 52T703 3T695 -19Q692 -26 677 -26T660 -21Q655 -17 657 -6Q670 21 682 42T702 77T717 99T728 114T735 122T739
126T740 130T613 132H482L460 54Q440 -9 433 -23T415 -37Q408 -37 402 -31ZM502 325Q502 327 360 327H217L195 310Q173 291 120 256L111 250Q114 248 143 229T195 190L217 172H335L453 174L502 325ZM886 250Q885 251 865 263T831 286T802 310L780 327H544L535 299Q531
283 511 223L495 174L637 172H780L802 190Q843 225 877 243L886 250Z" />
<glyph unicode="&#x21cf;" glyph-name="uni21CF" horiz-adv-x="1000" d="M346 174Q348 176 378 249T411 325Q411 327 239 327H68Q55 342 55 347Q55 354 68 367H428L459 445Q487 509 494 521T510 534Q517 534 524 527T531 516Q531 515 502 438L471 367H677L666
381Q631 421 605 463T578 516Q578 522 582 523T599 525H615L619 512Q659 437 714 383T812 309T896 272T942 254Q943 246 938 243T911 232Q718 172 619 -13L615 -24L599 -26Q578 -26 578 -17Q578 -11 587 6T617 53T666 118L677 132H373L339 54Q323 12 313 -8T298
-32T288 -35Q280 -35 275 -29T269 -17Q269 -14 298 57T328 132H68Q55 145 55 152Q55 156 56 158T62 165T68 172H206Q346 172 346 174ZM848 249Q763 297 735 318L722 327H455L422 252L391 174Q391 172 557 172H722L735 181Q773 210 819 234L848 249Z" />
<glyph unicode="&#x21da;" glyph-name="uni21DA" horiz-adv-x="1000" d="M944 54Q942 44 929 36H372Q372 34 377 26T395 -4T422 -58Q442 -109 442 -110T408 -111H374L370 -100Q282 124 87 243L76 250L87 257Q284 377 370 600L374 611H408Q442 611 442 610Q423
550 381 480Q380 478 379 475T376 471T374 468T372 465V464H929Q942 456 944 446Q944 442 943 439T941 434T938 430T935 428T931 426T928 424H344L336 414Q277 336 200 277L191 270H560Q929 270 933 268Q944 262 944 250Q944 237 933 232Q929 230 560 230H191L200
223Q279 162 336 86L344 76H928Q929 76 931 75T934 73T938 70T941 66T943 61T944 54Z" />
<glyph unicode="&#x21db;" glyph-name="uni21DB" horiz-adv-x="1000" d="M56 250Q56 260 68 270H808L799 277Q720 338 663 414L655 424H363Q71 424 68 426Q55 432 55 444T68 462Q71 464 349 464H627Q627 466 622 474T604 504T577 558Q557 609 557 610T591 611H626L629
600Q717 376 912 257L923 250L912 243Q715 123 629 -100L626 -111H591Q557 -111 557 -110Q576 -50 618 20Q619 22 620 25T623 29T625 32T626 35L627 36H349Q71 36 68 38Q55 44 55 56T68 74Q71 76 363 76H655L663 86Q722 164 799 223L808 230H438L68 231Q56 236
56 250Z" />
<glyph unicode="&#x21dd;" glyph-name="uni21DD" horiz-adv-x="1000" d="M76 230Q68 230 62 237T56 250Q56 257 63 264T91 291Q102 300 108 306L159 351Q168 356 177 351L218 316L303 239L353 195Q376 214 403 239L488 316L529 351Q538 356 546 351Q548 350 594
310L638 270H848L841 278Q813 309 792 344T763 396T755 416Q755 417 778 417H801Q817 367 856 323T943 250Q895 221 856 177T801 83H778Q755 83 755 84Q755 86 762 103T791 156T841 222L848 230H737Q625 230 622 232Q620 233 599 251T558 288L537 306Q537 305 451
228T362 149Q353 146 345 149Q341 150 255 227T169 306Q167 306 129 270Q123 265 115 257T102 245T93 237T84 232T76 230Z" />
<glyph unicode="&#x21e0;" glyph-name="uni21E0" horiz-adv-x="1334" d="M292 419Q292 400 261 347T211 275H306H364Q400 275 411 271T422 250T411 230T366 225H306H211Q214 222 232 197T271 136T292 82Q292 71 285 68T262 64H250H241Q221 64 216 67T205 83Q186
127 153 167T78 230Q64 238 64 250Q64 258 69 263T82 272T106 288T139 318Q162 342 177 365T198 402T209 425T223 436Q224 437 252 437H258Q292 437 292 419ZM501 237T501 250T515 270H819Q834 262 834 250T819 230H515Q501 237 501 250ZM918 237T918 250T932 270H1236Q1251
262 1251 250T1236 230H932Q918 237 918 250Z" />
<glyph unicode="&#x21e2;" glyph-name="uni21E2" horiz-adv-x="1334" d="M84 237T84 250T98 270H402Q417 262 417 250T402 230H98Q84 237 84 250ZM501 237T501 250T515 270H819Q834 262 834 250T819 230H515Q501 237 501 250ZM1022 417Q1022 437 1055 437H1067Q1090
437 1097 434T1109 417Q1128 373 1161 333T1236 270Q1251 261 1251 250Q1251 241 1244 236T1216 217T1175 182Q1149 155 1133 128T1109 85T1097 66Q1093 64 1065 64H1053Q1031 64 1025 72T1027 100Q1036 124 1049 147T1073 185T1091 210T1101 223L1103 225H1008H950Q914
225 903 229T892 250T903 270T948 275H1008H1103L1101 277Q1100 280 1091 291T1067 325T1039 374Q1022 408 1022 417Z" />
<glyph unicode="&#x2201;" glyph-name="uni2201" horiz-adv-x="500" d="M404 269Q412 269 418 267T428 261T435 253T441 245L444 240V172Q444 103 443 96Q440 81 431 65T403 27T344 -7T250 -21T156 -8T97 27T69 65T58 96Q56 103 56 413Q56 722 58 729Q74 822 215
845Q221 846 229 846H243Q282 846 290 845Q422 826 443 729Q444 722 444 653V586L442 583Q441 580 440 578T436 573T430 567T423 562T415 558T404 556Q377 556 367 583Q364 590 364 654V719Q363 721 360 726T355 733Q326 766 250 766H249Q235 766 219 765T174 752T137
719V107Q145 83 178 71T251 58H254Q340 58 364 107V172Q364 176 364 187T363 204Q363 269 404 269Z" />
<glyph unicode="&#x2204;" glyph-name="uni2204" horiz-adv-x="556" d="M55 676Q55 688 66 694H199L333 696L351 772Q364 827 370 843T386 860Q393 860 399 854T406 841Q406 836 391 765L375 696Q375 694 431 694H484Q491 688 497 681V12L493 5L486 1L353 -1H219L202
-79Q184 -153 180 -159Q175 -166 165 -166Q146 -166 146 -148Q146 -141 161 -76T177 -4Q177 -1 122 -1H68Q55 12 55 20T66 39H126L186 41L219 181Q226 215 234 251T246 305T251 325Q251 328 166 328H79Q68 345 68 347Q68 352 75 359L82 368H262L291 505Q298 539
306 575T319 630T324 650V654H68Q55 669 55 676ZM457 368V654H411Q366 654 366 652Q365 651 361 634T349 580T333 514Q303 373 302 372V368H457ZM457 39V328H375Q293 328 293 325Q292 322 260 183T228 41T344 39H457Z" />
<glyph unicode="&#x2205;" glyph-name="emptyset" horiz-adv-x="778" d="M624 470Q624 468 639 446T668 382T683 291Q683 181 612 99T437 -1Q425 -2 387 -2T337 -1Q245 18 193 70L179 81L131 39Q96 8 89 3T75 -3Q55 -3 55 17Q55 24 61 30T111 73Q154 113 151 113Q151
114 140 130T115 177T95 241Q94 253 94 291T95 341Q112 431 173 495Q265 587 385 587Q410 587 437 581Q522 571 582 513L595 501L642 541Q689 586 695 586Q696 586 697 586T699 587Q706 587 713 583T720 568Q720 560 711 551T664 510Q651 499 642 490T628 475T624
470ZM564 477Q517 522 448 539Q428 546 375 546Q290 546 229 492T144 370Q133 332 133 279Q136 228 151 195Q157 179 168 160T184 141Q186 141 375 307T564 477ZM642 290Q642 318 637 343T625 386T611 416T598 436T593 444Q590 444 402 277T213 108Q213 104 231
89T293 55T392 37Q495 37 568 111T642 290Z" />
<glyph unicode="&#x220d;" glyph-name="uni220D" horiz-adv-x="429" d="M154 -1Q122 -1 112 3T102 26Q102 63 158 63H178Q192 64 206 65T228 66T240 68Q301 85 324 146L329 157H244Q158 157 153 161Q149 162 145 169T140 183Q140 201 158 215L167 221H256L344
223L349 237Q352 262 352 287Q352 308 351 315Q341 352 315 368T256 385Q231 385 206 376T166 356T149 346Q143 346 138 364T132 388Q132 396 147 406Q198 440 252 440Q291 440 318 435Q421 404 451 301Q456 288 456 248V234Q456 151 391 86Q330 25 240 3Q212 -1
154 -1Z" />
<glyph unicode="&#x2212;" glyph-name="minus" horiz-adv-x="500" d="M84 237T84 250T98 270H402Q417 262 417 250T402 230H98Q84 237 84 250Z" />
<glyph unicode="&#x2214;" glyph-name="uni2214" horiz-adv-x="778" d="M339 717Q339 739 354 752T388 766Q410 766 424 751T439 716T424 681T390 666Q369 666 354 681T339 717ZM57 237T57 250T71 270H369V425L370 581Q380 594 389 594Q402 594 409 579V270H707Q722
262 722 250T707 230H409V-79Q401 -93 391 -93H389H387Q375 -93 369 -79V230H71Q57 237 57 250Z" />
<glyph unicode="&#x2216;" glyph-name="uni2216" horiz-adv-x="778" d="M91 404T91 410T97 423T111 430Q117 430 395 224Q676 13 678 10Q685 3 685 -3T678 -16T664 -23Q658 -23 380 184T98 397Q91 404 91 410Z" />
<glyph unicode="&#x221d;" glyph-name="proportional" horiz-adv-x="778" d="M56 250Q56 346 122 409T276 472Q349 472 407 430T486 326L489 316Q490 317 493 326T501 345T514 367T531 393Q557 425 602 448T698 472Q722 472 722 452Q722 437 702 435T642 421T571
377Q520 323 520 250Q520 179 568 126T693 68Q722 66 722 48Q722 28 698 28Q636 28 576 67T493 174L490 184Q489 181 483 167T475 150T468 136T458 120T447 107T432 90T412 73Q350 28 277 28Q188 28 122 91T56 250ZM199 68T278 68T408 122T459 250Q459 322 414
370T308 430Q302 431 273 431Q204 431 150 380T96 250Q96 176 147 122Z" />
<glyph unicode="&#x2220;" glyph-name="angle" horiz-adv-x="722" d="M71 0L68 2Q65 3 63 5T58 11T55 20Q55 22 57 28Q67 43 346 361Q397 420 474 508Q595 648 616 671T647 694T661 688T666 674Q666 668 663 663Q662 662 627 622T524 503T390 350L120 41L386 40H653Q666
30 666 20Q666 8 651 0H71Z" />
<glyph unicode="&#x2221;" glyph-name="uni2221" horiz-adv-x="722" d="M71 0L68 2Q65 3 63 5T58 11T55 20Q55 22 57 28Q64 38 348 373T638 712Q644 714 646 714Q653 714 659 709T666 694V693Q666 687 633 647Q619 631 576 580Q528 524 495 485Q336 296 329 289Q328
288 348 264T395 182T433 54L434 40H651Q666 32 666 20T651 0H436Q431 -20 416 -20Q400 -20 396 -4V0H71ZM394 40Q394 51 389 76T366 149T319 234L302 256L119 41L256 40H394Z" />
<glyph unicode="&#x2222;" glyph-name="uni2222" horiz-adv-x="722" d="M666 -32Q666 -51 646 -51Q639 -51 365 85L75 228Q55 238 55 250Q55 257 59 262T68 268L72 270L611 536Q642 551 647 551T659 547T666 532Q666 521 657 515L525 449Q525 448 535 424T556
352T566 250T556 148T536 77T525 51L657 -15Q666 -21 666 -32ZM526 250Q526 297 517 342T499 409T488 431Q487 431 304 341T121 250T304 159T488 69Q526 143 526 250Z" />
<glyph unicode="&#x2223;" glyph-name="uni2223" horiz-adv-x="222" d="M91 417Q104 430 111 430T131 417V-10Q116 -23 111 -23T91 -10V417Z" />
<glyph unicode="&#x2224;" glyph-name="uni2224" horiz-adv-x="278" d="M118 737Q131 750 138 750L151 746L158 739V579L160 421L213 470Q269 519 276 519Q284 519 290 513T296 499V498Q296 493 291 488T244 445Q225 428 213 417L158 368V-239Q143 -252 136 -252L124
-248L120 -241L118 44V328L62 279Q4 231 0 230Q-8 230 -14 236T-20 250Q-20 257 -11 265T62 332L118 384V737Z" />
<glyph unicode="&#x2225;" glyph-name="uni2225" horiz-adv-x="389" d="M55 417Q69 431 76 431T95 419V-12Q84 -23 76 -23Q72 -23 69 -22T62 -16T55 -10V417ZM293 419Q300 431 310 431L324 424L331 417V-10Q316 -23 309 -23L297 -19L293 -12V419Z" />
<glyph unicode="&#x2226;" glyph-name="uni2226" horiz-adv-x="500" d="M131 737Q134 739 138 743T144 748T151 750T171 737V199L327 357V737Q340 750 347 750Q351 750 353 749T360 743T367 737V397L429 457Q493 518 498 519Q506 519 512 512T518 500Q518 489
442 417L367 339V-237Q352 -250 346 -250L333 -243L327 -237V301L171 143V-237Q156 -250 151 -250T131 -237V101L69 41Q24 -3 15 -12T0 -21Q-8 -21 -14 -14T-20 -2Q-20 5 -7 19T56 81L131 159V737Z" />
<glyph unicode="&#x2234;" glyph-name="therefore" horiz-adv-x="667" d="M273 411Q273 437 291 454T334 471Q358 471 375 454T393 411T376 368T333 351Q307 351 290 368T273 411ZM84 38Q110 38 126 21T143 -22Q143 -46 127 -64T83 -82Q57 -82 41 -65T24 -22Q24
4 41 21T84 38ZM524 -22Q524 4 541 21T584 38Q608 38 625 21T643 -22Q643 -45 627 -63T583 -82Q557 -82 541 -65T524 -22Z" />
<glyph unicode="&#x2235;" glyph-name="uni2235" horiz-adv-x="667" d="M23 411Q23 437 41 454T84 471Q108 471 125 454T143 411T126 368T83 351Q57 351 40 368T23 411ZM523 411Q523 437 541 454T584 471Q608 471 625 454T643 411T626 368T583 351Q557 351 540
368T523 411ZM274 -22Q274 4 291 21T334 38Q356 38 374 22T392 -22T375 -65T333 -82Q307 -82 291 -65T274 -22Z" />
<glyph unicode="&#x223c;" glyph-name="similar" horiz-adv-x="778" d="M73 132Q55 132 55 172Q55 220 79 272Q95 301 111 319Q148 353 195 363Q199 364 212 364Q262 364 294 350T408 272Q472 222 522 212Q537 208 555 208Q606 208 646 243Q671 268 680 296T691
342T702 365Q713 365 716 354T719 314Q714 236 664 179L660 176Q657 173 654 170T644 163T631 154T615 146T596 139T574 134T549 132Q510 132 465 156T386 211T307 265T223 290Q162 290 124 249T86 165Q86 155 82 144T73 132Z" />
<glyph unicode="&#x223d;" glyph-name="uni223D" horiz-adv-x="778" d="M222 133Q147 133 102 197T56 335Q56 362 66 365Q71 369 77 364Q83 356 84 335T90 298Q102 254 137 222T223 189Q258 189 292 206T355 250T413 301T477 346T550 367Q628 367 673 309T722
171Q722 133 708 133Q703 133 699 141T694 162Q694 220 655 265T555 311Q519 311 485 293T421 248T363 196T298 152T222 133Z" />
<glyph unicode="&#x2241;" glyph-name="uni2241" horiz-adv-x="778" d="M220 366Q258 366 297 347T361 308T391 288Q394 288 464 370Q494 407 510 425T535 454T546 465T552 467H553Q560 467 566 461T573 448Q573 439 499 350Q424 266 424 261Q424 259 442 247T492
222T554 209Q607 209 646 243Q671 268 680 295T690 341T702 366Q719 366 719 314Q716 265 695 226Q682 199 664 179Q614 132 555 132Q517 132 477 151T412 190T383 210T347 172T278 89T233 37Q228 32 220 32Q210 32 206 38T201 48Q201 57 266 137Q272 144 275 148Q351
231 351 237Q351 239 333 251T283 276T221 289Q159 289 123 248T86 166Q86 156 82 145T73 132Q55 132 55 172Q55 220 79 272Q95 301 111 319Q161 366 220 366Z" />
<glyph unicode="&#x2242;" glyph-name="uni2242" horiz-adv-x="778" d="M55 439T55 443T56 449T62 456T68 463H706Q720 449 720 443T706 423H68Q55 439 55 443ZM56 72Q56 112 73 152T130 225T224 257Q259 257 294 240T360 199T419 149T484 107T553 90Q603 90 643
125T691 223Q693 257 704 257Q717 257 717 221Q717 147 671 91T554 34Q517 34 481 51T414 93T355 142T291 184T222 201Q172 201 131 167T84 67Q81 34 71 34Q56 37 56 72Z" />
<glyph unicode="&#x2246;" glyph-name="uni2246" horiz-adv-x="778" d="M55 417Q55 479 101 528T222 578Q259 578 294 564T393 507Q413 493 434 480T469 460T484 454L537 549Q587 639 595 647Q600 652 607 652Q615 652 621 647T628 634Q628 625 575 536Q524 446
524 443Q527 440 555 440Q603 440 644 469T691 547Q694 578 706 578T718 556Q718 555 718 551T717 545Q717 488 684 445T595 387Q582 384 558 384Q530 384 508 389L493 394L404 238L557 236H708Q720 224 720 217T706 196H379L291 43L499 41H708Q720 29 720 21T706
1H268L226 -71Q186 -143 179 -148Q173 -155 165 -155T152 -150T146 -137Q146 -133 184 -64L222 1H144L66 3L59 7Q54 14 54 20Q54 29 66 41H246L333 194Q333 196 202 196H68Q55 211 55 218T66 236H213L357 238L457 409L437 421Q432 423 393 450T307 500T222 523Q171
523 129 491T84 414Q82 383 70 383Q55 383 55 417Z" />
<glyph unicode="&#x2248;" glyph-name="approxequal" horiz-adv-x="778" d="M55 326Q55 394 101 437T226 481Q268 479 313 460T392 419T469 379T555 361Q622 361 662 401Q686 423 688 450Q693 479 702 479H705Q719 479 719 442Q719 367 670 327T554 286Q512 286
466 304T386 345T307 385T220 404Q184 404 157 394T120 374L111 363Q86 339 86 317Q86 288 71 288Q55 288 55 326ZM55 90Q55 164 105 205T226 246Q269 243 314 224T392 183T470 144T558 126Q622 126 662 166Q686 187 688 214Q693 244 704 244Q716 244 719 210Q719
165 702 132T658 82T605 58T552 50T498 58T447 77T384 110Q322 146 302 152Q263 168 220 168Q179 168 144 152Q128 147 107 125T86 81Q86 52 71 52Q55 52 55 90Z" />
<glyph unicode="&#x224a;" glyph-name="uni224A" horiz-adv-x="778" d="M220 523Q163 523 124 486T84 412Q81 383 69 383Q56 383 56 413Q56 441 67 470Q78 508 111 537T187 575Q203 579 219 579Q248 579 271 572Q304 565 393 508Q498 439 551 439Q620 439 662
486Q688 512 693 557Q693 565 697 572T707 579Q719 579 719 548Q719 483 673 434T550 384Q512 384 467 405T386 453T305 501T220 523ZM222 288Q164 288 124 251T84 177Q81 148 69 148Q56 148 56 178Q56 206 67 235Q78 274 111 302T187 339Q198 343 220 343Q244
343 259 341T308 322T393 272Q496 203 553 203Q612 203 651 241T691 312Q693 343 705 343Q719 343 719 313Q719 245 673 199Q626 148 552 148Q513 148 467 170T385 218T304 266T222 288ZM51 -19Q51 -6 62 -1H387Q713 -1 715 -3Q725 -10 725 -20Q725 -27 718 -34Q714
-38 672 -38T387 -39H62Q51 -25 51 -19Z" />
<glyph unicode="&#x224e;" glyph-name="uni224E" horiz-adv-x="778" d="M245 367Q251 415 288 453T392 492Q445 492 485 456T532 367H707Q722 359 722 347Q722 334 711 331T665 327H608H509Q500 332 498 336Q496 338 493 363T472 411Q443 451 389 451H387Q335
451 305 411Q290 392 287 374T282 344T268 327H72Q56 332 56 347Q56 360 70 367H245ZM56 153Q56 168 72 173H268Q277 168 279 164Q281 162 284 137T305 89Q334 49 389 49H391Q442 49 472 89Q487 108 490 126T495 156T509 173H608H666Q701 173 711 170T722 153T707
133H532Q526 81 486 45T389 8Q331 8 291 45T245 133H70Q56 140 56 153Z" />
<glyph unicode="&#x224f;" glyph-name="uni224F" horiz-adv-x="778" d="M245 367Q251 415 288 453T392 492Q445 492 485 456T532 367H707Q722 359 722 347Q722 334 711 331T665 327H608H509Q500 332 498 336Q496 338 493 363T472 411Q443 451 389 451H387Q335
451 305 411Q290 392 287 374T282 344T268 327H72Q56 332 56 347Q56 360 70 367H245ZM56 153Q56 168 72 173H708Q722 163 722 153Q722 140 707 133H70Q56 140 56 153Z" />
<glyph unicode="&#x2251;" glyph-name="uni2251" horiz-adv-x="778" d="M421 474T389 474T339 493T321 541Q321 566 337 587T391 609Q456 602 456 541Q456 512 439 493ZM56 347Q56 360 70 367H707Q722 359 722 347Q722 336 708 328L390 327H72Q56 332 56 347ZM56
153Q56 168 72 173H708Q722 163 722 153Q722 140 707 133H70Q56 140 56 153ZM421 -108T389 -108T339 -89T321 -41Q321 -16 337 5T391 27Q456 20 456 -41Q456 -70 439 -89Z" />
<glyph unicode="&#x2252;" glyph-name="uni2252" horiz-adv-x="778" d="M15 541Q15 569 33 585T75 601T117 585T135 541Q135 514 118 498T75 481T32 498T15 541ZM56 347Q56 360 70 367H707Q722 359 722 347Q722 336 708 328L390 327H72Q56 332 56 347ZM56 153Q56
168 72 173H708Q722 163 722 153Q722 140 707 133H70Q56 140 56 153ZM642 -41Q642 -17 658 0T702 18Q726 18 744 3T762 -41Q762 -67 745 -84T702 -101Q676 -101 659 -85T642 -41Z" />
<glyph unicode="&#x2253;" glyph-name="uni2253" horiz-adv-x="778" d="M642 541Q642 569 660 585T702 601T744 585T762 541Q762 515 745 498T702 481Q676 481 659 497T642 541ZM56 347Q56 360 70 367H707Q722 359 722 347Q722 336 708 328L390 327H72Q56 332
56 347ZM56 153Q56 168 72 173H708Q722 163 722 153Q722 140 707 133H70Q56 140 56 153ZM14 -41Q14 -15 31 1T74 18Q101 18 118 0T135 -41Q135 -64 118 -83T75 -102Q51 -102 33 -85T14 -41Z" />
<glyph unicode="&#x2256;" glyph-name="uni2256" horiz-adv-x="778" d="M56 347Q56 360 70 367H707Q722 359 722 347Q722 334 711 331T658 327H586H465L472 318Q496 288 496 250T472 182L465 173H586H663Q700 173 711 170T722 153T707 133H70Q56 140 56 153Q56
168 72 173H312L305 182Q281 212 281 250T305 318L312 327H72Q56 332 56 347ZM473 250Q473 265 472 273T460 297T428 327H349Q328 313 318 298T306 273T304 250Q304 235 305 227T317 203T349 173H428Q449 187 459 202T471 227T473 250Z" />
<glyph unicode="&#x2257;" glyph-name="uni2257" horiz-adv-x="778" d="M279 612Q279 656 310 688T388 721Q433 721 465 689T498 612Q498 573 470 538T389 503Q336 503 308 538T279 612ZM458 614Q458 637 452 651T433 672T411 679T383 680T352 675T333 664T324
647T321 629T320 611Q320 593 321 584T332 562T359 545Q366 543 389 543H391Q406 543 414 544T435 552T452 573T458 614ZM56 347Q56 360 70 367H707Q722 359 722 347Q722 336 708 328L390 327H72Q56 332 56 347ZM56 153Q56 168 72 173H708Q722 163 722 153Q722
140 707 133H70Q56 140 56 153Z" />
<glyph unicode="&#x225c;" glyph-name="uni225C" horiz-adv-x="778" d="M192 482H190Q187 483 185 484T181 488T177 493T175 501Q175 506 178 512Q184 523 278 687T375 853Q379 857 383 857Q385 857 387 858T390 859Q397 859 403 853Q405 851 499 687T600 512Q603
506 603 501Q603 488 587 482H192ZM548 523L389 798Q388 798 309 661T230 523T389 522T548 523ZM56 347Q56 360 70 367H708Q723 359 723 347Q723 336 709 328L390 327H72Q56 332 56 347ZM56 153Q56 168 72 173H709Q723 163 723 153Q723 140 708 133H70Q56 140 56
153Z" />
<glyph unicode="&#x2266;" glyph-name="uni2266" horiz-adv-x="778" d="M674 753Q682 753 688 747T694 732T687 718Q686 717 417 589L151 463L399 345Q687 209 691 204Q694 198 694 193Q694 175 676 173H670L382 309Q92 446 90 448Q83 453 83 465Q84 476 96 482Q104
486 382 617T665 751Q669 753 674 753ZM84 39Q84 49 99 59H678Q694 53 694 39Q694 26 679 19H98Q84 26 84 39ZM83 -157Q83 -153 84 -150T86 -145T89 -141T92 -139T96 -137T99 -135H678Q694 -146 694 -155Q694 -168 679 -175H98Q84 -168 83 -157Z" />
<glyph unicode="&#x2267;" glyph-name="uni2267" horiz-adv-x="778" d="M83 733Q83 741 89 747T99 753Q107 753 253 685T543 548T687 478Q694 473 694 463T687 448Q685 446 395 309L107 173H101Q83 175 83 193Q83 194 83 196Q82 203 98 212Q117 222 248 284Q326
321 378 345L626 463L360 589Q291 622 200 665Q112 706 98 714T83 733ZM84 39Q84 49 99 59H678Q694 53 694 39Q694 26 679 19H98Q84 26 84 39ZM83 -157Q83 -153 84 -150T86 -145T89 -141T92 -139T96 -137T99 -135H678Q694 -146 694 -155Q694 -168 679 -175H98Q84
-168 83 -157Z" />
<glyph unicode="&#x2268;" glyph-name="uni2268" horiz-adv-x="778" d="M86 472Q93 477 381 614T673 752Q680 752 686 746T693 732T689 721Q686 715 418 590L151 461L418 332Q684 207 689 201Q693 195 693 190Q693 183 687 177T675 170Q668 170 380 307T86 450Q82
454 82 461Q82 467 86 472ZM82 33Q82 37 83 40T89 47T95 54H473L520 105Q569 156 571 156Q573 157 578 157Q586 157 592 151T598 136Q598 130 562 92L526 56L604 54H682Q693 43 693 35Q693 31 692 28T686 21T680 14H489L342 -139L513 -142H682Q693 -148 693 -160Q693
-167 680 -182H304L258 -230Q248 -240 237 -251T221 -268T211 -278T203 -284T197 -286Q189 -286 184 -280T178 -264Q178 -257 213 -219L249 -182H171L93 -179L86 -175Q82 -170 82 -163Q82 -155 95 -142H289L360 -64L433 14H262L93 16Q82 23 82 33Z" />
<glyph unicode="&#x2269;" glyph-name="uni2269" horiz-adv-x="778" d="M89 745Q95 752 100 752Q106 752 394 615T689 472Q693 468 693 461T689 450Q684 445 396 308T100 170Q95 170 89 176T82 190Q82 195 86 201Q91 208 358 332L624 461L358 590Q90 715 86 721Q82
725 82 731Q82 739 89 745ZM82 33Q82 37 83 40T89 47T95 54H473L520 105Q569 156 571 156Q573 157 578 157Q586 157 592 151T598 136Q598 130 562 92L526 56L604 54H682Q693 43 693 35Q693 31 692 28T686 21T680 14H489L342 -139L513 -142H682Q693 -148 693 -160Q693
-167 680 -182H304L258 -230Q248 -240 237 -251T221 -268T211 -278T203 -284T197 -286Q189 -286 184 -280T178 -264Q178 -257 213 -219L249 -182H171L93 -179L86 -175Q82 -170 82 -163Q82 -155 95 -142H289L360 -64L433 14H262L93 16Q82 23 82 33Z" />
<glyph unicode="&#x226c;" glyph-name="uni226C" horiz-adv-x="500" d="M104 730Q104 749 123 749Q130 749 138 745Q186 717 237 671L250 659L261 670Q297 703 332 726T375 750T389 744T395 730Q395 721 390 717T364 699T322 668Q290 641 283 632Q280 628 281
627T293 612Q425 454 425 250Q425 144 388 51T293 -112Q282 -125 281 -126T283 -132Q306 -162 379 -209Q395 -219 395 -230Q395 -238 389 -244T375 -250T335 -228T262 -171L250 -159L238 -170Q202 -203 167 -226T124 -250T110 -244T104 -230Q104 -219 121 -209Q199
-156 216 -132Q219 -128 218 -127T206 -112Q74 46 74 250T206 612Q217 625 218 626T216 632Q199 656 121 709Q104 719 104 730ZM249 -94Q364 61 364 250Q364 430 265 574Q253 590 249 594L242 583Q134 439 134 250Q134 114 192 -1Q212 -44 242 -83L249 -94Z" />
<glyph unicode="&#x226e;" glyph-name="uni226E" horiz-adv-x="778" d="M693 -14T693 -20T687 -33T675 -41Q667 -41 506 37L344 112Q342 112 262 -46Q184 -196 176 -205Q172 -209 168 -209T162 -208Q155 -208 151 -203T146 -190Q146 -178 171 -137Q193 -91 251
21L306 132L198 183Q142 208 118 220T88 238T82 249Q82 253 86 261Q92 267 278 357L464 443L529 572Q561 637 577 667T597 703T607 708Q615 708 622 702T629 688Q629 680 575 579L524 474Q524 473 545 482T598 508Q666 541 673 541T686 535T693 521Q693 512 679
504T589 459L493 414L360 150Q366 148 378 142T431 116T529 70Q686 -8 689 -10Q693 -14 693 -20ZM380 277L433 383Q432 385 292 319T151 250T237 209T324 170L380 277Z" />
<glyph unicode="&#x226f;" glyph-name="uni226F" horiz-adv-x="778" d="M82 514T82 520T89 533T100 541Q106 541 271 463Q434 386 435 386L515 543Q593 699 600 706Q604 708 607 708Q615 708 622 702T629 688T549 526Q509 445 491 407T473 368Q522 343 580 317Q636
291 660 278T688 261T693 250V249Q693 241 681 234T580 184Q533 161 502 146Q317 59 315 59Q312 56 246 -74Q197 -170 186 -189T168 -209Q164 -209 162 -208Q155 -208 151 -203T146 -190Q146 -187 200 -79L253 28L218 11Q182 -6 144 -23T100 -41Q95 -41 89 -35T82
-21Q82 -12 96 -4T186 41L284 88L349 217Q377 273 395 311T413 350Q413 351 253 428Q101 498 86 510Q82 514 82 520ZM624 250Q461 330 455 330Q454 331 453 329T448 321T441 308T430 287T416 259T398 223L342 114L624 250Z" />
<glyph unicode="&#x2270;" glyph-name="uni2270" horiz-adv-x="778" d="M82 -124Q82 -120 83 -117T89 -110T95 -103H220L284 50Q346 204 344 206L218 268Q153 297 123 313T87 333T82 344T86 355Q104 369 291 455Q491 552 491 553L542 673Q581 767 590 784T609
801Q616 801 622 795T629 781Q629 773 586 677Q546 581 546 577L609 606Q669 635 673 635Q680 635 686 629T693 615Q693 610 692 608T670 593T604 561L524 521L400 226L542 157Q617 123 649 107T687 85T694 72Q694 66 690 60T679 54Q664 54 526 121Q513 127 495
136T464 150T438 162T416 173T399 180T388 185L384 186Q383 186 322 41L262 -103H680Q682 -105 684 -108T688 -113T691 -118T693 -124Q693 -134 682 -141L464 -143H246L213 -219Q182 -292 178 -299Q172 -303 166 -303T153 -297T146 -283Q146 -282 174 -213T202
-143H146L93 -141Q82 -134 82 -124ZM418 370L466 495Q464 495 308 420T151 344T204 317T311 267T364 244Q364 247 418 370Z" />
<glyph unicode="&#x2271;" glyph-name="uni2271" horiz-adv-x="778" d="M97 54Q82 54 82 72Q82 79 86 84Q95 91 222 153L351 215L398 324L442 433L258 519Q95 597 87 604Q82 608 82 615T88 628T102 635Q107 635 424 484L458 468L524 630Q593 789 597 795Q601 801
609 801Q616 801 622 795T629 781L562 615L493 450L589 406Q665 371 679 362T694 344Q694 339 693 337T677 326T631 302T538 257Q504 241 465 223T406 195T386 186Q384 185 322 39L262 -103H680Q682 -105 684 -108T688 -113T691 -118T693 -124Q693 -134 682 -141L464
-143H246L213 -219Q182 -292 178 -299Q172 -303 166 -303T153 -297T146 -283Q146 -282 174 -213T202 -143H146L93 -141Q82 -134 82 -124Q82 -120 83 -117T89 -110T95 -103H220L273 26Q326 156 326 157L218 106Q109 54 97 54ZM553 379Q480 412 480 415Q479 415 460
372T423 285T406 241Q408 240 516 291T624 344L553 379Z" />
<glyph unicode="&#x2272;" glyph-name="uni2272" horiz-adv-x="778" d="M674 732Q682 732 688 726T694 711T687 697Q686 696 417 568L151 442L399 324Q687 188 691 183Q694 177 694 172Q694 154 676 152H670L382 288Q92 425 90 427Q83 432 83 444Q84 455 96 461Q104
465 382 596T665 730Q669 732 674 732ZM56 -194Q56 -107 106 -51T222 6Q260 6 296 -12T362 -56T420 -108T483 -153T554 -171Q616 -171 654 -128T694 -29Q696 6 708 6Q722 6 722 -26Q722 -102 676 -164T557 -227Q518 -227 481 -209T415 -165T358 -113T294 -69T223
-51Q163 -51 125 -93T83 -196Q81 -228 69 -228Q56 -228 56 -202V-194Z" />
<glyph unicode="&#x2273;" glyph-name="uni2273" horiz-adv-x="778" d="M90 697Q83 704 83 712T88 726T99 732Q107 732 253 664T543 527T687 457Q694 452 694 442T687 427Q685 425 395 288L107 152H101Q83 154 83 172Q83 173 83 175Q82 182 98 191Q117 201 248
263Q326 300 378 324L626 442L360 568Q91 696 90 697ZM56 -194Q56 -107 106 -51T222 6Q260 6 296 -12T362 -56T420 -108T483 -153T554 -171Q616 -171 654 -128T694 -29Q696 6 708 6Q722 6 722 -26Q722 -102 676 -164T557 -227Q518 -227 481 -209T415 -165T358 -113T294
-69T223 -51Q163 -51 125 -93T83 -196Q81 -228 69 -228Q56 -228 56 -202V-194Z" />
<glyph unicode="&#x2276;" glyph-name="uni2276" horiz-adv-x="778" d="M734 181Q734 173 728 167T714 161Q711 161 386 280T54 404Q44 408 44 421Q44 432 52 437Q66 443 388 562T714 681Q721 681 727 675T734 661Q734 651 722 645Q711 639 462 546Q441 539 420
531L122 421L420 311L723 198Q734 192 734 181ZM44 247Q44 255 50 261T63 267Q66 267 391 148T723 24Q734 18 734 7T723 -10Q716 -14 391 -133T63 -253Q56 -253 50 -247T44 -233Q44 -223 55 -217Q67 -210 317 -118Q337 -110 357 -103L655 7L357 117L54 230Q44 236
44 247Z" />
<glyph unicode="&#x2277;" glyph-name="uni2277" horiz-adv-x="778" d="M83 661Q83 668 88 674T104 681Q111 679 396 560Q686 437 687 436Q694 431 694 421T687 406Q686 405 543 344T253 222T101 161Q83 163 83 180Q83 194 95 199Q96 199 130 213T232 257T361
311L621 421L357 532Q307 553 233 584Q121 631 102 640T83 661ZM673 267Q694 267 694 248Q694 237 687 232Q684 229 420 118L156 7L416 -103L683 -215Q694 -222 694 -233Q694 -251 676 -253Q670 -253 524 -192T235 -70T90 -8Q83 -1 83 7Q83 19 94 24Q97 25 378
144T667 266Q669 267 673 267Z" />
<glyph unicode="&#x227c;" glyph-name="uni227C" horiz-adv-x="778" d="M112 270Q83 270 83 290Q83 301 94 307Q98 310 118 310Q516 310 620 464Q635 486 642 510T651 548T657 571T675 580Q693 577 693 559V552Q684 472 628 410T465 314Q436 303 372 290Q373 290
388 287T425 278T465 266Q674 199 693 28L694 17Q688 5 683 3Q677 0 673 0Q656 0 653 24Q623 270 118 270H112ZM110 116Q83 116 83 136T110 156H113Q134 156 160 155T231 146T318 128T407 95T489 44T550 -30T583 -131Q583 -153 563 -153Q556 -153 553 -152T547
-145T542 -127Q531 -54 478 0Q425 53 333 83T123 116H110Z" />
<glyph unicode="&#x227d;" glyph-name="uni227D" horiz-adv-x="778" d="M668 310Q694 310 694 290Q694 285 691 279Q684 271 664 270Q550 268 464 257T301 220T179 146T124 27Q119 0 103 0T83 16Q83 21 83 31T92 68T113 121T157 177T229 231Q295 268 405 290Q404
290 389 293T352 302T312 314Q138 371 96 500Q83 541 83 562Q83 568 89 574T103 580Q115 580 120 570T126 542T138 497T173 442Q289 310 659 310H668ZM194 -131Q201 -60 241 -6T343 82T477 133T628 155Q632 155 644 155T661 156Q685 155 690 147Q694 143 694 136Q694
132 693 129T689 124T685 120T681 117L656 116Q596 114 543 106T436 79T342 35T272 -33T235 -127Q231 -154 212 -154Q203 -153 199 -147T194 -136V-131Z" />
<glyph unicode="&#x227e;" glyph-name="uni227E" horiz-adv-x="778" d="M84 442Q84 455 91 459T117 463Q120 463 126 463T137 462Q388 466 512 526T653 705Q657 732 676 732Q685 731 689 725T694 714V708Q689 662 672 624T626 559T569 513T500 479T435 458T373
442Q379 441 404 435T440 426T477 414T533 392Q592 362 630 319T681 241T694 174Q694 153 674 153Q662 153 657 163T652 188T640 231T606 287Q500 416 137 422H114Q104 422 98 423T88 428T84 442ZM56 -194Q56 -107 106 -51T222 6Q260 6 296 -12T362 -56T420 -108T483
-153T554 -171Q616 -171 654 -128T694 -29Q696 6 708 6Q722 6 722 -26Q722 -102 676 -164T557 -227Q518 -227 481 -209T415 -165T358 -113T294 -69T223 -51Q163 -51 125 -93T83 -196Q81 -228 69 -228Q56 -228 56 -202V-194Z" />
<glyph unicode="&#x227f;" glyph-name="uni227F" horiz-adv-x="778" d="M84 710Q84 732 102 732Q115 732 119 722T125 696T137 652T171 597Q277 468 640 462H661Q694 462 694 442T661 422H640Q578 421 526 417T415 403T309 376T222 333T156 268T124 179Q122 162
118 158T103 153Q100 153 98 153T95 154T93 155T90 158T85 163Q83 167 83 176Q88 222 105 260T151 325T208 371T277 405T342 426T404 442Q401 443 380 447T345 456T302 469T245 492Q125 551 92 661Q84 695 84 710ZM56 -194Q56 -107 106 -51T222 6Q260 6 296 -12T362
-56T420 -108T483 -153T554 -171Q616 -171 654 -128T694 -29Q696 6 708 6Q722 6 722 -26Q722 -102 676 -164T557 -227Q518 -227 481 -209T415 -165T358 -113T294 -69T223 -51Q163 -51 125 -93T83 -196Q81 -228 69 -228Q56 -228 56 -202V-194Z" />
<glyph unicode="&#x2280;" glyph-name="uni2280" horiz-adv-x="778" d="M386 292Q388 292 439 393T543 598T598 703Q599 703 603 704T609 705Q616 705 622 699T629 685T533 494Q440 308 440 305Q451 310 462 312Q547 342 592 388T651 505Q654 525 658 532T673
539Q680 539 686 533T693 519Q693 495 678 450Q638 341 500 283Q433 259 418 259Q416 259 411 251T406 241T415 239Q482 224 544 190Q674 121 691 -10Q693 -28 691 -32Q684 -43 672 -43Q664 -43 658 -37Q656 -33 650 -6T634 47T589 109T500 168Q473 179 436 190T388
201H386L284 -1Q261 -45 232 -101T191 -181T178 -206Q176 -206 172 -207T166 -208Q160 -208 153 -202T146 -188Q146 -185 246 12Q344 206 344 210Q344 213 305 217T213 225T124 228H95Q82 241 82 248Q82 253 95 268H124Q172 268 236 273T343 283T386 292Z" />
<glyph unicode="&#x2281;" glyph-name="uni2281" horiz-adv-x="778" d="M103 -43Q96 -43 89 -39T82 -26L84 -10Q105 141 275 212Q342 236 355 236Q360 236 364 245L369 256H360Q284 280 275 283Q115 351 86 490Q82 507 82 517Q82 526 88 532T103 538Q110 538 115
534Q119 531 122 517T128 486T143 444T174 397T231 351T320 310Q371 292 389 292L491 496Q595 701 598 703Q599 703 603 704T609 705Q616 705 622 699T629 685Q629 684 531 485Q431 296 431 288Q431 278 520 273T651 268H680Q693 253 693 248Q693 241 680 228H651Q591
228 491 218T386 201L284 -1Q261 -45 232 -101T191 -181T178 -206Q176 -206 172 -207T166 -208Q160 -208 153 -202T146 -188Q146 -182 302 125L335 190L324 185Q313 185 289 172Q241 153 208 128T159 78T135 31T124 -11T118 -37Q112 -43 103 -43Z" />
<glyph unicode="&#x2288;" glyph-name="uni2288" horiz-adv-x="778" d="M146 -283Q146 -282 174 -213T202 -143H115Q102 -127 102 -123T115 -103H220L291 68L278 73Q203 101 153 157T86 288Q83 309 83 344Q83 380 86 399Q107 480 160 539Q222 601 298 621Q328
630 345 631T435 635L526 637L560 715Q587 778 593 789T609 801Q616 801 622 795T629 781Q629 780 625 771T614 742T600 706L571 637Q571 635 626 635H680Q693 620 693 613T689 601L682 597L618 595H553L449 346Q425 288 399 223T359 127T346 95H356Q365 95 381
95T417 94T463 93T515 93H682Q693 82 693 74T680 53H511Q420 55 335 55L329 57L262 -103H680Q682 -105 684 -108T688 -113T691 -118T693 -124Q693 -134 682 -141L464 -143H246L213 -219Q182 -292 178 -299Q172 -303 166 -303T153 -297T146 -283ZM509 590Q509 595
438 595Q354 595 318 586Q246 567 195 516T126 395Q123 378 123 344T126 293Q141 229 184 181T291 110L306 104L406 346L509 590Z" />
<glyph unicode="&#x2289;" glyph-name="uni2289" horiz-adv-x="778" d="M82 606T82 613T95 635H251H348Q408 635 435 632T502 615L515 608L520 617Q520 619 558 708Q584 774 591 787T609 801Q616 801 622 795T629 781Q629 775 562 615L551 590L569 577Q646 527
678 437Q691 398 691 344T678 250Q653 182 597 132T469 64Q427 53 366 53H326L295 -25L262 -103H660Q673 -118 673 -124Q673 -129 669 -136L662 -141L453 -143H246L213 -219Q182 -292 178 -299Q172 -303 166 -303T153 -297T146 -283Q146 -282 174 -213T202 -143H95Q82
-128 82 -123T95 -103H220L251 -25L284 53H189L93 55L86 59Q82 64 82 71T95 93H302L400 333Q498 569 498 573L444 590Q431 593 260 595L93 597L86 601Q82 606 82 613ZM652 344V354Q652 451 575 521Q571 526 557 538T537 551Q534 551 533 548Q533 543 438 319L344
95L371 93H386Q487 93 557 150T649 293Q652 309 652 344Z" />
<glyph unicode="&#x228a;" glyph-name="uni228A" horiz-adv-x="778" d="M693 72Q693 68 692 66T686 59T680 52H524Q398 52 367 53T309 63Q236 82 180 132T98 250Q84 288 84 343Q84 397 98 437Q126 515 193 568T346 632Q347 632 373 633T440 634T520 635H680Q693
620 693 615Q693 608 680 595H526Q364 595 353 592Q279 582 221 539T138 430Q124 392 124 343Q124 296 138 257Q163 192 221 149T353 95Q364 92 526 92H680Q693 79 693 72ZM102 -132T102 -125T115 -103H382L420 -68Q429 -60 438 -52T452 -39T463 -28T472 -20T478
-14T483 -10T487 -7T490 -6T493 -5T496 -5Q502 -5 508 -12T515 -28Q515 -34 513 -37Q512 -38 507 -42T492 -55T475 -70L440 -101L562 -103H682Q693 -114 693 -122T680 -143H395L355 -179Q289 -241 280 -241Q273 -241 267 -235T260 -221T265 -208T300 -174L335 -143H224L113
-141L106 -137Q102 -132 102 -125Z" />
<glyph unicode="&#x228b;" glyph-name="uni228B" horiz-adv-x="778" d="M82 615Q82 620 95 635H251Q378 635 409 634T469 623Q540 605 596 555T678 437Q691 397 691 343T678 250Q649 172 581 119T426 55Q415 52 251 52H95Q93 55 89 59T84 65T82 72Q82 79 95 92H249Q411
92 422 95Q496 105 554 148T638 257Q651 296 651 343Q651 391 638 430Q613 495 555 538T422 592Q411 595 249 595H95Q82 608 82 615ZM82 -132T82 -125T95 -103H380L420 -57Q452 -21 460 -14T474 -6Q482 -6 488 -12T495 -25T451 -81L433 -101L549 -103H662Q673 -114
673 -122T660 -143H395L355 -190Q311 -239 309 -239Q305 -241 302 -241Q294 -241 287 -235T280 -221T324 -163L342 -143H218L93 -141L86 -137Q82 -132 82 -125Z" />
<glyph unicode="&#x228f;" glyph-name="uni228F" horiz-adv-x="778" d="M83 523Q87 535 99 539H679Q694 531 694 519Q694 506 679 499H123V-1H678Q694 -7 694 -21Q694 -34 679 -41H98Q93 -38 84 -28L83 247V523Z" />
<glyph unicode="&#x2290;" glyph-name="uni2290" horiz-adv-x="778" d="M64 506T64 519T78 539H699Q706 536 714 526V-28Q706 -38 699 -41H78Q64 -34 64 -21Q64 -6 80 -1H674V499H78Q64 506 64 519Z" />
<glyph unicode="&#x229a;" glyph-name="uni229A" horiz-adv-x="778" d="M57 250Q57 327 87 392T166 497T270 560T382 582H394Q512 582 610 500Q721 401 721 250Q721 112 626 15T389 -82Q251 -82 154 13T57 250ZM682 129T682 250T596 457T390 543Q269 543 183 457T96
250Q96 132 180 45T389 -43Q511 -43 596 43ZM250 250Q250 316 295 352T384 388Q451 388 489 347T528 250Q528 192 487 152T389 112Q331 112 291 152T250 250ZM488 250Q488 290 460 319T389 349Q348 349 319 320T290 250Q290 208 320 180T389 151Q431 151 459 181T488
250Z" />
<glyph unicode="&#x229b;" glyph-name="uni229B" horiz-adv-x="778" d="M57 250Q57 327 87 392T166 497T270 560T382 582H394Q512 582 610 500Q721 401 721 250Q721 112 626 15T389 -82Q251 -82 154 13T57 250ZM682 129T682 250T596 457T390 543Q269 543 183 457T96
250Q96 132 180 45T389 -43Q511 -43 596 43ZM204 339Q204 357 215 366T238 375Q247 375 283 348Q300 336 311 328L368 286Q369 286 366 323T359 398T355 437Q357 456 379 465Q380 465 384 465T391 466Q403 465 412 457T423 437Q423 436 420 398T413 323T410 286L467
328Q476 334 486 341T501 353T513 361T523 368T529 372T535 374T541 375Q554 375 564 365T575 339Q575 325 566 318T519 292Q504 285 496 281L430 250L496 219Q552 192 559 188T572 175Q575 168 575 161Q575 148 566 137T541 126H538Q530 126 499 149Q480 163 467
172L410 214Q409 214 412 177T419 102T423 63Q423 59 421 54T411 43T389 36T368 42T357 54T355 63Q355 64 358 102T365 177T368 214L311 172Q302 165 293 159T279 148T268 140T260 134T254 131T250 128T246 127T242 126T238 126Q223 126 214 135T204 161T213 183T282
219L348 250L282 281Q226 308 219 312T206 325Q204 330 204 339Z" />
<glyph unicode="&#x229d;" glyph-name="uni229D" horiz-adv-x="778" d="M57 250Q57 327 87 392T166 497T270 560T382 582H394Q512 582 610 500Q721 401 721 250Q721 112 626 15T389 -82Q251 -82 154 13T57 250ZM682 129T682 250T596 457T390 543Q269 543 183 457T96
250Q96 132 180 45T389 -43Q511 -43 596 43ZM223 250Q223 263 233 267T280 271Q289 271 325 271T389 270H490Q535 270 545 267T555 250Q555 241 549 235Q544 231 527 231T389 230Q239 230 235 232Q223 236 223 250Z" />
<glyph unicode="&#x229e;" glyph-name="uni229E" horiz-adv-x="778" d="M71 0Q59 4 55 16V346L56 676Q64 686 70 689H709Q719 681 722 674V15Q719 10 709 1L390 0H71ZM369 365V649H95V365H369ZM682 365V649H409V365H682ZM369 40V325H95V40H369ZM682 40V325H409V40H682Z" />
<glyph unicode="&#x229f;" glyph-name="uni229F" horiz-adv-x="778" d="M71 0Q59 4 55 16V346L56 676Q64 686 70 689H709Q719 681 722 674V15Q719 10 709 1L390 0H71ZM682 365V649H95V365H682ZM682 40V325H95V40H682Z" />
<glyph unicode="&#x22a0;" glyph-name="uni22A0" horiz-adv-x="778" d="M71 0Q59 4 55 16V346L56 676Q64 686 70 689H707Q714 686 722 676V13Q714 3 707 0H71ZM123 649Q147 625 214 555T335 430T389 374L654 649H123ZM95 70Q99 74 229 209T360 345L95 619V70ZM682
70V619L418 346Q417 344 549 207L682 70ZM654 41L400 304L388 315L123 41L256 40H522L654 41Z" />
<glyph unicode="&#x22a1;" glyph-name="uni22A1" horiz-adv-x="778" d="M71 0Q59 4 55 16V346L56 676Q64 686 70 689H709Q719 681 722 674V15Q719 10 709 1L390 0H71ZM682 40V649H95V40H682ZM330 345Q330 371 347 388T390 405Q412 405 430 389T448 345Q448 317
430 301T389 285T348 301T330 345Z" />
<glyph unicode="&#x22a8;" glyph-name="uni22A8" horiz-adv-x="611" d="M55 678Q55 679 56 681T58 684T61 688T65 691T70 693T77 694Q88 692 95 679V464H540Q554 456 555 446Q555 442 554 439T552 434T549 430T546 428T542 426T539 424H95V270H539Q540 270 542
269T545 267T549 264T552 260T554 255T555 248Q554 238 540 230H95V15Q88 2 77 0Q73 0 70 1T65 3T61 6T59 9T57 13T55 16V678Z" />
<glyph unicode="&#x22a9;" glyph-name="uni22A9" horiz-adv-x="722" d="M55 678Q55 679 56 681T58 684T61 688T65 691T70 693T77 694Q88 692 95 679V15Q88 2 77 0Q73 0 70 1T65 3T61 6T59 9T57 13T55 16V678ZM249 678Q249 679 250 681T252 684T255 688T259 691T264
693T271 694Q282 692 289 679V367H651Q666 359 666 347Q666 334 651 327H289V15Q282 2 271 0Q267 0 264 1T259 3T255 6T253 9T251 13T249 16V678Z" />
<glyph unicode="&#x22aa;" glyph-name="uni22AA" horiz-adv-x="889" d="M55 678Q55 679 56 681T58 684T61 688T65 691T70 693T77 694Q88 692 95 679V15Q88 2 77 0Q73 0 70 1T65 3T61 6T59 9T57 13T55 16V678ZM237 678Q237 679 238 681T240 684T243 688T247 691T252
693T259 694Q270 692 277 679V15Q270 2 259 0Q255 0 252 1T247 3T243 6T241 9T239 13T237 16V678ZM419 678Q419 679 420 681T422 684T425 688T429 691T434 693T441 694Q452 692 459 679V367H818Q833 359 833 347Q833 334 818 327H459V15Q452 2 441 0Q437 0 434
1T429 3T425 6T423 9T421 13T419 16V678Z" />
<glyph unicode="&#x22ac;" glyph-name="uni22AC" horiz-adv-x="611" d="M56 681Q70 695 76 695T96 681V368H243L381 530Q521 692 525 692Q537 700 547 688Q554 682 554 674Q554 671 553 669T548 661T539 649T522 631T499 604T465 565T421 512Q296 373 296 368H416H476Q525
368 539 365T554 348Q554 334 543 328H261L96 141V12Q81 -1 75 -1Q65 -1 58 10L56 50V92L18 48Q7 37 -1 28T-13 14T-19 6T-23 1T-27 0T-33 -1Q-42 -1 -48 4T-55 19Q-55 24 -47 34T12 103L56 155V681ZM205 326Q205 328 152 328H96V263Q96 203 98 203Q99 203 123
231T174 290T205 326Z" />
<glyph unicode="&#x22ad;" glyph-name="uni22AD" horiz-adv-x="611" d="M56 681Q70 695 76 695T96 681V466H327L425 579Q522 692 527 692Q529 693 534 693Q542 693 547 688T553 674Q553 668 549 663Q549 662 538 650T504 611T463 563L381 468L461 466H543Q554
453 554 446T541 426H345L209 272L376 270H543Q554 257 554 251T541 230H174L96 141V12Q81 -1 75 -1Q65 -1 58 10L56 50V92L18 48Q7 37 -1 28T-13 14T-19 6T-23 1T-27 0T-33 -1Q-42 -1 -48 4T-55 19Q-55 24 -47 34T12 103L56 155V681ZM267 399L292 426H96V270H158L201
321Q256 382 267 399ZM118 228L119 229Q119 230 109 230H96V201L107 212Q118 227 118 228Z" />
<glyph unicode="&#x22ae;" glyph-name="uni22AE" horiz-adv-x="722" d="M56 681Q70 695 77 695T96 683V428L98 175L252 323V681Q264 695 272 695Q278 695 292 681V526Q292 368 296 368Q298 368 447 510Q638 695 642 695H645Q651 695 658 688T665 673Q665 666 661
661Q659 660 639 641T578 582T505 512L356 370L505 368H654Q665 357 665 349Q665 343 652 328H314L303 317L292 308V12Q289 10 285 6T279 1T272 -1Q265 -1 252 12V139Q252 266 249 266L96 119V12Q80 -1 76 -1T70 0T63 6T56 12V79L29 55Q-26 -1 -35 -1Q-42 -1 -48
5T-55 19Q-55 25 -51 30T-15 66Q5 86 18 99L56 135V681Z" />
<glyph unicode="&#x22af;" glyph-name="uni22AF" horiz-adv-x="722" d="M56 681Q70 695 77 695T96 683V428L98 175L252 323V681Q264 695 272 695Q278 695 292 681V466H401L503 563L621 679Q637 695 645 695Q652 695 658 688T665 673Q665 670 663 666Q663 665 651
652T611 612T561 563L458 468L556 466H654Q665 455 665 447T652 426H416L294 308L292 288V270H652Q665 255 665 250T652 230H292V12Q289 10 285 6T279 1T272 -1Q265 -1 252 12V139Q252 266 249 266L96 119V12Q80 -1 76 -1T70 0T63 6T56 12V79L29 55Q-26 -1 -35
-1Q-42 -1 -48 5T-55 19Q-55 25 -51 30T-15 66Q5 86 18 99L56 135V681ZM358 426H292V361L325 392L358 426Z" />
<glyph unicode="&#x22b2;" glyph-name="uni22B2" horiz-adv-x="778" d="M694 -26Q686 -40 676 -41H670L382 95Q92 232 90 234Q83 239 83 249Q83 262 96 267Q101 270 379 401T665 537Q671 539 674 539Q686 539 694 524V-26ZM654 11T654 249T653 487T402 369T151
249L275 190Q399 131 524 72T652 11Q654 11 654 249Z" />
<glyph unicode="&#x22b3;" glyph-name="uni22B3" horiz-adv-x="778" d="M83 523Q83 524 85 527T92 535T103 539Q107 539 389 406T680 268Q694 260 694 249Q694 239 687 234Q685 232 395 95L107 -41H101Q90 -40 83 -26V523ZM376 368Q323 393 254 425T155 472L125
487Q123 487 123 249T125 11Q127 12 252 71T502 190L626 249L376 368Z" />
<glyph unicode="&#x22b4;" glyph-name="uni22B4" horiz-adv-x="778" d="M694 71Q686 58 676 56H670L382 192Q92 329 90 331Q83 336 83 346Q83 359 96 364Q101 367 379 498T665 634Q671 636 674 636Q686 636 694 621V71ZM654 108T654 346T653 584T402 466T151 346L275
287Q399 228 524 169T652 108Q654 108 654 346ZM83 -120Q83 -116 84 -113T86 -108T89 -104T92 -102T96 -100T99 -98H678Q679 -98 681 -99T684 -101T688 -104T691 -108T693 -113T694 -120Q692 -130 679 -138H98Q84 -130 83 -120Z" />
<glyph unicode="&#x22b5;" glyph-name="uni22B5" horiz-adv-x="778" d="M83 620Q83 621 85 624T92 632T103 636Q107 636 389 503T680 365Q694 357 694 346Q694 336 687 331Q685 329 395 192L107 56H101Q90 58 83 71V620ZM376 465Q323 490 254 522T155 570L125
584Q123 584 123 346T125 108Q127 109 252 168T502 287L626 346L376 465ZM83 -120Q83 -116 84 -113T86 -108T89 -104T92 -102T96 -100T99 -98H678Q679 -98 681 -99T684 -101T688 -104T691 -108T693 -113T694 -120Q692 -130 679 -138H98Q84 -130 83 -120Z" />
<glyph unicode="&#x22b8;" glyph-name="uni22B8" horiz-adv-x="1111" d="M1055 250Q1055 190 1012 141T896 92Q858 92 828 106T781 140T755 180T741 214L738 228V230H405Q71 230 68 232Q55 238 55 250T68 268Q71 270 405 270H738V272L740 280Q742 287 745 297T754
321T771 348T796 374T832 396T881 408H891Q969 408 1012 360T1055 250ZM896 132Q948 132 981 166T1014 250Q1014 301 985 330T920 367Q914 368 891 368Q853 368 816 338T778 250Q778 198 812 165T896 132Z" />
<glyph unicode="&#x22ba;" glyph-name="uni22BA" horiz-adv-x="556" d="M318 -182Q302 -212 280 -212H278H275Q249 -212 239 -182L238 84V351H162L87 352Q57 362 57 391T84 429Q89 431 280 431H470L474 429Q477 427 479 426T484 423T490 417T495 410T499 402T500
391Q500 365 470 352L394 351H318V-182Z" />
<glyph unicode="&#x22bb;" glyph-name="uni22BB" horiz-adv-x="611" d="M56 697Q56 706 62 711T75 716Q86 716 90 709Q91 708 104 680T147 592T199 483L305 261L411 483Q443 548 481 629Q512 694 518 705T535 716Q543 716 549 710T555 700Q555 693 501 577T388
340T325 210Q316 194 305 194Q292 194 285 210Q282 219 224 339T111 574T56 697ZM55 14T55 20T59 31T66 38T71 40H540Q555 32 555 20T540 0H71Q70 0 67 2T59 9Z" />
<glyph unicode="&#x22bc;" glyph-name="uni22BC" horiz-adv-x="611" d="M55 698Q56 708 70 716H540Q554 708 555 698Q555 694 554 691T552 686T549 682T546 680T542 678T539 676H71Q70 676 68 677T65 679T61 682T58 686T56 691T55 698ZM555 18Q554 12 549 6T536
0H535Q525 0 515 17T459 132Q430 194 410 235L305 455L199 233Q176 185 147 125T105 36T90 7Q85 0 75 0Q63 0 58 11Q55 15 55 21Q58 31 170 266T285 507Q295 522 305 522T320 515Q322 513 439 268L555 24V18Z" />
<glyph unicode="&#x22c5;" glyph-name="dotmath" horiz-adv-x="278" d="M71 0Q59 4 55 16V96L56 176Q59 180 66 187L70 189H209Q219 181 222 174V15Q219 10 209 1L140 0H71Z" />
<glyph unicode="&#x22c7;" glyph-name="uni22C7" horiz-adv-x="778" d="M366 543Q374 545 382 545Q405 545 419 538Q429 534 443 521T462 496Q466 478 466 467Q466 438 444 412Q422 390 388 390Q352 390 331 412Q311 434 311 467Q311 499 331 518Q345 533 366
543ZM146 472Q146 479 153 485T166 492Q171 492 187 476T279 385L386 278L495 385Q600 492 608 492Q615 492 621 486T628 472Q628 467 614 452T531 367L435 270H706Q720 256 720 250Q720 241 706 230H435L531 132Q600 63 614 48T628 27Q628 20 622 14T608 7Q600
7 495 114L386 221L279 114Q204 39 188 23T166 7Q159 7 153 13T146 27Q146 32 160 47T244 132L339 230H68Q55 243 55 250Q55 255 68 270H339L244 367Q175 436 161 451T146 472ZM466 34Q466 4 447 -20T388 -44Q353 -44 331 -22Q311 1 311 34Q311 66 331 85Q347 101
366 110Q374 112 382 112Q405 112 419 105Q429 100 443 87T462 63Q466 45 466 34Z" />
<glyph unicode="&#x22c9;" glyph-name="uni22C9" horiz-adv-x="778" d="M146 479Q159 492 166 492Q171 492 189 475T279 386L386 279L495 386Q598 492 608 492Q615 492 621 486T628 472Q628 464 522 357L415 250L522 144Q628 37 628 28Q628 21 622 15T608 8Q599
8 495 115L386 221L279 115Q204 40 188 24T166 8Q162 8 160 9T153 15T146 21V479ZM186 77L359 250L186 424V77Z" />
<glyph unicode="&#x22ca;" glyph-name="uni22CA" horiz-adv-x="778" d="M146 472Q146 479 152 485T166 492Q171 492 189 475T279 386L386 279L495 386Q598 492 608 492Q615 492 628 479V21Q615 8 608 8Q599 8 495 115L386 221L279 115Q204 40 188 24T166 8Q159
8 153 14T146 28Q146 37 253 144L359 250L253 357Q146 464 146 472ZM588 77V424L499 337L415 250L588 77Z" />
<glyph unicode="&#x22cb;" glyph-name="uni22CB" horiz-adv-x="778" d="M55 674Q55 682 62 688T76 694H77Q83 694 100 677T208 561Q320 440 410 342Q462 286 541 201Q677 55 699 30T722 -2Q722 -9 716 -15T701 -22T688 -17Q687 -15 542 141T394 301L388 306L240
146Q119 15 101 -3T75 -22T61 -16T55 -2Q55 4 67 19T158 117Q190 151 209 172L361 336L209 500Q62 657 57 667Q55 671 55 674Z" />
<glyph unicode="&#x22cc;" glyph-name="uni22CC" horiz-adv-x="778" d="M84 -22T76 -22T62 -16T55 -2Q55 4 78 30T249 215Q321 293 367 342Q672 672 683 682Q695 694 702 694Q710 694 716 688T722 674Q722 668 710 653T619 555Q587 521 568 500L416 336L568 172Q715
15 720 5Q722 1 722 -2Q722 -9 716 -15T702 -22H700Q693 -22 671 1T537 146L389 306Q387 304 340 253T237 143T135 33L89 -17Q84 -22 76 -22Z" />
<glyph unicode="&#x22cd;" glyph-name="uni22CD" horiz-adv-x="778" d="M56 433Q56 464 71 464Q74 464 77 461Q82 454 82 438T91 397T123 347Q166 307 222 307Q264 307 308 331T386 385T465 438T556 463Q631 463 676 408T722 283Q722 250 708 250Q704 250 699
257Q695 265 693 286T682 330Q670 350 655 367Q612 407 556 407Q514 407 470 383T393 329T314 276T222 251Q148 251 102 306T56 433ZM57 56Q57 71 73 76H706Q722 70 722 56Q722 44 707 36H71Q57 43 57 56Z" />
<glyph unicode="&#x22ce;" glyph-name="uni22CE" horiz-adv-x="760" d="M83 558Q83 566 89 572T104 578Q108 578 116 577T146 570T190 555T239 526T286 480Q308 453 325 420T351 358T367 304T376 265T380 251T381 253Q381 262 395 312Q428 434 492 499T642 576Q654
578 655 578Q664 578 670 572T676 558Q676 543 657 540T599 524T525 476Q406 362 400 29V8Q400 -21 380 -21Q369 -21 362 -11Q360 -7 360 12Q360 115 348 200T308 360T231 480T111 537Q83 540 83 558Z" />
<glyph unicode="&#x22cf;" glyph-name="uni22CF" horiz-adv-x="760" d="M104 -22Q95 -22 89 -16T83 -2Q83 11 98 16T135 23T192 46T256 103Q360 233 360 549Q360 554 360 557T361 563T362 567T364 569T367 572T371 576Q377 578 380 578Q401 578 401 547Q401 543
401 537T400 527Q409 53 648 19Q676 16 676 -2Q676 -10 670 -16T655 -22Q654 -22 642 -20Q556 -9 492 56T395 244Q381 294 381 303Q381 305 380 305T374 275T352 201T310 110T234 27T117 -20Q105 -22 104 -22Z" />
<glyph unicode="&#x22d0;" glyph-name="uni22D0" horiz-adv-x="778" d="M84 250Q84 372 166 450T360 539Q361 539 370 539T395 539T430 540T475 540T524 540H679Q694 532 694 520Q694 511 681 501L522 500H470H441Q366 500 338 496T266 472Q244 461 224 446T179
404T139 337T124 250V245Q124 157 185 89Q244 25 328 7Q348 2 366 2T522 0H681Q694 -10 694 -20Q694 -32 679 -40H526Q510 -40 480 -40T434 -41Q350 -41 289 -25T172 45Q84 127 84 250ZM694 134Q694 123 679 114H425H384Q350 114 326 121T277 154Q238 193 238 251Q238
322 295 361Q318 378 339 382T412 387Q423 387 459 387T520 386H679Q694 377 694 366Q694 354 679 346H519Q493 346 458 346T411 347Q360 347 341 342T303 315Q278 287 278 250Q278 210 301 187T351 156Q358 154 519 154H679Q694 146 694 134Z" />
</font>
</defs>
</svg>
